osu file format v14

[General]
AudioFilename: audio.mp3
AudioLeadIn: 0
PreviewTime: 114226
Countdown: 0
SampleSet: Soft
StackLeniency: 0.7
Mode: 0
LetterboxInBreaks: 0
WidescreenStoryboard: 0

[Editor]
DistanceSpacing: 1
BeatDivisor: 8
GridSize: 4
TimelineZoom: 1

[Metadata]
Title:Wa -cycle-
TitleUnicode:環-cycle-
Artist:Itoki Hana
ArtistUnicode:糸奇 はな
Creator:Mirash
Version:Insane
Source:魔法使いの嫁
Tags:the ancient magus' bride mahoutsukai no yome ending ed
BeatmapID:1709556
BeatmapSetID:815119

[Difficulty]
HPDrainRate:7
CircleSize:4
OverallDifficulty:8
ApproachRate:7.5
SliderMultiplier:1.4
SliderTickRate:2

[Events]
//Background and Video events
0,0,"kowai.jpg",0,0
//Break Periods
2,138307,147582
//Storyboard Layer 0 (Background)
//Storyboard Layer 1 (Fail)
//Storyboard Layer 2 (Pass)
//Storyboard Layer 3 (Foreground)
//Storyboard Sound Samples

[TimingPoints]
-839,789.473684210526,4,2,0,50,1,0
739,-125,4,2,0,50,0,0
2318,-66.6666666666667,4,2,0,40,0,0
24818,-66.6666666666667,4,2,0,30,0,0
26792,-125,4,2,0,40,0,0
27582,-166.666666666667,4,2,0,20,0,0
51266,-166.666666666667,4,2,0,40,0,0
52845,-50,4,1,0,45,0,0
76529,-50,4,1,0,50,0,0
89161,-66.6666666666667,4,2,0,30,0,0
89950,-66.6666666666667,4,2,0,20,0,0
90345,-125,4,2,0,10,0,0
90739,-166.666666666667,4,2,0,20,0,0
114424,-166.666666666667,4,2,0,40,0,0
116003,-50,4,1,0,45,0,0
137713,-66.6666666666667,4,1,0,40,0,0
149555,-125,4,2,0,20,0,0
157055,-125,4,2,0,23,0,0
158634,-125,4,2,0,26,0,0
160213,-125,4,2,0,30,0,0
161792,-125,4,2,0,40,0,0
162582,-125,4,2,0,43,0,0
162976,-125,4,2,0,45,0,0
163371,-41.6666666666667,4,1,0,50,0,0
199687,-41.6666666666667,4,1,0,47,0,0
200082,-41.6666666666667,4,1,0,46,0,0
200476,-41.6666666666667,4,1,0,43,0,0
200871,-41.6666666666667,4,1,0,40,0,0
201266,-166.666666666667,4,2,0,10,0,0
207582,857.142857142857,4,2,0,10,1,0
207582,-166.666666666667,4,2,0,10,0,0
208010,800,4,2,0,10,1,0
208410,888.888888888889,4,2,0,10,1,0
208854,975.609756097561,4,2,0,10,1,0
209341,1967.2131147541,4,2,0,10,1,0
209341,-100,4,2,0,10,0,0
210324,2264.15094339623,4,2,0,10,1,0
211463,3037.9746835443,4,2,0,10,1,0
217538,-50,4,2,0,5,0,0

[Colours]
Combo1 : 242,98,2
Combo2 : 148,205,177
Combo3 : 13,250,170
Combo4 : 160,44,82

[HitObjects]
439,94,739,6,0,P|448:150|451:214,1,112,2|0,0:0|0:0,0:0:0:0:
451,205,2318,6,0,L|328:197,1,105.000004005432,4|0,0:1|0:0,0:0:0:0:
166,181,2910,1,0,0:0:0:0:
228,126,3108,2,0,L|223:15,2,105.000004005432,0|0|2,1:0|0:0|0:0,0:0:0:0:
228,126,4292,1,0,0:0:0:0:
266,212,4489,1,0,0:0:0:0:
174,329,4687,2,0,B|171:301|171:301|175:264,1,52.5000020027161,0|0,1:0|0:0,0:0:0:0:
345,144,5082,2,2,B|348:172|348:172|344:209,1,52.5000020027161,0|2,0:1|0:1,0:1:0:0:
115,155,5476,5,2,1:0:0:0:
115,155,5871,2,0,L|171:160,1,52.5000020027161,0|0,0:0|0:0,0:0:0:0:
255,273,6266,2,0,L|319:270,1,52.5000020027161,0|0,1:0|0:0,0:0:0:0:
408,206,6661,2,2,L|469:210,1,52.5000020027161,2|0,0:1|0:0,0:1:0:0:
252,134,7055,2,0,P|310:126|362:129,1,105.000004005432,2|0,0:0|0:0,0:0:0:0:
227,59,7845,2,0,P|185:51|118:47,1,105.000004005432,2|2,1:0|1:0,0:0:0:0:
54,13,8437,1,2,0:0:0:0:
85,240,8634,6,0,P|79:284|71:363,1,105.000004005432,0|0,1:0|0:0,0:0:0:0:
72,344,9226,1,0,0:0:0:0:
159,291,9424,2,0,P|162:245|169:179,1,105.000004005432,0|0,1:0|0:0,0:0:0:0:
395,84,10213,2,0,P|347:83|282:97,2,105.000004005432,2|0|0,0:0|0:0|1:0,0:0:0:0:
244,151,11397,2,2,P|190:140|173:134,1,52.5000020027161,0|2,0:0|0:1,0:1:0:0:
141,80,11792,6,0,P|105:88|56:148,1,105.000004005432,2|0,1:0|0:0,0:0:0:0:
217,289,12582,2,0,P|253:281|302:221,1,105.000004005432,0|0,1:0|1:0,0:0:0:0:
147,236,13174,1,0,0:0:0:0:
88,300,13371,6,0,L|69:241,1,52.5000020027161,2|0,0:0|0:0,0:0:0:0:
195,140,13766,2,0,L|211:189,1,52.5000020027161,0|0,1:0|0:0,0:0:0:0:
295,195,14161,1,0,1:0:0:0:
264,312,14358,1,0,0:0:0:0:
388,340,14555,1,4,0:0:0:0:
419,223,14753,1,0,0:0:0:0:
342,269,14950,6,0,P|341:222|350:157,1,105.000004005432,6|0,0:1|0:0,0:0:0:0:
435,52,15542,1,0,0:0:0:0:
250,17,15739,1,0,1:0:0:0:
250,17,16134,2,0,P|201:26|181:26,1,52.5000020027161,0|0,0:0|0:0,0:0:0:0:
56,92,16529,2,0,P|68:133|76:159,1,52.5000020027161,2|0,0:0|0:0,0:0:0:0:
220,225,16924,2,0,P|239:203|257:180,1,52.5000020027161,0|0,0:0|0:0,0:0:0:0:
179,108,17318,5,0,1:0:0:0:
132,225,17516,1,0,0:0:0:0:
197,343,17713,1,0,0:1:0:0:
364,276,17911,5,0,0:1:0:0:
290,254,18108,2,0,P|285:298|288:382,2,105.000004005432,0|0|2,1:0|0:0|1:0,0:0:0:0:
499,205,19292,2,2,P|491:176|487:142,1,52.5000020027161,2|0,0:1|0:0,0:1:0:0:
425,94,19687,6,0,P|394:102|349:164,1,105.000004005432,2|0,0:0|0:0,0:0:0:0:
173,131,20476,2,0,P|121:100|111:42,1,105.000004005432,0|0,1:0|1:0,0:0:0:0:
257,11,21068,1,2,0:0:0:0:
272,88,21266,2,0,L|262:217,1,105.000004005432,0|0,1:0|0:0,0:0:0:0:
260,369,22055,5,0,1:0:0:0:
260,369,22450,2,0,P|231:351|217:332,1,52.5000020027161,0|0,1:0|0:0,0:0:0:0:
213,252,22845,2,0,P|255:243|321:262,1,105.000004005432,2|0,0:0|0:0,0:0:0:0:
356,327,23437,1,0,0:0:0:0:
137,279,23634,2,0,P|122:242|121:215,1,52.5000020027161,0|0,1:0|0:0,0:0:0:0:
216,161,24029,2,0,L|233:57,1,105.000004005432,0|0,1:0|1:0,0:0:0:0:
506,193,24818,5,0,3:0:0:0:
506,193,25016,1,0,3:0:0:0:
506,193,25213,1,0,3:0:0:0:
431,184,25608,1,0,1:0:0:0:
357,194,26003,1,2,0:0:0:0:
254,192,26792,6,0,P|253:159|255:127,1,56,0|0,1:0|0:0,0:0:0:0:
211,46,27582,6,0,P|193:47|167:52,1,41.9999987182618,4|2,0:1|0:0,0:0:0:0:
93,50,28371,1,0,0:0:0:0:
21,26,28766,1,8,0:3:0:0:
2,191,29161,5,2,0:3:0:0:
113,175,29555,1,8,0:3:0:0:
138,280,29950,1,4,0:3:0:0:
138,280,30345,2,0,L|165:276,1,20.9999993591309,0|0,0:0|0:0,0:0:0:0:
316,146,30739,6,0,P|339:152|362:161,1,41.9999987182618,4|2,1:2|0:0,0:0:0:0:
412,244,31529,2,0,P|435:240|456:232,1,41.9999987182618,0|8,0:0|0:3,0:0:0:0:
315,245,32318,1,2,0:0:0:0:
315,245,32516,1,0,0:0:0:0:
315,245,32713,1,0,0:0:0:0:
148,360,33108,5,4,0:3:0:0:
198,303,33503,2,0,P|193:285|191:276,1,20.9999993591309,0|0,0:0|0:0,0:0:0:0:
111,211,33897,2,0,P|112:177|114:163,1,41.9999987182618,4|2,1:3|0:0,0:0:0:0:
169,118,34687,1,0,0:0:0:0:
305,153,35082,6,0,P|327:150|335:148,1,20.9999993591309,8|0,0:3|0:0,0:0:0:0:
390,103,35476,2,0,P|386:72|382:56,2,41.9999987182618,2|8|0,0:3|0:3|0:0,0:0:0:0:
399,178,36661,1,0,0:0:0:0:
332,336,37055,6,0,P|306:335|256:299,1,83.9999974365235,4|0,1:3|0:0,0:0:0:0:
204,251,38239,1,8,0:3:0:0:
143,296,38634,2,0,P|147:317|147:339,2,41.9999987182618,2|0|8,0:0|0:0|0:3,0:0:0:0:
124,222,39818,1,2,0:0:0:0:
236,49,40213,6,0,P|234:81|234:96,1,41.9999987182618,4|0,1:3|0:0,0:0:0:0:
390,154,41003,2,0,P|389:133|387:112,1,41.9999987182618,2|8,0:0|0:3,0:0:0:0:
295,175,41595,1,0,0:0:0:0:
295,175,41792,2,0,P|299:203|299:225,1,41.9999987182618,2|0,0:3|0:0,0:0:0:0:
346,276,42582,1,2,0:0:0:0:
346,276,42976,2,0,P|358:277|373:279,1,20.9999993591309,0|0,0:0|0:0,0:0:0:0:
287,342,43371,6,0,P|264:339|241:328,1,41.9999987182618,4|0,1:3|0:0,0:0:0:0:
196,275,44161,1,2,0:0:0:0:
124,299,44555,1,8,0:3:0:0:
137,224,44950,1,4,0:3:0:0:
137,224,45147,1,0,0:0:0:0:
137,224,45345,1,0,0:0:0:0:
10,182,45739,2,0,P|12:155|12:136,1,41.9999987182618,2|0,0:0|0:0,0:0:0:0:
131,47,46529,6,0,P|150:46|178:49,1,41.9999987182618,4|0,0:3|0:0,0:0:0:0:
236,88,47318,1,2,0:0:0:0:
347,106,47713,2,0,P|319:116|302:120,2,41.9999987182618,8|2|2,0:3|0:3|0:1,0:0:0:0:
387,42,48897,1,2,1:0:0:0:
449,85,49292,1,8,0:3:0:0:
413,151,49687,2,0,P|407:178|407:198,1,41.9999987182618,4|2,1:3|0:0,0:0:0:0:
428,264,50476,1,0,0:0:0:0:
428,264,50871,1,8,0:3:0:0:
256,373,51266,5,2,0:0:0:0:
256,373,52055,5,2,0:3:0:0:
256,373,52845,6,0,P|258:320|268:222,1,140,4|2,0:0|0:2,0:0:0:0:
159,81,53437,1,0,0:0:0:0:
236,98,53634,2,0,P|248:55|252:16,1,70,8|0,0:0|0:0,0:0:0:0:
80,83,54029,2,0,P|85:117|95:151,1,70,0|0,0:0|0:0,0:0:0:0:
503,195,54424,5,6,0:2:0:0:
503,195,54818,1,0,0:0:0:0:
420,260,55016,1,0,0:0:0:0:
340,191,55213,1,8,0:0:0:0:
425,129,55411,1,0,0:0:0:0:
256,253,55608,6,0,P|251:210|240:160,1,70,0|0,0:0|0:0,0:0:0:0:
104,359,56003,2,0,P|162:340|260:327,1,140,4|2,0:0|0:2,0:0:0:0:
309,350,56595,1,0,0:0:0:0:
379,310,56792,1,8,0:0:0:0:
140,205,57187,6,0,P|132:155|121:129,1,70,0|0,0:0|0:0,0:0:0:0:
98,35,57582,2,0,P|142:31|244:62,1,140,6|0,0:2|0:0,0:0:0:0:
421,150,58371,1,8,0:0:0:0:
394,48,58568,1,0,0:0:0:0:
325,112,58766,1,0,0:0:0:0:
298,10,58963,1,8,0:2:0:0:
255,191,59161,5,4,0:0:0:0:
255,191,59555,5,2,0:2:0:0:
266,271,59753,1,0,0:0:0:0:
277,352,59950,2,0,P|228:344|164:283,1,140,10|0,0:0|0:0,0:0:0:0:
177,211,60542,1,0,0:0:0:0:
327,225,60739,2,0,L|407:236,1,70,6|0,0:2|0:0,0:0:0:0:
253,114,61134,2,0,L|183:104,1,70,0|8,0:0|0:2,0:0:0:0:
333,157,61529,5,8,0:0:0:0:
399,75,61726,1,0,0:0:0:0:
481,140,61924,1,0,0:0:0:0:
421,226,62121,1,8,0:2:0:0:
333,157,62318,2,0,P|325:88|261:39,1,140,4|0,0:0|0:0,0:0:0:0:
204,22,62911,1,4,0:2:0:0:
138,103,63108,2,0,L|-1:88,1,140,10|0,0:0|0:0,0:0:0:0:
171,200,63897,5,6,0:2:0:0:
260,169,64095,1,0,0:0:0:0:
230,364,64292,1,0,0:0:0:0:
159,300,64489,1,8,0:2:0:0:
343,229,64687,1,8,0:0:0:0:
323,323,64884,1,0,0:0:0:0:
252,264,65082,2,0,L|241:179,1,70,0|8,0:0|0:2,0:0:0:0:
412,46,65476,6,0,L|437:198,1,140,4|2,0:0|0:2,0:0:0:0:
254,3,66266,1,8,0:0:0:0:
254,3,66661,5,0,0:0:0:0:
174,75,66858,1,0,0:0:0:0:
70,44,67055,1,6,0:2:0:0:
192,175,67253,5,0,0:0:0:0:
254,3,67450,1,0,0:0:0:0:
70,44,67647,1,0,0:0:0:0:
192,175,67845,5,8,0:0:0:0:
174,75,68042,1,0,0:0:0:0:
70,44,68239,2,0,L|53:125,1,70
86,325,68634,6,0,L|116:177,1,140,4|2,0:0|0:2,0:0:0:0:
195,286,69226,1,0,0:0:0:0:
294,335,69424,2,0,L|282:256,1,70,8|0,0:0|0:0,0:0:0:0:
336,194,69818,1,4,0:2:0:0:
312,103,70016,1,0,0:0:0:0:
495,188,70213,6,0,P|455:196|425:297,1,140,6|2,0:2|0:2,0:0:0:0:
475,340,70805,1,0,0:0:0:0:
356,159,71003,2,0,L|262:143,1,70,10|0,0:0|0:0,0:0:0:0:
450,82,71397,1,0,0:0:0:0:
450,82,71595,1,8,0:2:0:0:
257,8,71792,5,4,0:0:0:0:
189,169,72187,1,2,0:2:0:0:
189,169,72384,1,0,0:0:0:0:
189,169,72582,2,0,P|237:174|293:263,1,140,10|8,0:0|0:2,0:0:0:0:
241,299,73174,1,0,0:0:0:0:
161,300,73371,2,0,P|139:263|133:232,1,70,6|8,0:2|0:2,0:0:0:0:
40,186,73766,2,0,P|18:223|-4:244,1,70,0|0,0:0|0:0,0:0:0:0:
10,346,74161,2,0,P|53:345|82:355,1,70,8|0,0:0|0:0,0:0:0:0:
255,192,74555,5,8,0:2:0:0:
255,192,74950,1,4,0:0:0:0:
261,43,75345,2,0,P|259:78|255:113,1,70,2|0,0:2|0:0,0:0:0:0:
335,199,75739,2,0,P|334:142|396:75,1,140
255,192,76332,1,0,0:0:0:0:
177,171,76529,6,0,P|175:225|182:260,1,70,6|8,0:0|0:2,0:0:0:0:
309,328,76924,6,0,L|225:314,1,70,0|0,0:0|0:0,0:0:0:0:
42,345,77318,6,0,P|87:335|120:304,1,70,6|8,0:0|0:2,0:0:0:0:
297,191,77713,6,0,P|344:187|389:189,1,70,0|4,0:0|0:2,0:0:0:0:
91,230,78108,6,2,P|68:176|76:93,1,140,6|8,0:0|0:2,0:0:0:0:
150,44,78700,1,0,0:0:0:0:
278,104,78897,2,0,L|427:93,2,140,8|2|6,0:0|0:0|0:0,0:0:0:0:
259,260,80082,6,2,P|271:312|275:342,1,70,8|2,0:2|0:0,0:0:0:0:
342,364,80476,1,10,0:0:0:0:
416,338,80674,1,0,0:0:0:0:
203,205,80871,2,2,P|138:207|61:223,1,140,2|4,0:0|0:0,0:0:0:0:
376,101,81661,5,8,0:2:0:0:
376,101,81858,1,0,0:0:0:0:
376,101,82055,2,0,P|415:95|458:95,1,70,10|0,0:0|0:0,0:0:0:0:
324,156,82450,2,2,P|285:150|236:157,1,70,2|0,0:0|0:0,0:0:0:0:
469,261,82845,2,0,P|497:243|492:139,1,140,6|2,0:0|0:0,0:0:0:0:
293,25,83634,2,2,P|265:43|262:145,1,140,10|2,0:0|0:0,0:0:0:0:
38,160,84226,5,8,0:2:0:0:
100,208,84424,2,0,P|110:277|115:351,1,140,6|8,0:0|0:2,0:0:0:0:
187,361,85016,1,0,0:0:0:0:
262,340,85213,1,8,0:0:0:0:
177,179,85608,2,0,P|172:139|172:97,1,70,2|0,0:0|0:0,0:0:0:0:
243,242,86003,6,0,P|288:234|391:228,2,140,6|0|10,0:0|0:0|0:0,0:0:0:0:
399,119,87187,1,8,0:2:0:0:
488,128,87384,1,4,0:2:0:0:
480,222,87582,2,0,P|474:254|464:363,1,140,6|8,0:0|0:2,0:0:0:0:
381,360,88174,1,0,0:0:0:0:
302,357,88371,2,0,P|266:346|226:341,1,70,8|0,0:0|0:0,0:0:0:0:
126,358,88766,1,8,0:2:0:0:
48,343,88963,1,4,0:2:0:0:
9,190,89161,5,2,0:0:0:0:
9,190,89950,5,0,1:0:0:0:
73,147,90345,6,0,L|113:144,1,28,2|0,0:0|0:0,0:0:0:0:
256,190,90739,6,0,P|259:165|266:140,1,41.9999987182618,4|2,0:1|0:0,0:0:0:0:
234,78,91529,1,0,0:0:0:0:
243,2,91924,1,8,0:3:0:0:
331,53,92318,1,2,0:3:0:0:
421,11,92713,1,8,0:3:0:0:
351,70,93108,1,4,0:3:0:0:
421,143,93503,1,0,0:0:0:0:
261,269,93897,6,0,P|265:289|268:310,1,41.9999987182618,4|2,1:2|0:0,0:0:0:0:
324,361,94687,1,0,0:0:0:0:
397,343,95082,1,8,0:3:0:0:
320,220,95476,2,0,P|319:207|316:191,2,20.9999993591309,2|0|0,0:3|0:0|0:0,0:0:0:0:
190,245,96266,2,0,P|165:245|140:240,1,41.9999987182618,4|0,0:3|0:0,0:0:0:0:
14,110,97055,6,0,P|40:110|63:114,1,41.9999987182618,4|2,1:3|0:0,0:0:0:0:
122,148,97845,1,0,0:0:0:0:
184,105,98239,2,0,P|198:103|207:103,1,20.9999993591309,8|0,0:3|0:0,0:0:0:0:
293,52,98634,2,0,P|291:81|291:101,1,41.9999987182618,2|8,0:3|0:3,0:0:0:0:
404,185,99424,2,0,P|403:164|401:143,1,41.9999987182618,0|0,0:0|0:0,0:0:0:0:
201,272,100213,5,4,1:3:0:0:
130,300,100608,2,0,P|129:286|128:272,1,20.9999993591309,2|0,0:1|0:0,0:0:0:0:
55,284,101003,2,2,P|54:270|53:256,1,20.9999993591309,2|0,0:1|0:0,0:1:0:0:
10,198,101397,2,2,P|11:184|12:170,1,20.9999993591309,8|0,0:3|0:1,0:1:0:0:
85,182,101792,2,2,P|86:168|87:154,1,20.9999993591309,2|2,0:3|0:1,0:1:0:0:
126,95,102187,2,0,P|154:100|173:109,2,41.9999987182618,2|8|2,0:1|0:3|0:0,0:0:0:0:
259,16,103371,6,0,P|258:40|258:64,1,41.9999987182618,4|0,1:3|0:0,0:0:0:0:
300,119,104161,1,2,0:0:0:0:
271,189,104555,1,8,0:3:0:0:
271,189,104753,1,0,0:0:0:0:
271,189,104950,2,0,P|268:215|267:237,2,41.9999987182618,2|0|2,0:3|0:0|0:0,0:0:0:0:
345,174,106134,1,0,0:0:0:0:
460,295,106529,6,0,P|456:326|455:338,1,41.9999987182618,4|0,1:3|0:0,0:0:0:0:
383,361,107318,1,2,0:0:0:0:
308,347,107713,1,8,0:3:0:0:
239,314,108108,2,0,P|221:315|209:316,2,20.9999993591309,2|0|0,0:3|0:0|0:0,0:0:0:0:
302,273,108897,1,2,0:0:0:0:
157,265,109292,2,0,P|155:245|155:239,1,20.9999993591309,0|0,0:0|0:0,0:0:0:0:
256,101,109687,6,0,P|253:121|252:149,1,41.9999987182618,4|0,0:3|0:0,0:0:0:0:
305,196,110476,1,2,0:0:0:0:
376,170,110871,1,8,0:3:0:0:
486,230,111266,2,0,P|487:250|491:271,2,41.9999987182618,2|2|2,0:3|0:1|1:0,0:0:0:0:
411,243,112450,1,8,0:3:0:0:
248,317,112845,6,0,P|219:311|201:304,1,41.9999987182618,4|2,1:3|0:0,0:0:0:0:
149,258,113634,1,2,0:3:0:0:
160,183,114029,1,8,0:3:0:0:
255,5,114424,5,2,0:0:0:0:
277,28,115213,5,2,0:3:0:0:
277,28,115608,5,0,3:0:0:0:
277,28,115707,1,0,3:0:0:0:
277,28,115805,1,0,3:0:0:0:
277,28,115904,1,0,3:0:0:0:
277,28,116003,2,0,P|231:40|193:127,1,140,4|2,0:0|0:2,0:0:0:0:
295,218,116595,1,0,0:0:0:0:
206,199,116792,2,0,P|202:243|208:341,1,140,8|0,0:0|0:0,0:0:0:0:
119,362,117384,1,0,0:0:0:0:
1,192,117582,5,6,0:2:0:0:
1,192,117976,5,0,0:0:0:0:
134,158,118174,1,0,0:0:0:0:
165,278,118371,1,8,0:0:0:0:
74,269,118568,5,0,0:0:0:0:
229,180,118766,1,0,0:0:0:0:
341,276,118963,1,0,0:0:0:0:
419,240,119161,6,0,P|416:200|416:98,1,140,4|2,0:0|0:3,0:0:0:0:
337,52,119753,1,0,0:0:0:0:
185,62,119950,2,0,P|192:98|195:132,1,70,8|0,0:0|0:0,0:0:0:0:
20,159,120345,2,0,P|47:134|75:115,1,70,0|0,0:0|0:0,0:0:0:0:
128,210,120739,6,0,P|118:270|115:356,1,140,6|0,0:2|0:0,0:0:0:0:
206,349,121332,1,0,0:0:0:0:
249,207,121529,2,0,B|238:172|238:172|251:135,1,70,8|0,0:0|0:0,0:0:0:0:
376,72,121924,2,0,B|387:107|387:107|374:144,1,70,0|8,0:0|0:2,0:0:0:0:
286,54,122318,2,0,L|146:61,1,140,4|2,0:0|0:2,0:0:0:0:
63,22,122911,1,0,0:0:0:0:
0,88,123108,1,10,0:0:0:0:
167,355,123503,6,0,P|196:334|236:321,1,70,0|0,0:0|0:0,0:0:0:0:
281,263,123897,2,0,P|324:270|416:322,2,140,6|0|8,0:2|0:0|0:0,0:0:0:0:
191,243,124884,1,0,0:0:0:0:
100,231,125082,2,0,P|111:184|114:153,1,70,0|8,0:0|0:2,0:0:0:0:
256,3,125476,5,4,0:0:0:0:
256,3,125871,1,0,0:0:0:0:
279,90,126068,1,4,0:2:0:0:
259,179,126266,1,10,0:0:0:0:
259,179,126661,5,0,0:0:0:0:
345,150,126858,1,0,0:0:0:0:
425,192,127055,1,6,0:2:0:0:
425,192,127450,5,0,0:0:0:0:
292,251,127647,1,8,0:2:0:0:
158,187,127845,1,8,0:0:0:0:
68,222,128042,5,0,0:0:0:0:
243,183,128239,1,0,0:0:0:0:
401,257,128437,1,8,0:2:0:0:
246,368,128634,6,0,P|250:320|244:207,1,140,4|2,0:0|0:2,0:0:0:0:
164,188,129226,1,0,0:0:0:0:
226,121,129424,2,0,P|273:116|381:124,1,140,8|0,0:0|0:0,0:0:0:0:
448,83,130016,1,0,0:0:0:0:
481,343,130213,5,6,0:2:0:0:
481,343,130608,5,0,0:0:0:0:
373,294,130805,1,0,0:0:0:0:
401,379,131003,1,8,0:0:0:0:
147,246,131200,5,0,0:0:0:0:
255,197,131397,1,0,0:0:0:0:
227,282,131595,1,0,0:0:0:0:
171,159,131792,2,0,P|175:110|171:9,1,140,4|2,0:0|0:2,0:0:0:0:
339,19,132582,2,0,P|336:89|341:159,1,140,8|4,0:0|0:2,0:0:0:0:
410,218,133174,1,0,0:0:0:0:
273,364,133371,6,0,P|236:361|198:362,1,70,6|0,0:2|0:0,0:0:0:0:
132,303,133766,2,0,P|75:312|-6:346,2,140,2|10|0,0:2|0:0|0:0,0:0:0:0:
222,291,134753,1,0,0:0:0:0:
368,219,134950,6,0,P|362:257|361:370,1,140,4|2,0:0|0:2,0:0:0:0:
450,350,135542,1,0,0:0:0:0:
450,259,135739,2,0,P|453:226|461:179,1,70,10|0,0:0|0:0,0:0:0:0:
403,117,136134,1,8,0:2:0:0:
312,124,136332,1,0,0:0:0:0:
116,144,136529,6,0,P|68:146|35:154,1,70,6|8,0:2|0:2,0:0:0:0:
182,102,136924,2,0,P|204:59|213:26,1,70,0|0,0:0|0:0,0:0:0:0:
186,179,137318,1,8,0:0:0:0:
213,266,137516,1,0,0:0:0:0:
185,352,137713,6,0,P|173:314|173:227,1,105.000004005432,8|4,0:2|0:0,0:0:0:0:
504,193,149555,5,2,0:0:0:0:
504,193,149753,1,0,3:0:0:0:
504,193,149950,2,0,L|447:183,1,56,2|0,0:0|0:0,0:0:0:0:
383,215,150739,2,0,B|301:213|320:130|227:151,1,168,0|2,1:0|0:0,0:0:0:0:
180,197,152121,1,0,0:0:0:0:
63,130,152318,6,0,B|52:103|60:70|93:60|93:60|143:77|175:78,1,168,0|2,1:0|0:0,0:0:0:0:
236,40,153700,1,0,0:0:0:0:
372,112,153897,6,0,B|415:126|451:91|451:91|496:157|461:210|461:210|433:253|466:320,1,322,0|0,1:0|0:0,0:0:0:0:
391,353,156463,6,0,P|372:350|358:346,1,28,2|2,0:0|0:0,0:0:0:0:
288,366,156858,1,2,0:0:0:0:
219,327,157055,6,0,P|197:336|171:355,1,56,0|2,1:0|0:0,0:0:0:0:
101,330,157647,1,0,1:0:0:0:
101,330,157845,2,0,P|99:300|97:290,1,28,8|0,0:0|0:0,0:0:0:0:
36,262,158239,1,2,0:0:0:0:
36,262,158437,1,0,1:0:0:0:
83,198,158634,2,0,P|109:199|130:203,2,37.3333333333333,2|2|2,1:2|0:0|0:0,0:0:0:0:
20,151,159424,1,8,0:0:0:0:
37,41,159687,5,0,0:0:0:0:
115,59,159818,1,2,0:0:0:0:
115,59,159950,2,0,L|108:92,1,18.6666666666667,2|0,0:0|0:0,0:0:0:0:
215,101,160213,6,0,P|257:105|304:160,1,112,0|8,1:0|0:0,0:0:0:0:
276,221,161200,1,0,0:0:0:0:
286,294,161397,2,0,P|290:313|292:329,1,28,2|0,0:0|0:0,0:0:0:0:
511,192,161792,5,2,1:2:0:0:
511,192,162582,5,0,3:0:0:0:
438,205,162779,1,0,3:0:0:0:
427,133,162976,1,0,3:0:0:0:
504,113,163174,1,2,3:0:0:0:
504,113,163272,1,0,3:0:0:0:
504,113,163371,2,0,P|489:69|375:34,1,167.999994873047,4|2,0:0|0:2,0:0:0:0:
217,64,163963,1,0,0:0:0:0:
208,140,164161,2,0,P|217:193|217:248,1,83.9999974365235,8|0,0:0|0:0,0:0:0:0:
56,315,164555,2,0,P|58:273|66:231,1,83.9999974365235,0|8,0:0|0:2,0:0:0:0:
255,376,164950,5,6,0:2:0:0:
255,376,165345,5,0,0:0:0:0:
339,307,165542,1,0,0:0:0:0:
239,261,165739,1,8,0:0:0:0:
155,332,165937,1,0,0:0:0:0:
318,225,166134,6,0,L|323:136,1,83.9999974365235,8|0,0:2|0:0,0:0:0:0:
115,44,166529,2,0,L|107:226,1,167.999994873047,4|2,0:0|0:3,0:0:0:0:
47,272,167121,1,0,0:0:0:0:
25,88,167318,2,0,B|19:47|19:47|34:7,1,83.9999974365235,8|0,0:0|0:0,0:0:0:0:
191,178,167713,2,0,B|197:219|197:219|182:259,1,83.9999974365235,0|8,0:0|0:2,0:0:0:0:
421,98,168108,5,6,0:2:0:0:
421,98,168503,5,0,0:0:0:0:
445,211,168700,1,8,0:2:0:0:
362,188,168897,1,8,0:0:0:0:
386,301,169095,1,0,0:0:0:0:
265,320,169292,1,0,0:0:0:0:
241,207,169489,1,8,0:2:0:0:
315,253,169687,6,0,L|140:225,1,167.999994873047,4|2,0:0|0:2,0:0:0:0:
97,157,170279,1,0,0:0:0:0:
224,150,170476,2,0,L|216:61,1,83.9999974365235,10|0,0:0|0:0,0:0:0:0:
278,8,170871,5,0,0:0:0:0:
372,21,171068,1,0,0:0:0:0:
468,39,171266,1,6,0:2:0:0:
468,39,171661,5,0,0:0:0:0:
388,113,171858,1,0,0:0:0:0:
422,216,172055,1,8,0:0:0:0:
505,144,172253,1,0,0:0:0:0:
209,348,172450,5,2,0:0:0:0:
237,344,172549,1,2,0:0:0:0:
250,320,172647,1,8,0:2:0:0:
278,315,172746,1,2,0:0:0:0:
278,315,172845,2,0,B|360:292|360:292|458:317,1,167.999994873047,4|0,0:0|0:0,0:0:0:0:
499,255,173437,1,4,0:2:0:0:
263,141,173634,2,0,P|267:186|266:236,1,83.9999974365235,10|0,0:0|0:0,0:0:0:0:
91,249,174029,1,0,0:0:0:0:
202,272,174226,1,0,0:0:0:0:
86,212,174424,6,0,P|78:116|20:67,1,167.999994873047,6|0,0:2|0:0,0:0:0:0:
94,17,175016,1,8,0:2:0:0:
246,90,175213,5,8,0:0:0:0:
219,257,175411,1,0,0:0:0:0:
419,166,175608,5,0,0:0:0:0:
340,182,175805,1,8,0:2:0:0:
396,246,176003,2,0,P|457:243|513:157,1,167.999994873047,4|2,0:0|0:2,0:0:0:0:
470,90,176595,1,0,0:0:0:0:
321,257,176792,2,0,P|323:310|329:359,1,83.9999974365235,8|0,0:0|0:0,0:0:0:0:
182,247,177187,5,0,0:0:0:0:
196,151,177384,1,0,0:0:0:0:
142,225,177582,2,0,P|133:280|229:370,1,167.999994873047,6|0,0:2|0:0,0:0:0:0:
254,214,178174,1,0,0:0:0:0:
271,136,178371,2,0,P|256:94|231:61,1,83.9999974365235,8|0,0:0|0:0,0:0:0:0:
25,250,178766,2,0,P|34:201|49:170,1,83.9999974365235,0|8,0:0|0:2,0:0:0:0:
360,195,179161,5,4,0:0:0:0:
360,195,179555,1,2,0:3:0:0:
431,63,179753,1,0,0:0:0:0:
439,139,179950,5,8,0:0:0:0:
349,18,180147,1,0,0:0:0:0:
490,240,180345,6,0,P|483:281|484:325,1,83.9999974365235,4|0,0:2|0:0,0:0:0:0:
258,359,180739,2,0,L|247:183,2,167.999994873047,6|2|10,0:2|0:2|0:0,0:0:0:0:
187,129,181924,1,0,0:0:0:0:
187,129,182121,1,8,0:2:0:0:
8,195,182318,6,0,P|61:195|101:298,1,167.999994873047,4|2,0:0|0:2,0:0:0:0:
52,348,182911,1,0,0:0:0:0:
301,263,183108,2,0,P|342:269|383:283,1,83.9999974365235,10|0,0:0|0:0,0:0:0:0:
432,347,183503,1,8,0:2:0:0:
511,336,183700,1,0,0:0:0:0:
344,188,183897,6,0,P|299:187|171:238,1,167.999994873047,6|0,0:2|0:0,0:0:0:0:
421,211,184489,1,0,0:0:0:0:
405,136,184687,2,0,P|404:88|409:47,1,83.9999974365235,8|0,0:0|0:0,0:0:0:0:
257,3,185082,1,8,0:2:0:0:
257,3,185476,6,0,P|199:10|165:11,1,83.9999974365235,6|0,1:0|0:0,0:0:0:0:
104,58,185871,1,2,0:2:0:0:
56,240,186068,1,8,0:2:0:0:
56,240,186266,2,2,P|97:237|139:232,1,83.9999974365235,10|0,0:0|0:0,0:0:0:0:
195,169,186661,1,8,0:2:0:0:
278,173,186858,1,0,0:0:0:0:
383,265,187055,6,0,P|420:259|468:244,1,83.9999974365235,6|8,0:0|0:2,0:0:0:0:
256,281,187450,6,0,L|271:381,1,83.9999974365235,0|0,0:0|0:0,0:0:0:0:
367,162,187845,6,0,P|340:113|336:69,1,83.9999974365235,6|8,0:0|0:2,0:0:0:0:
182,195,188239,6,0,P|138:182|96:173,1,83.9999974365235,0|6,0:0|0:2,0:0:0:0:
117,56,188634,6,2,P|182:57|229:157,1,167.999994873047,6|8,0:0|0:2,0:0:0:0:
337,247,189226,1,0,0:0:0:0:
311,327,189424,1,8,0:0:0:0:
311,327,189818,5,2,0:0:0:0:
420,229,190016,1,4,0:2:0:0:
296,132,190213,2,2,P|298:74|388:21,1,167.999994873047,6|8,0:0|0:2,0:0:0:0:
454,67,190805,1,2,0:0:0:0:
379,160,191003,2,0,P|381:207|388:251,1,83.9999974365235,10|4,0:0|0:2,0:0:0:0:
205,138,191397,2,2,P|210:96|212:54,1,83.9999974365235,2|0,0:0|0:0,0:0:0:0:
121,159,191792,6,2,P|70:179|38:291,1,167.999994873047,6|12,0:0|0:2,0:0:0:0:
215,302,192384,1,0,0:0:0:0:
215,302,192582,2,0,P|171:295|120:294,1,83.9999974365235,10|4,0:0|0:2,0:0:0:0:
282,356,192976,2,2,P|329:348|367:355,1,83.9999974365235,2|0,0:0|0:0,0:0:0:0:
472,208,193371,6,2,P|410:207|295:236,1,167.999994873047,6|0,0:0|0:0,0:0:0:0:
223,221,193963,1,2,0:0:0:0:
145,96,194161,1,10,0:0:0:0:
227,83,194358,1,4,0:2:0:0:
274,152,194555,1,2,0:0:0:0:
131,177,194753,1,8,0:2:0:0:
49,159,194950,6,0,P|41:220|44:341,1,167.999994873047,6|8,0:0|0:2,0:0:0:0:
114,370,195542,1,2,0:0:0:0:
262,328,195739,2,0,P|323:323|432:334,1,167.999994873047,8|2,0:0|0:0,0:0:0:0:
489,273,196332,1,4,0:2:0:0:
431,211,196529,2,2,P|426:162|425:121,1,83.9999974365235,6|0,0:0|0:0,0:0:0:0:
296,150,196924,5,4,0:2:0:0:
306,66,197121,1,2,0:0:0:0:
175,123,197318,1,10,0:0:0:0:
185,207,197516,1,4,0:2:0:0:
286,293,197713,5,8,0:2:0:0:
318,198,197911,1,4,0:2:0:0:
261,307,198108,2,2,B|194:268|133:281|147:366|13:341,1,251.999992309571,6|4,0:0|0:2,0:0:0:0:
15,196,198897,2,2,P|41:150|67:118,1,83.9999974365235,8|2,0:0|0:0,0:0:0:0:
39,50,199292,2,2,P|89:35|130:31,1,83.9999974365235,10|4,0:2|0:2,0:0:0:0:
256,102,199687,5,0,0:0:0:0:
434,210,200082,1,0,3:0:0:0:
262,334,200476,1,0,3:0:0:0:
262,334,200674,1,0,3:0:0:0:
262,334,200871,1,0,3:0:0:0:
235,259,201266,6,0,P|238:234|234:168,1,83.9999974365235,2|0,0:0|0:0,0:0:0:0:
192,110,202450,1,2,0:0:0:0:
157,179,202845,2,0,P|132:176|106:176,1,41.9999987182618,2|0,0:0|0:0,0:0:0:0:
47,209,203634,2,0,P|26:209|5:212,1,41.9999987182618,2|2,0:0|0:0,0:0:0:0:
52,125,204424,5,0,0:0:0:0:
124,104,204818,1,2,0:0:0:0:
197,122,205213,1,0,0:0:0:0:
261,161,205608,2,0,P|282:153|289:150,1,20.9999993591309,2|2,0:0|0:0,0:0:0:0:
316,91,206003,2,0,P|343:93|365:98,1,41.9999987182618,2|0,0:0|0:0,0:0:0:0:
386,165,206792,2,0,P|406:163|427:160,1,41.9999987182618
322,271,207582,6,0,P|320:291|319:317,1,41.9999987182618,2|0,0:0|0:0,0:0:0:0:
261,360,208410,1,2,0:0:0:0:
255,190,208854,5,2,0:0:0:0:
115,247,209341,6,0,P|89:243|43:240,1,70,2|0,0:0|0:0,0:0:0:0:
45,240,211463,5,2,0:0:0:0:
256,192,211652,12,0,217538,0:0:0:0:
