osu file format v14

[General]
AudioFilename: audio.mp3
AudioLeadIn: 0
PreviewTime: 28831
Countdown: 1
SampleSet: Soft
StackLeniency: 0.7
Mode: 0
LetterboxInBreaks: 0
WidescreenStoryboard: 1

[Editor]
Bookmarks: 7860,16848,28831,40812,52809,64815,74190,79802,88789
DistanceSpacing: 1.5
BeatDivisor: 4
GridSize: 8
TimelineZoom: 1.4

[Metadata]
Title:Coup de Grace
TitleUnicode:決戦!サルーイン
Artist:Ito Kenji
ArtistUnicode:伊藤賢治
Creator:MoodyRPG
Version:ReFaller's Light Insane
Source:ロマンシング サ・ガ
Tags:squaresoft rs1 snes super nintendo famicom refaller minstrel song romancing saga itou instrumental video game kessen saruin
BeatmapID:1584101
BeatmapSetID:728289

[Difficulty]
HPDrainRate:7
CircleSize:4
OverallDifficulty:8
ApproachRate:8
SliderMultiplier:1.8
SliderTickRate:1

[Events]
//Background and Video events
0,0,"rs3 213417.jpg",0,0
//Break Periods
2,38021,39501
2,74390,79052
//Storyboard Layer 0 (Background)
//Storyboard Layer 1 (Fail)
//Storyboard Layer 2 (Pass)
//Storyboard Layer 3 (Foreground)
//Storyboard Sound Samples

[TimingPoints]
2253,373.831775700935,4,2,1,35,1,0
7861,373.831775700935,4,2,1,35,1,0
12346,375.586854460094,4,2,1,35,1,0
13848,375,4,2,1,35,1,0
16848,373.831775700935,4,2,1,35,1,0
16848,-133.333333333333,4,2,1,35,0,0
27689,380.952380952381,4,2,1,35,1,0
28831,375,4,2,1,35,1,0
34831,373.831775700935,4,2,1,35,1,0
40812,375,4,2,1,35,1,0
42124,-100,4,2,1,25,0,0
42312,-100,4,2,1,35,0,0
45124,-100,4,2,1,25,0,0
45312,372.093023255814,4,2,1,35,1,0
46800,376.175548589342,4,2,1,35,1,0
48116,-100,4,2,1,25,0,0
48304,-100,4,2,1,35,0,0
49809,375,4,2,1,35,1,0
49996,-100,4,2,1,25,0,0
50277,-100,4,2,1,20,0,0
50559,-100,4,2,1,35,0,0
50746,-100,4,2,1,25,0,0
51027,-100,4,2,1,20,0,0
51309,-100,4,2,1,35,0,0
52809,374.414976599064,4,2,1,35,1,0
54119,-100,4,2,1,25,0,0
54306,-100,4,2,1,35,0,0
57114,-100,4,2,1,25,0,0
57301,-100,4,2,1,35,0,0
58799,377.358490566038,4,2,1,35,1,0
60308,375.586854460094,4,2,1,35,1,0
64815,375,4,2,1,35,1,0
74190,375,4,2,1,35,1,0
78312,372.670807453416,4,2,1,35,1,0
79802,373.831775700935,4,2,1,35,1,0
84287,375.586854460094,4,2,1,35,1,0
85789,375,4,2,1,35,1,0
88789,373.831775700935,4,2,1,35,1,0

[Colours]
Combo1 : 0,255,64
Combo2 : 255,128,255
Combo3 : 0,64,128
Combo4 : 192,192,192

[HitObjects]
56,192,7861,6,0,L|8:176,2,45,4|0|0,1:0|0:0|0:0,0:0:0:0:
120,120,8234,2,0,L|104:64,2,45,4|0|0,3:0|0:0|0:0,0:0:0:0:
216,112,8608,2,0,L|216:56,2,45,4|0|0,3:0|0:0|0:0,0:0:0:0:
304,152,8982,2,0,L|320:96,2,45,4|0|0,3:0|0:0|0:0,0:0:0:0:
208,224,9356,5,4,3:0:0:0:
208,224,9449,1,0,0:0:0:0:
208,224,9543,1,0,0:0:0:0:
288,264,9730,1,4,3:0:0:0:
288,264,9823,1,0,0:0:0:0:
288,264,9917,1,0,0:0:0:0:
376,248,10103,1,4,3:0:0:0:
376,248,10197,1,0,0:0:0:0:
376,248,10290,1,0,0:0:0:0:
432,176,10477,1,4,3:0:0:0:
432,176,10571,1,0,0:0:0:0:
432,176,10664,1,0,0:0:0:0:
344,160,10851,6,0,L|296:152,2,45,4|0|0,3:0|0:0|0:0,0:0:0:0:
248,224,11225,2,0,L|211:192,2,45,4|0|0,3:0|0:0|0:0,0:0:0:0:
128,248,11599,2,0,L|112:184,2,45,4|0|0,3:0|0:0|0:0,0:0:0:0:
16,224,11973,2,0,L|24:160,2,45,4|0|0,3:0|0:0|0:0,0:0:0:0:
40,80,12346,5,4,3:0:0:0:
40,80,12439,1,0,0:0:0:0:
40,80,12533,1,0,0:0:0:0:
136,40,12721,1,4,3:0:0:0:
136,40,12815,1,0,0:0:0:0:
136,40,12909,1,0,0:0:0:0:
304,80,13097,1,4,3:0:0:0:
208,120,13284,1,8,3:0:0:0:
200,136,13378,1,8,3:0:0:0:
192,152,13472,2,0,L|184:208,3,45,8|8|4|4,3:0|3:0|3:0|3:0,0:0:0:0:
120,240,13848,5,4,1:0:0:0:
416,168,14223,1,8,3:0:0:0:
424,184,14316,1,8,3:0:0:0:
432,200,14410,2,0,L|440:256,1,45,4|4,3:0|3:0,0:0:0:0:
504,288,14598,5,4,1:0:0:0:
192,241,14973,2,0,L|184:185,3,45,8|8|4|4,3:0|3:0|3:0|3:0,0:0:0:0:
168,120,15348,5,0,1:0:0:0:
56,184,15535,2,0,L|8:176,2,45,8|8|4,1:2|1:2|3:0,0:0:0:0:
200,240,15910,2,0,L|244:232,2,45,8|8|4,1:2|1:2|3:0,0:0:0:0:
80,336,16285,1,8,1:2:0:0:
101,341,16379,1,8,1:2:0:0:
123,346,16473,1,8,1:2:0:0:
145,351,16566,1,8,1:2:0:0:
167,356,16660,1,8,1:2:0:0:
189,361,16754,1,8,1:2:0:0:
211,366,16848,6,0,L|296:376,1,67.5000025749208,4|0,1:0|0:0,0:0:0:0:
264,256,17221,2,0,L|320:296,1,67.5000025749208,8|0,3:0|0:0,0:0:0:0:
368,184,17595,2,0,L|400:264,1,67.5000025749208,4|0,3:0|0:0,0:0:0:0:
392,96,17969,1,0,1:0:0:0:
456,160,18156,1,0,0:0:0:0:
304,120,18343,6,0,P|295:87|295:53,1,67.5000025749208,4|0,3:0|0:0,0:0:0:0:
208,136,18717,2,0,P|184:111|167:82,1,67.5000025749208,8|0,3:0|0:0,0:0:0:0:
136,200,19090,2,0,P|103:190|74:174,1,67.5000025749208,4|0,3:0|0:0,0:0:0:0:
224,232,19464,1,0,1:0:0:0:
304,168,19651,1,0,0:0:0:0:
384,104,19838,6,0,L|488:104,2,90.0000034332277,4|2|2,3:0|0:0|0:0,0:0:0:0:
296,208,20586,2,0,P|296:286|328:336,1,135.000005149842,4|0,3:0|1:0,0:0:0:0:
392,248,21147,1,0,0:0:0:0:
392,248,21333,6,0,L|472:240,1,67.5000025749208,4|0,3:0|0:0,0:0:0:0:
296,208,21707,2,0,L|228:214,1,67.5000025749208,4|0,3:0|0:0,0:0:0:0:
384,136,22081,2,0,L|464:128,1,67.5000025749208,8|0,3:0|0:0,0:0:0:0:
280,104,22455,1,0,1:0:0:0:
280,104,22642,1,0,0:0:0:0:
176,136,22829,6,0,P|158:71|168:0,2,135.000005149842,8|4|4,3:0|3:0|3:0,0:0:0:0:
80,152,23763,1,0,0:0:0:0:
200,224,23950,2,0,L|288:216,1,67.5000025749208,0|0,1:0|0:0,0:0:0:0:
104,248,24324,2,0,P|121:312|112:384,1,135.000005149842,4|8,3:0|3:0,0:0:0:0:
208,344,24885,1,0,0:0:0:0:
208,344,25072,2,0,L|275:350,1,67.5000025749208,4|0,3:0|0:0,0:0:0:0:
336,136,25446,2,0,L|269:130,1,67.5000025749208,0|0,1:0|0:0,0:0:0:0:
320,248,25819,6,0,P|390:250|456:256,2,135.000005149842,4|4|4,3:0|3:0|3:0,0:0:0:0:
96,256,26941,1,0,1:0:0:0:
96,256,27128,1,8,1:2:0:0:
88,160,27315,1,4,3:0:0:0:
104,344,27689,5,4,1:0:0:0:
320,248,28069,1,4,1:0:0:0:
24,216,28450,1,4,1:0:0:0:
392,128,28831,6,0,P|402:83|400:32,1,90,4|2,1:0|0:0,0:0:0:0:
256,72,29206,2,0,P|245:116|248:168,1,90,8|2,1:2|0:0,0:0:0:0:
344,240,29581,2,0,L|464:248,1,90,0|2,1:0|0:0,0:0:0:0:
232,288,29956,1,8,1:2:0:0:
246,160,30143,1,2,0:0:0:0:
128,200,30331,6,0,L|8:192,1,90,0|2,1:0|0:0,0:0:0:0:
35,282,30706,2,0,P|43:242|35:186,1,90,8|2,1:2|0:0,0:0:0:0:
32,8,31081,2,0,P|24:48|32:104,1,90,0|2,1:0|0:0,0:0:0:0:
152,184,31456,1,8,1:2:0:0:
144,80,31643,1,2,0:0:0:0:
248,72,31831,6,0,L|344:64,1,90,0|2,1:0|0:0,0:0:0:0:
232,224,32206,2,0,L|311:169,1,90,8|2,1:2|0:0,0:0:0:0:
296,360,32581,2,0,L|337:272,1,90,0|2,1:0|0:0,0:0:0:0:
448,272,32956,1,8,1:2:0:0:
344,264,33143,1,2,0:0:0:0:
408,176,33331,6,0,P|447:143|464:104,1,90,0|2,1:0|0:0,0:0:0:0:
305,172,33706,2,0,P|225:236|193:316,1,180,8|0,1:2|1:0,0:0:0:0:
104,352,34268,1,8,3:0:0:0:
88,360,34362,1,8,3:0:0:0:
72,368,34456,2,0,L|24:360,3,45,4|12|4|4,3:0|3:0|3:0|3:0,3:0:0:0:
0,368,34831,5,4,1:0:0:0:
256,192,34924,12,0,37821,0:0:0:0:
128,288,40251,5,8,1:2:0:0:
128,288,40345,1,8,1:2:0:0:
128,288,40438,1,8,1:2:0:0:
128,288,40531,1,8,1:2:0:0:
128,288,40625,1,8,1:2:0:0:
128,288,40718,1,8,1:2:0:0:
128,288,40812,6,0,L|216:312,1,90,4|0,1:0|0:0,0:0:0:0:
360,248,41187,2,0,P|359:295|336:352,1,90,8|0,1:2|0:0,0:0:0:0:
256,176,41562,2,0,P|256:128|280:72,1,90,0|0,1:0|0:0,0:0:0:0:
368,24,41937,1,8,1:2:0:0:
269,88,42124,1,0,1:0:0:0:
160,40,42312,6,0,L|64:48,1,90,0|0,1:0|0:0,0:0:0:0:
8,160,42687,1,8,1:2:0:0:
8,160,42874,2,0,P|55:220|80:328,1,180,2|8,0:0|1:2,0:0:0:0:
208,304,43437,1,0,0:0:0:0:
80,344,43624,1,8,1:2:0:0:
216,328,43812,6,0,P|264:320|320:312,1,90,0|0,1:0|0:0,0:0:0:0:
120,152,44187,2,0,P|128:200|136:256,1,90,8|0,1:2|0:0,0:0:0:0:
248,128,44562,2,0,P|240:80|232:24,1,90,0|0,1:0|0:0,0:0:0:0:
120,128,44937,1,8,1:2:0:0:
256,232,45124,1,0,1:0:0:0:
416,256,45312,6,0,P|466:256|512:248,2,90,0|0|8,1:0|0:0|1:2,0:0:0:0:
496,69,45870,2,0,P|498:159|505:249,1,180,2|0,0:0|0:0,0:0:0:0:
392,256,46428,1,8,1:2:0:0:
280,240,46614,1,8,0:0:0:0:
224,144,46800,6,0,P|264:128|344:152,1,90,0|0,1:0|0:0,0:0:0:0:
476,277,47176,2,0,P|436:277|388:253,1,90,8|0,1:2|0:0,0:0:0:0:
408,72,47552,2,0,P|428:111|429:156,1,90,0|0,1:0|0:0,0:0:0:0:
391,255,47928,1,8,1:2:0:0:
280,240,48116,1,0,1:0:0:0:
168,240,48304,6,0,L|72:248,1,90,0|0,1:0|0:0,0:0:0:0:
200,64,48680,2,0,L|192:160,1,90,8|0,1:2|0:0,0:0:0:0:
344,144,49057,2,0,L|440:136,1,90,0|0,1:0|0:0,0:0:0:0:
312,320,49433,2,0,L|320:224,1,90,8|0,1:2|0:0,0:0:0:0:
360,48,49809,5,4,1:0:0:0:
265,146,49996,1,8,3:0:0:0:
249,154,50090,1,8,3:0:0:0:
237,160,50184,2,0,P|215:154|192:153,3,45,8|8|4|4,3:0|3:0|3:0|3:0,0:0:0:0:
56,160,50559,5,4,1:0:0:0:
144,40,50746,1,8,3:0:0:0:
160,32,50840,1,8,3:0:0:0:
176,24,50934,2,0,P|195:34|217:40,3,45,8|8|4|4,3:0|3:0|3:0|3:0,0:0:0:0:
360,48,51309,5,4,1:0:0:0:
280,150,51496,2,0,P|259:159|236:160,2,45,8|8|4,0:0|0:0|1:0,0:0:0:0:
416,232,51871,2,0,P|393:232|372:241,2,45,8|8|4,0:0|0:0|1:0,0:0:0:0:
256,320,52246,1,8,0:0:0:0:
241,320,52340,1,8,0:0:0:0:
226,320,52434,1,8,0:0:0:0:
211,321,52527,1,8,0:0:0:0:
196,323,52621,1,8,0:0:0:0:
182,326,52715,1,8,0:0:0:0:
168,329,52809,6,0,L|72:320,1,90,4|0,1:0|0:0,0:0:0:0:
32,192,53183,2,0,L|121:200,1,90,8|0,1:2|0:0,0:0:0:0:
296,168,53557,2,0,P|280:216|240:248,1,90,0|0,1:0|0:0,0:0:0:0:
128,216,53932,1,8,1:2:0:0:
192,88,54119,1,0,1:0:0:0:
336,56,54306,6,0,L|424:72,2,90,0|0|8,1:0|0:0|1:2,0:0:0:0:
400,176,54868,2,0,P|392:248|328:336,1,180,2|8,0:0|1:2,0:0:0:0:
216,360,55429,1,0,0:0:0:0:
330,333,55617,1,8,1:2:0:0:
256,240,55804,6,0,P|220:215|176:208,1,90,0|0,1:0|0:0,0:0:0:0:
120,344,56178,2,0,P|159:325|187:290,1,90,8|0,1:2|0:0,0:0:0:0:
96,176,56553,2,0,P|92:219|108:261,1,90,0|0,1:0|0:0,0:0:0:0:
216,360,56927,1,8,1:2:0:0:
108,262,57114,1,0,1:0:0:0:
256,240,57301,6,0,L|360:248,1,90,0|0,1:0|0:0,0:0:0:0:
216,360,57676,1,8,1:2:0:0:
216,360,57863,2,0,L|32:344,1,180,2|0,0:0|0:0,0:0:0:0:
56,144,58425,2,0,P|96:163|136:216,1,90,8|0,1:2|0:0,0:0:0:0:
32,248,58799,5,0,1:0:0:0:
24,144,58987,1,8,3:0:0:0:
23,136,59082,1,8,3:0:0:0:
22,129,59176,1,8,3:0:0:0:
21,121,59270,1,8,3:0:0:0:
21,114,59365,1,4,3:0:0:0:
20,106,59459,1,4,3:0:0:0:
20,99,59553,2,0,L|200:80,1,180,4|4,3:0|1:0,0:0:0:0:
480,248,60308,5,4,3:0:0:0:
488,144,60495,1,8,3:0:0:0:
488,136,60589,1,8,3:0:0:0:
489,129,60683,1,8,3:0:0:0:
490,121,60777,1,8,3:0:0:0:
490,114,60871,1,4,3:0:0:0:
491,106,60965,1,4,3:0:0:0:
492,99,61059,2,0,L|312:80,1,180,4|4,3:0|1:0,0:0:0:0:
256,384,61810,5,4,3:0:0:0:
256,272,61998,1,8,3:0:0:0:
258,265,62092,1,8,3:0:0:0:
256,257,62185,1,8,3:0:0:0:
255,250,62279,1,8,3:0:0:0:
253,243,62373,1,4,3:0:0:0:
253,235,62467,1,4,3:0:0:0:
256,228,62561,2,0,B|281:175|225:103|257:47,1,180,4|4,3:0|1:0,0:0:0:0:
440,144,63312,6,0,L|346:133,1,90,0|2,1:0|0:0,0:0:0:0:
256,228,63688,2,0,L|345:238,1,90,8|2,1:2|0:0,0:0:0:0:
448,248,64063,1,0,1:0:0:0:
328,128,64251,1,8,0:0:0:0:
304,328,64439,1,8,0:0:0:0:
184,216,64627,1,8,0:0:0:0:
176,200,64721,1,8,0:0:0:0:
168,184,64815,6,0,L|224:176,3,45,4|0|0|0,1:0|0:0|0:0|0:0,0:0:0:0:
160,96,65190,2,0,L|115:102,3,45,0|0|0|0,1:0|0:0|0:0|0:0,0:0:0:0:
80,192,65565,1,0,1:0:0:0:
81,214,65658,1,0,0:0:0:0:
84,236,65752,1,0,0:0:0:0:
87,259,65846,1,0,0:0:0:0:
90,281,65940,1,0,1:0:0:0:
94,303,66033,1,0,0:0:0:0:
99,325,66127,1,0,0:0:0:0:
104,347,66221,1,0,0:0:0:0:
112,368,66315,6,0,L|176:384,3,45,0|0|0|0,1:0|0:0|0:0|0:0,0:0:0:0:
224,312,66690,2,0,L|257:368,3,45,0|0|0|0,1:0|0:0|0:0|0:0,0:0:0:0:
312,280,67065,1,0,1:0:0:0:
333,272,67158,1,0,0:0:0:0:
355,268,67252,1,0,0:0:0:0:
377,268,67346,1,0,0:0:0:0:
400,271,67440,1,0,1:0:0:0:
421,277,67533,1,0,0:0:0:0:
441,287,67627,1,0,0:0:0:0:
460,300,67721,1,0,0:0:0:0:
476,315,67815,6,0,L|484:379,3,45,4|0|0|0,1:0|0:0|0:0|0:0,0:0:0:0:
512,240,68190,2,0,L|506:195,3,45,0|0|0|0,1:0|0:0|0:0|0:0,0:0:0:0:
472,104,68565,1,0,1:0:0:0:
450,96,68658,1,0,0:0:0:0:
428,92,68752,1,0,0:0:0:0:
406,92,68846,1,0,0:0:0:0:
383,95,68940,1,0,1:0:0:0:
362,101,69033,1,0,0:0:0:0:
342,111,69127,1,0,0:0:0:0:
323,124,69221,1,0,0:0:0:0:
308,139,69315,6,0,L|300:203,3,45,0|0|0|0,1:0|0:0|0:0|0:0,0:0:0:0:
256,72,69690,2,0,L|248:8,3,45,0|0|0|0,1:0|0:0|0:0|0:0,0:0:0:0:
216,152,70065,1,0,1:0:0:0:
201,167,70158,1,0,0:0:0:0:
182,180,70252,1,0,0:0:0:0:
162,190,70346,1,0,0:0:0:0:
141,196,70440,1,0,1:0:0:0:
118,199,70533,1,0,0:0:0:0:
96,199,70627,1,0,0:0:0:0:
74,195,70721,1,0,0:0:0:0:
52,187,70815,5,4,1:0:0:0:
0,304,71002,1,8,0:3:0:0:
0,304,71096,1,8,0:3:0:0:
0,304,71190,2,0,L|8:352,1,45,8|8,0:3|0:3,0:0:0:0:
95,364,71377,2,0,L|88:320,1,45,4|4,0:3|0:3,0:0:0:0:
128,240,71565,5,4,1:0:0:0:
256,184,71752,1,8,0:3:0:0:
256,184,71846,1,8,0:3:0:0:
256,184,71940,2,0,L|304:192,1,45,8|8,0:3|0:3,0:0:0:0:
316,280,72127,2,0,L|271:272,1,45,4|0,0:3|0:0,0:0:0:0:
256,352,72315,5,4,3:0:0:0:
256,32,72690,1,4,2:2:0:0:
176,240,73252,5,8,0:0:0:0:
256,288,73440,1,8,0:0:0:0:
336,240,73627,1,8,0:0:0:0:
344,240,73721,1,8,0:0:0:0:
352,240,73815,2,0,L|384:248,6,30,8|8|8|8|4|4|4,0:3|0:3|0:3|0:3|0:3|0:3|1:0,0:0:0:0:
456,192,79802,6,0,L|504:176,2,45,4|0|0,1:0|0:0|0:0,0:0:0:0:
392,120,80175,2,0,L|408:64,2,45,4|0|0,3:0|0:0|0:0,0:0:0:0:
296,112,80549,2,0,L|296:56,2,45,4|0|0,3:0|0:0|0:0,0:0:0:0:
208,152,80923,2,0,L|192:96,2,45,4|0|0,3:0|0:0|0:0,0:0:0:0:
304,224,81297,5,4,3:0:0:0:
304,224,81390,1,0,0:0:0:0:
304,224,81484,1,0,0:0:0:0:
224,264,81671,1,4,3:0:0:0:
224,264,81764,1,0,0:0:0:0:
224,264,81858,1,0,0:0:0:0:
136,248,82044,1,4,3:0:0:0:
136,248,82138,1,0,0:0:0:0:
136,248,82231,1,0,0:0:0:0:
80,176,82418,1,4,3:0:0:0:
80,176,82512,1,0,0:0:0:0:
80,176,82605,1,0,0:0:0:0:
168,160,82792,6,0,L|216:152,2,45,4|0|0,3:0|0:0|0:0,0:0:0:0:
264,224,83166,2,0,L|301:192,2,45,4|0|0,3:0|0:0|0:0,0:0:0:0:
384,248,83540,2,0,L|400:184,2,45,4|0|0,3:0|0:0|0:0,0:0:0:0:
496,224,83914,2,0,L|488:160,2,45,4|0|0,3:0|0:0|0:0,0:0:0:0:
472,80,84287,5,4,3:0:0:0:
472,80,84380,1,0,0:0:0:0:
472,80,84474,1,0,0:0:0:0:
376,40,84662,1,4,3:0:0:0:
376,40,84756,1,0,0:0:0:0:
376,40,84850,1,0,0:0:0:0:
208,80,85038,1,4,3:0:0:0:
304,120,85225,1,8,3:0:0:0:
312,136,85319,1,8,3:0:0:0:
320,152,85413,2,0,L|328:208,3,45,8|8|4|4,3:0|3:0|3:0|3:0,0:0:0:0:
392,240,85789,5,4,1:0:0:0:
96,168,86164,1,8,3:0:0:0:
88,184,86257,1,8,3:0:0:0:
80,200,86351,2,0,L|72:256,1,45,4|4,3:0|3:0,0:0:0:0:
8,288,86539,5,4,1:0:0:0:
320,241,86914,2,0,L|328:185,3,45,8|8|4|4,3:0|3:0|3:0|3:0,0:0:0:0:
344,120,87289,5,0,1:0:0:0:
208,152,87476,2,0,L|160:144,2,45,8|8|4,0:0|0:0|3:0,0:0:0:0:
320,264,87851,2,0,L|368:272,2,45,8|8|4,0:0|0:0|3:0,0:0:0:0:
176,296,88226,1,8,0:0:0:0:
155,291,88320,1,8,0:0:0:0:
133,286,88414,1,8,0:0:0:0:
111,281,88507,1,8,0:0:0:0:
89,276,88601,1,8,0:0:0:0:
67,271,88695,1,8,0:0:0:0:
48,264,88789,5,4,1:0:0:0:
