osu file format v14

[General]
AudioFilename: audio.mp3
AudioLeadIn: 0
PreviewTime: 28831
Countdown: 1
SampleSet: Soft
StackLeniency: 0.7
Mode: 0
LetterboxInBreaks: 0
WidescreenStoryboard: 1

[Editor]
DistanceSpacing: 1
BeatDivisor: 4
GridSize: 4
TimelineZoom: 1

[Metadata]
Title:Coup de Grace
TitleUnicode:決戦!サルーイン
Artist:Ito Kenji
ArtistUnicode:伊藤賢治
Creator:MoodyRPG
Version:Normal
Source:ロマンシング サ・ガ
Tags:squaresoft rs1 snes super nintendo famicom refaller minstrel song romancing saga itou instrumental video game kessen saruin
BeatmapID:1537584
BeatmapSetID:728289

[Difficulty]
HPDrainRate:5
CircleSize:4
OverallDifficulty:4
ApproachRate:5
SliderMultiplier:1
SliderTickRate:1

[Events]
//Background and Video events
0,0,"rs3 213417.jpg",0,0
//Break Periods
2,38021,39612
2,74390,78602
//Storyboard Layer 0 (Background)
//Storyboard Layer 1 (Fail)
//Storyboard Layer 2 (Pass)
//Storyboard Layer 3 (Foreground)
//Storyboard Sound Samples

[TimingPoints]
2253,373.831775700935,4,2,1,50,1,0
7861,373.831775700935,4,2,1,50,1,0
12346,375.586854460094,4,2,1,50,1,0
13848,375,4,2,1,50,1,0
16848,373.831775700935,4,2,1,50,1,0
27689,380.952380952381,4,2,1,50,1,0
28831,375,4,2,1,50,1,0
34831,373.831775700935,4,2,1,50,1,0
40812,375,4,2,1,50,1,0
45312,372.093023255814,4,2,1,50,1,0
46800,376.175548589342,4,2,1,50,1,0
49809,375,4,2,1,50,1,0
52809,374.414976599064,4,2,1,50,1,0
58799,377.358490566038,4,2,1,50,1,0
60308,375.586854460094,4,2,1,50,1,0
64815,375,4,2,1,50,1,0
74190,375,4,2,1,50,1,0
78312,372.670807453416,4,2,1,50,1,0
79802,373.831775700935,4,2,1,50,1,0
84287,375.586854460094,4,2,1,50,1,0
85789,375,4,2,1,50,1,0
88789,373.831775700935,4,2,1,50,1,0

[Colours]
Combo1 : 0,255,64
Combo2 : 255,128,255
Combo3 : 0,64,128
Combo4 : 192,192,192

[HitObjects]
53,37,7860,6,0,L|161:43,1,100,4|4,0:0|3:0,0:0:0:0:
194,133,8608,2,0,L|91:128,1,100,4|4,3:0|3:0,0:0:0:0:
43,214,9356,2,0,L|155:220,1,100,4|4,3:0|3:0,0:0:0:0:
106,312,10103,2,0,L|214:316,1,100,4|4,3:0|3:0,0:0:0:0:
305,313,10851,6,0,L|404:309,1,100,4|4,3:0|3:0,0:0:0:0:
367,215,11599,2,0,L|467:210,1,100,4|4,3:0|3:0,0:0:0:0:
415,124,12346,2,0,L|315:128,1,100,4|4,3:0|3:0,0:0:0:0:
360,39,13097,2,0,L|459:33,1,100,4|8,3:0|0:0,0:0:0:0:
501,124,13848,5,4,0:0:0:0:
379,292,14598,1,4,0:0:0:0:
311,104,15348,1,4,0:0:0:0:
190,263,16098,1,0,0:0:0:0:
148,63,16848,6,0,P|71:63|30:133,1,150,4|0,1:0|0:0,0:0:0:0:
43,166,17595,1,4,3:0:0:0:
19,263,17969,1,8,0:0:0:0:
86,334,18343,2,0,L|194:338,1,100,4|8,3:0|3:0,0:0:0:0:
222,244,19090,2,0,L|108:239,1,100,4|8,3:0|0:0,0:0:0:0:
71,156,19838,6,0,P|35:161|3:148,2,66.6666666666667,4|2|0,3:0|0:0|0:0,0:0:0:0:
114,105,20586,2,0,L|331:113,1,200,8|4,3:0|3:0,0:0:0:0:
413,113,21707,2,0,P|442:152|437:222,2,100,8|4|8,3:0|3:0|0:0,0:0:0:0:
317,144,22829,6,0,P|307:178|380:323,1,200,4|4,3:0|3:0,0:0:0:0:
289,375,23950,1,8,0:0:0:0:
221,304,24324,2,0,P|135:274|67:353,1,200,4|4,3:0|3:0,0:0:0:0:
9,263,25446,1,8,0:0:0:0:
1,164,25819,6,0,B|55:108|138:146|138:146|197:74|272:99,1,300,4|8,3:0|0:0,0:0:0:0:
307,133,27128,2,0,L|367:119,1,50,8|0,0:0|0:0,0:0:0:0:
391,30,27689,2,0,P|437:18|498:30,2,100,4|4|4,0:0|0:0|0:0,0:0:0:0:
344,123,28831,6,0,P|348:195|408:254,1,150,4|2,0:0|0:0,0:0:0:0:
384,297,29581,1,0,0:0:0:0:
304,357,29956,1,8,0:0:0:0:
206,336,30331,1,0,0:0:0:0:
161,246,30706,2,0,P|189:208|189:146,2,100,8|0|8,0:0|0:0|0:0,0:0:0:0:
61,260,31831,6,0,L|83:327,2,66.6666666666667,0|2|0,0:0|0:0|0:0,0:0:0:0:
68,193,32581,2,0,P|72:142|99:103,1,100,0|8,0:0|0:0,0:0:0:0:
165,28,33331,1,0,0:0:0:0:
239,94,33706,2,0,L|340:86,2,100,8|0|0,0:0|0:0|0:0,0:0:0:0:
192,182,34831,5,4,0:0:0:0:
256,192,35204,12,2,37821,0:0:0:0:
26,188,40812,5,4,0:0:0:0:
95,116,41187,2,0,P|75:71|31:41,2,100,8|0|8,0:0|0:0|0:0,0:0:0:0:
172,178,42312,2,0,L|236:175,1,50,2|0,0:0|0:0,0:0:0:0:
259,142,42687,1,8,0:0:0:0:
275,94,42874,2,0,P|308:62|370:63,1,100,2|0,0:0|0:0,0:0:0:0:
400,83,43437,1,8,0:0:0:0:
452,168,43812,5,0,0:0:0:0:
407,257,44187,2,0,P|453:258|500:294,2,100,8|0|8,0:0|0:0|0:0,0:0:0:0:
320,201,45312,2,0,L|257:205,1,50,2|0,0:0|0:0,0:0:0:0:
220,207,45684,1,8,0:0:0:0:
170,208,45870,2,0,P|156:253|191:314,1,100,2|0,0:0|0:0,0:0:0:0:
210,335,46428,1,8,0:0:0:0:
309,336,46800,6,0,P|378:270|361:169,1,200,0|0,0:0|0:0,0:0:0:0:
322,83,47928,1,8,0:0:0:0:
229,50,48304,2,0,P|206:93|205:143,1,100,0|8,0:0|0:0,0:0:0:0:
285,203,49057,2,0,P|285:250|249:307,1,100,0|8,0:0|0:0,0:0:0:0:
186,363,49809,5,4,0:0:0:0:
12,263,50559,1,4,0:0:0:0:
195,182,51309,2,0,L|95:180,1,100,4|4,0:0|0:0,0:0:0:0:
4,137,52059,2,0,P|4:87|35:29,1,100,4|8,0:0|0:0,0:0:0:0:
123,52,52809,6,0,P|199:28|273:117,1,200,4|0,0:0|0:0,0:0:0:0:
224,190,53932,1,8,0:0:0:0:
285,268,54306,2,0,L|340:270,1,50,2|0,0:0|0:0,0:0:0:0:
385,271,54681,1,8,0:0:0:0:
385,271,54868,2,0,P|407:211|390:161,1,100,2|0,0:0|0:0,0:0:0:0:
378,132,55429,1,8,0:0:0:0:
329,44,55804,5,0,0:0:0:0:
264,120,56178,2,0,P|221:100|154:107,1,100,8|0,0:0|0:0,0:0:0:0:
102,26,56927,1,8,0:0:0:0:
51,111,57301,2,0,L|56:173,1,50,2|0,0:0|0:0,0:0:0:0:
20,197,57676,1,8,0:0:0:0:
20,197,57863,2,0,P|12:244|29:295,1,100,2|0,0:0|0:0,0:0:0:0:
61,329,58425,1,8,0:0:0:0:
143,274,58799,6,0,P|202:310|272:261,1,150,0|8,0:0|0:0,0:0:0:0:
313,256,59553,2,0,L|422:259,1,100,2|4,0:0|0:0,0:0:0:0:
471,177,60308,6,0,P|486:109|446:34,1,150,0|8,0:0|0:0,0:0:0:0:
404,23,61059,2,0,L|283:31,1,100,2|4,0:0|0:0,0:0:0:0:
204,35,61810,6,0,P|199:109|220:181,1,150,0|8,0:0|0:0,0:0:0:0:
261,209,62561,2,0,P|276:242|268:320,1,100,2|4,0:0|0:0,0:0:0:0:
174,315,63312,6,0,P|132:286|76:281,1,100,0|8,0:0|0:0,0:0:0:0:
72,233,63876,1,2,0:0:0:0:
110,201,64063,2,0,L|147:92,1,100,0|8,0:0|0:0,0:0:0:0:
116,9,64815,6,0,P|65:5|18:135,1,200,4|2,1:0|1:2,0:0:0:0:
83,192,65940,1,0,1:0:0:0:
7,257,66315,2,0,P|22:350|114:370,1,200,0|2,1:0|1:2,0:0:0:0:
168,286,67440,1,0,1:2:0:0:
228,365,67815,6,0,B|308:365|308:365|339:347|339:347|434:347,1,200,4|2,1:0|1:2,0:0:0:0:
471,259,68940,1,0,1:0:0:0:
397,191,69315,2,0,P|454:119|396:45,1,200,0|2,1:0|1:2,0:0:0:0:
302,7,70440,1,0,1:0:0:0:
255,95,70815,5,4,0:0:0:0:
77,1,71565,1,4,0:0:0:0:
16,191,72315,1,8,0:0:0:0:
69,275,72690,2,0,B|155:326|254:250|254:250|352:295,1,300,4|2,0:0|0:0,0:0:0:0:
428,236,74190,5,4,0:0:0:0:
69,228,79802,6,0,L|102:336,1,100,4|4,0:0|3:0,0:0:0:0:
189,282,80549,2,0,L|215:173,1,100,4|4,3:0|3:0,0:0:0:0:
299,234,81297,2,0,L|322:331,1,100,4|4,3:0|3:0,0:0:0:0:
416,296,82044,2,0,L|445:200,1,100,4|4,3:0|3:0,0:0:0:0:
467,102,82792,6,0,P|426:70|371:67,1,100,4|4,3:0|3:0,0:0:0:0:
305,133,83540,2,0,B|318:185|318:185|305:235,1,100,4|4,3:0|3:0,0:0:0:0:
206,230,84287,2,0,B|194:185|194:185|207:133,1,100,4|4,3:0|3:0,0:0:0:0:
132,65,85038,2,0,P|83:71|45:102,1,100,4|8,3:0|0:0,0:0:0:0:
29,200,85789,5,4,0:0:0:0:
151,358,86539,1,4,0:0:0:0:
256,188,87289,1,4,0:0:0:0:
364,355,88039,1,0,0:0:0:0:
483,200,88789,5,4,0:0:0:0:
