osu file format v14

[General]
AudioFilename: audio.mp3
AudioLeadIn: 0
PreviewTime: 77624
Countdown: 0
SampleSet: Soft
StackLeniency: 0.5
Mode: 0
LetterboxInBreaks: 0
WidescreenStoryboard: 1

[Editor]
Bookmarks: 74846
DistanceSpacing: 2
BeatDivisor: 4
GridSize: 4
TimelineZoom: 3.299999

[Metadata]
Title:Soushi Sou Ai
TitleUnicode:相思創愛
Artist:Ito Kashitaro x Lon
ArtistUnicode:伊東歌詞太郎×ろん
Creator:Anishina Kodoku
Version:kanor's Extra
Source:言ノ葉Project
Tags:第4弾 プロジェクト vocaloid utaite cover kalindraz loreley djulus kanor Lobelia [ Abhor ] nattu まらしぃ marasy
BeatmapID:1625916
BeatmapSetID:669776

[Difficulty]
HPDrainRate:6
CircleSize:4
OverallDifficulty:8
ApproachRate:9.3
SliderMultiplier:1.66
SliderTickRate:1

[Events]
//Background and Video events
Video,-27,"os.flv"
0,0,"okay im gay.jpg",0,0
//Break Periods
2,124594,127054
//Storyboard Layer 0 (Background)
//Storyboard Layer 1 (Fail)
//Storyboard Layer 2 (Pass)
//Storyboard Layer 3 (Foreground)
//Storyboard Sound Samples

[TimingPoints]
17946,307.692307692308,4,2,2,30,1,0
18548,307.692307692308,4,2,2,40,1,0
18548,-100,4,2,2,40,0,0
25932,-100,4,2,2,60,0,0
26855,-100,4,2,2,40,0,0
28394,-100,4,2,2,70,0,0
28701,-100,4,2,2,70,0,0
33548,-100,4,2,2,5,0,0
33624,-100,4,2,2,70,0,0
38471,-100,4,2,2,5,0,0
38548,-100,4,2,2,70,0,0
48086,-133.333333333333,4,2,3,50,0,0
56701,-133.333333333333,4,2,2,50,0,0
57932,-100,4,2,2,70,0,0
67778,-100,4,2,3,50,0,0
72086,-100,4,2,2,50,0,0
72701,-100,4,2,2,60,0,0
76240,-100,4,2,2,70,0,0
77624,-100,4,2,2,80,0,1
94855,-133.333333333333,4,2,2,50,0,0
99778,-133.333333333333,4,2,2,70,0,0
104701,-100,4,2,2,70,0,0
112086,-100,4,2,2,40,0,0
113624,-100,4,2,2,70,0,0
123163,-100,4,2,3,70,0,0
124394,-100,4,2,3,40,0,0
127778,-100,4,2,2,70,0,1
131778,-100,4,2,2,70,0,0
132855,-100,4,2,2,70,0,1
137932,-100,4,2,2,80,0,1
141624,-100,4,2,2,60,0,0
142701,-100,4,2,2,15,0,0
142855,-100,4,2,2,60,0,0
149240,-100,4,2,2,15,0,0
149317,-100,4,2,2,60,0,0
154240,-100,4,2,2,60,0,0
159086,-100,4,2,2,5,0,0
159163,-100,4,2,2,60,0,0
163778,-100,4,2,2,30,0,0

[Colours]
Combo1 : 173,188,187
Combo2 : 202,15,19
Combo3 : 149,38,74

[HitObjects]
64,72,17945,5,0,0:0:0:0:
48,66,18021,1,0,0:0:0:0:
48,50,18098,1,0,0:0:0:0:
64,45,18175,1,0,0:0:0:0:
73,58,18253,2,0,P|124:44|196:72,1,124.5,8|0,0:2|0:2,0:0:0:0:
132,160,18548,5,2,1:2:0:0:
148,132,18701,1,0,0:2:0:0:
40,164,18855,1,2,0:2:0:0:
56,192,19008,1,0,0:2:0:0:
208,168,19163,6,0,L|328:168,1,83,2|0,0:2|0:2,0:0:0:0:
312,152,19394,1,0,0:2:0:0:
312,152,19471,1,2,0:2:0:0:
336,76,19624,1,0,0:2:0:0:
384,208,19778,6,0,P|397:167|392:126,1,83,2|0,0:2|0:2,0:0:0:0:
468,304,20086,2,0,P|454:263|459:222,1,83,2|0,0:2|0:2,0:0:0:0:
412,352,20394,1,2,0:2:0:0:
412,352,20701,2,0,P|452:344|504:360,1,83,2|0,0:2|0:2,0:0:0:0:
356,304,21009,5,4,0:3:0:0:
327,309,21164,1,0,0:2:0:0:
298,309,21317,1,2,0:2:0:0:
270,304,21471,1,0,0:2:0:0:
243,294,21624,1,2,0:2:0:0:
52,344,21932,5,2,0:2:0:0:
80,349,22087,1,0,0:2:0:0:
109,349,22240,1,2,0:2:0:0:
137,344,22394,1,0,0:2:0:0:
164,334,22547,1,2,0:2:0:0:
24,188,22855,6,0,P|37:228|32:269,1,83,4|8,0:3|0:2,0:0:0:0:
108,92,23163,2,0,P|94:132|99:173,1,83,4|0,0:3|0:0,0:0:0:0:
200,152,23471,5,0,1:2:0:0:
172,136,23624,1,0,0:2:0:0:
172,48,23778,1,2,1:2:0:0:
200,32,23931,1,0,0:2:0:0:
276,116,24086,6,0,B|280:156|280:156|260:208,1,83,2|0,1:2|0:2,0:0:0:0:
252,224,24317,1,0,0:2:0:0:
252,224,24394,1,2,1:2:0:0:
200,152,24547,1,0,0:2:0:0:
386,135,24701,6,0,L|290:131,1,83,2|0,1:2|0:2,0:0:0:0:
436,208,25009,2,0,L|340:212,1,83,2|0,1:2|0:2,0:0:0:0:
488,156,25317,1,2,1:2:0:0:
488,156,25624,2,0,L|480:252,1,83,2|0,1:2|0:2,0:0:0:0:
468,352,25932,6,0,L|472:308,1,41.5,8|0,1:2|0:0,0:0:0:0:
364,352,26086,2,0,L|400:377,1,41.5,0|0,1:2|1:2,0:0:0:0:
412,264,26240,2,0,L|371:282,1,41.5,0|0,1:2|0:0,0:0:0:0:
474,331,26394,6,0,L|463:289,1,41.5,8|0,0:2|1:2,0:0:0:0:
377,367,26548,2,0,L|419:379,1,41.5,0|0,1:2|0:2,0:0:0:0:
392,268,26702,2,0,L|360:299,1,41.5,0|0,1:2|0:2,0:0:0:0:
288,380,26855,5,8,0:2:0:0:
254,364,26931,1,0,0:0:0:0:
217,360,27008,1,8,0:2:0:0:
181,368,27085,1,0,0:0:0:0:
148,384,27163,1,10,0:2:0:0:
24,304,27317,5,2,1:2:0:0:
32,272,27624,5,2,1:2:0:0:
40,232,27932,5,2,1:2:0:0:
24,76,28086,1,8,0:2:0:0:
24,76,28394,5,4,1:2:0:0:
80,24,28548,1,0,0:0:0:0:
124,168,28701,1,8,0:2:0:0:
104,96,28855,1,2,0:2:0:0:
188,208,29009,2,0,P|144:240|104:236,1,83,0|2,1:2|0:2,0:0:0:0:
52,200,29240,1,0,0:0:0:0:
52,200,29317,1,8,0:2:0:0:
104,96,29471,1,2,0:2:0:0:
188,208,29624,6,0,L|188:296,1,83,0|2,1:2|0:2,0:0:0:0:
320,352,29932,2,0,P|272:336|228:348,1,83,8|2,0:2|0:2,0:0:0:0:
88,352,30240,2,0,P|136:368|180:356,1,83,0|0,1:2|0:0,0:0:0:0:
188,208,30548,1,8,0:2:0:0:
188,208,30701,1,2,0:2:0:0:
216,32,30855,6,0,B|256:24|256:24|312:36,1,83,0|2,1:2|0:2,0:0:0:0:
512,72,31163,2,0,B|472:80|472:80|416:68,1,83,8|2,0:2|0:2,0:0:0:0:
356,84,31471,1,0,1:2:0:0:
356,84,31778,6,0,B|364:124|364:124|352:180,1,83,8|2,0:2|0:2,0:0:0:0:
352,368,32086,2,0,B|344:328|344:328|356:272,1,83,0|2,1:2|0:2,0:0:0:0:
396,228,32394,1,8,0:2:0:0:
396,228,32701,5,0,1:2:0:0:
468,104,32855,1,2,0:2:0:0:
460,264,33009,1,8,0:2:0:0:
431,293,33085,1,8,0:2:0:0:
391,301,33162,1,8,0:2:0:0:
353,287,33239,1,8,0:2:0:0:
328,248,33317,5,4,1:2:0:0:
344,164,33471,1,0,0:0:0:0:
176,180,33624,1,8,0:2:0:0:
260,196,33778,1,2,0:2:0:0:
200,44,33932,2,0,P|232:88|228:128,1,83,0|2,1:2|0:2,0:0:0:0:
176,180,34163,1,0,0:0:0:0:
176,180,34240,1,8,0:2:0:0:
200,44,34394,1,2,0:2:0:0:
20,164,34548,6,0,P|60:172|108:156,1,83,0|2,1:2|0:2,0:0:0:0:
64,12,34855,2,0,L|56:94,1,83,8|2,0:2|0:2,0:0:0:0:
27,246,35163,2,0,L|19:163,1,83,0|0,1:2|0:0,0:0:0:0:
184,204,35471,1,8,0:2:0:0:
181,232,35547,1,8,0:2:0:0:
178,261,35624,1,0,1:2:0:0:
175,290,35701,1,0,1:2:0:0:
173,319,35778,5,12,1:2:0:0:
104,260,35932,1,8,0:2:0:0:
252,296,36086,1,0,1:2:0:0:
104,336,36240,1,8,0:2:0:0:
236,368,36394,1,8,0:2:0:0:
236,368,36701,5,8,0:2:0:0:
104,336,36855,1,0,1:2:0:0:
264,220,37009,1,8,0:2:0:0:
312,352,37163,5,2,1:2:0:0:
344,340,37471,5,2,1:2:0:0:
376,332,37778,5,2,1:2:0:0:
476,216,37932,1,8,0:2:0:0:
447,244,38008,1,8,0:2:0:0:
439,284,38085,1,8,0:2:0:0:
453,322,38162,1,8,0:2:0:0:
492,348,38240,6,0,L|492:256,1,83,4|0,1:2|0:0,0:0:0:0:
428,120,38548,1,8,0:2:0:0:
476,216,38701,1,2,0:2:0:0:
472,60,38855,1,0,1:2:0:0:
384,180,39009,1,2,0:2:0:0:
384,180,39086,1,0,0:0:0:0:
384,180,39163,1,8,0:2:0:0:
504,128,39317,1,2,0:2:0:0:
344,48,39471,6,0,P|296:32|252:44,1,83,0|2,1:2|0:2,0:0:0:0:
296,188,39778,2,0,L|296:105,1,83,8|2,0:2|0:2,0:0:0:0:
140,88,40087,2,0,P|188:104|232:92,1,83,0|0,1:2|0:0,0:0:0:0:
96,24,40394,1,8,0:2:0:0:
96,24,40548,1,2,0:2:0:0:
32,164,40701,6,0,B|23:205|23:205|31:245,1,83,0|2,1:2|0:2,0:0:0:0:
192,384,41009,2,0,B|200:342|200:342|192:302,1,83,8|2,0:2|0:2,0:0:0:0:
120,344,41317,1,0,1:2:0:0:
120,344,41624,6,0,B|80:352|80:352|38:343,1,83,8|2,0:2|0:2,0:0:0:0:
156,236,41932,2,0,B|196:228|196:228|237:236,1,83,0|2,1:2|0:2,0:0:0:0:
272,304,42240,1,8,0:2:0:0:
272,304,42548,5,0,1:2:0:0:
280,168,42701,1,2,0:2:0:0:
200,320,42855,1,8,0:2:0:0:
217,356,42931,1,8,0:2:0:0:
251,377,43008,1,8,0:2:0:0:
292,377,43085,1,8,0:2:0:0:
329,349,43163,6,0,L|328:256,1,83,4|0,1:2|0:0,0:0:0:0:
312,104,43471,1,8,0:2:0:0:
392,228,43624,1,2,0:2:0:0:
372,48,43778,1,0,1:2:0:0:
312,184,43932,1,2,0:2:0:0:
312,184,44009,1,0,0:2:0:0:
312,184,44086,1,8,0:2:0:0:
464,168,44240,1,2,0:2:0:0:
288,84,44394,6,0,B|244:88|244:88|188:72,1,83,0|2,1:2|0:2,0:0:0:0:
88,24,44701,2,0,B|113:60|113:60|127:116,1,83,8|2,0:2|0:2,0:0:0:0:
136,224,45009,2,0,B|154:183|154:183|196:143,1,83,0|2,1:2|0:2,0:0:0:0:
140,320,45317,2,0,L|181:324,1,41.5,8|8,0:2|0:2,0:0:0:0:
76,268,45471,2,0,L|8:276,1,41.5,8|8,0:2|0:2,0:0:0:0:
253,248,45624,5,0,1:2:0:0:
412,300,45778,1,8,0:2:0:0:
253,351,45932,1,0,1:2:0:0:
352,216,46086,1,10,0:2:0:0:
352,384,46240,1,4,1:2:0:0:
352,384,46548,5,0,1:2:0:0:
352,216,46702,1,8,0:2:0:0:
253,351,46856,1,0,1:2:0:0:
412,300,47010,1,10,0:2:0:0:
253,248,47164,1,4,1:2:0:0:
253,248,47471,6,0,B|244:204|244:204|252:160,1,83,0|8,1:2|0:2,0:0:0:0:
288,24,47778,2,0,B|297:68|297:68|289:112,1,83,0|8,1:2|0:2,0:0:0:0:
144,76,48086,5,4,1:2:0:0:
168,74,48395,1,0,1:2:0:0:
193,72,48701,1,0,1:2:0:0:
218,70,49009,1,0,1:2:0:0:
88,124,49317,5,0,1:2:0:0:
90,148,49624,1,0,1:2:0:0:
32,64,49932,1,0,1:2:0:0:
34,40,50241,1,0,1:2:0:0:
16,228,50548,5,0,1:2:0:0:
40,226,50855,1,0,1:2:0:0:
65,224,51163,1,0,1:2:0:0:
90,222,51471,1,0,1:2:0:0:
144,306,51778,5,0,1:2:0:0:
146,330,52087,1,0,1:2:0:0:
88,246,52393,1,0,1:2:0:0:
90,222,52702,1,0,1:2:0:0:
264,188,53009,5,0,1:2:0:0:
288,185,53317,1,0,1:2:0:0:
313,190,53624,1,0,1:2:0:0:
335,201,53932,1,0,1:2:0:0:
336,344,54240,5,0,1:2:0:0:
338,368,54549,1,0,1:2:0:0:
280,284,54855,1,0,1:2:0:0:
282,260,55164,1,0,1:2:0:0:
412,320,55471,5,0,1:2:0:0:
436,323,55779,1,0,1:2:0:0:
461,318,56086,1,0,1:2:0:0:
483,307,56394,1,0,1:2:0:0:
420,192,56701,6,0,P|418:225|430:253,1,62.2500023746491,0|0,1:2|0:2,0:0:0:0:
464,128,57009,2,0,P|493:112|512:87,1,62.2500023746491,0|2,1:2|0:2,0:0:0:0:
416,24,57317,1,0,1:2:0:0:
380,128,57471,1,10,0:2:0:0:
350,132,57547,1,8,0:2:0:0:
320,131,57624,1,10,0:2:0:0:
291,125,57701,1,0,0:2:0:0:
262,119,57778,1,10,0:2:0:0:
232,119,57855,1,0,0:2:0:0:
204,124,57932,6,0,L|200:208,1,83,6|0,1:2|1:2,0:0:0:0:
156,272,58240,1,10,0:2:0:0:
284,212,58394,2,0,B|368:188|356:240|456:216,1,166,0|0,1:2|1:2,0:0:0:0:
408,64,58855,2,0,P|400:107|408:147,1,83,10|0,0:2|0:2,0:0:0:0:
328,280,59163,5,2,0:2:0:0:
333,310,59317,1,0,1:2:0:0:
412,372,59471,1,10,0:2:0:0:
420,341,59624,1,0,1:2:0:0:
260,352,59778,2,0,L|164:356,1,83,2|0,0:2|1:2,0:0:0:0:
152,344,60009,1,0,1:2:0:0:
152,344,60086,1,10,0:2:0:0:
40,364,60240,1,0,0:2:0:0:
80,224,60394,6,0,P|71:270|83:306,1,83,2|0,1:2|1:2,0:0:0:0:
148,260,60702,1,10,0:2:0:0:
16,184,60856,2,0,L|188:188,1,166,0|0,1:2|1:2,0:0:0:0:
228,40,61317,2,0,P|220:83|228:123,1,83,10|0,0:2|0:2,0:0:0:0:
328,92,61624,5,2,0:2:0:0:
297,85,61778,1,0,0:0:0:0:
400,44,61932,1,10,0:2:0:0:
430,39,62086,1,0,1:2:0:0:
352,212,62240,1,2,0:2:0:0:
399,120,62394,1,0,1:2:0:0:
405,150,62471,1,0,1:2:0:0:
419,177,62548,1,8,0:2:0:0:
428,206,62624,1,8,0:2:0:0:
426,237,62701,1,8,0:2:0:0:
417,266,62778,1,8,0:2:0:0:
352,212,62855,5,2,1:2:0:0:
476,128,63009,1,0,1:2:0:0:
500,256,63163,1,10,0:2:0:0:
352,212,63317,2,0,B|308:292|376:304|340:376,1,166,0|0,1:2|1:2,0:0:0:0:
192,332,63778,2,0,L|288:332,1,83,10|0,0:2|0:2,0:0:0:0:
124,376,64086,6,0,P|116:325|140:264,1,83,0|0,0:0|1:2,0:0:0:0:
24,376,64394,2,0,P|31:325|8:264,1,83,10|0,0:2|1:2,0:0:0:0:
8,152,64701,1,2,0:2:0:0:
76,216,64855,1,0,1:2:0:0:
61,219,64932,1,0,1:2:0:0:
46,222,65009,1,10,0:2:0:0:
4,136,65163,1,0,0:2:0:0:
152,96,65317,6,0,P|159:146|144:192,1,83,2|8,1:2|0:2,0:0:0:0:
4,108,65624,1,2,1:2:0:0:
88,136,65778,1,0,1:2:0:0:
3,27,65932,2,0,P|-4:77|11:123,1,83,10|0,0:2|1:2,0:0:0:0:
151,176,66240,1,8,1:2:0:0:
183,178,66317,1,8,1:2:0:0:
214,170,66394,1,8,1:2:0:0:
241,152,66471,1,8,1:2:0:0:
261,127,66548,5,10,0:2:0:0:
175,92,66701,1,0,1:2:0:0:
184,265,66855,1,10,0:2:0:0:
67,152,67009,1,0,1:2:0:0:
261,127,67163,1,10,0:2:0:0:
67,152,67317,1,0,1:2:0:0:
327,199,67471,2,0,P|364:188|412:200,1,83,10|0,0:2|1:2,0:0:0:0:
472,360,67778,5,4,1:2:0:0:
477,335,68086,1,0,1:2:0:0:
482,310,68394,1,0,1:2:0:0:
487,285,68701,1,0,1:2:0:0:
377,225,69009,5,0,1:2:0:0:
381,250,69317,1,0,1:2:0:0:
384,275,69624,1,0,1:2:0:0:
387,300,69932,1,0,1:2:0:0:
268,228,70240,5,2,1:2:0:0:
275,203,70548,1,0,1:2:0:0:
283,179,70855,1,0,1:2:0:0:
290,154,71163,1,0,1:2:0:0:
208,80,71471,5,2,1:2:0:0:
164,172,71778,1,0,1:2:0:0:
40,128,72086,2,0,L|28:208,3,41.5,8|8|8|8,0:2|0:2|0:2|0:2,0:0:0:0:
28,196,72394,1,0,1:2:0:0:
31,220,72470,1,0,1:2:0:0:
35,245,72547,1,0,1:2:0:0:
39,269,72624,1,0,1:2:0:0:
35,349,72701,5,8,0:2:0:0:
152,280,72855,1,0,1:2:0:0:
39,269,73009,1,8,0:2:0:0:
144,360,73163,1,0,1:2:0:0:
216,104,73624,5,8,0:2:0:0:
285,221,73778,1,0,1:2:0:0:
296,108,73932,1,8,0:2:0:0:
205,213,74086,1,0,1:2:0:0:
384,24,74548,6,0,P|372:64|384:116,1,83,8|8,1:2|1:2,0:0:0:0:
488,260,74855,2,0,P|500:220|488:168,1,83,0|8,1:2|0:2,0:0:0:0:
280,192,75163,5,12,0:2:0:0:
424,216,75317,1,0,1:2:0:0:
408,220,75471,1,0,1:2:0:0:
285,221,75624,5,12,0:2:0:0:
416,296,75778,1,0,1:2:0:0:
400,300,75932,1,0,1:2:0:0:
288,248,76086,5,12,0:2:0:0:
420,372,76240,5,0,1:2:0:0:
404,376,76548,5,0,1:2:0:0:
384,380,76855,5,0,1:2:0:0:
252,344,77009,1,8,0:2:0:0:
328,324,77163,1,0,0:0:0:0:
208,236,77317,2,0,L|52:232,1,124.5,8|0,0:2|0:2,0:0:0:0:
20,276,77624,6,0,P|7:235|19:186,1,83,4|0,1:2|0:2,0:0:0:0:
92,312,77932,2,0,P|60:344|9:353,1,83,8|0,0:2|0:2,0:0:0:0:
84,156,78240,1,0,1:2:0:0:
20,276,78394,1,0,1:2:0:0:
44,88,78548,2,0,P|82:79|131:92,1,83,8|0,0:2|0:2,0:0:0:0:
266,142,78855,6,0,B|294:156|294:156|154:154,1,166,0|8,1:2|0:2,0:0:0:0:
162,155,79317,1,0,0:2:0:0:
336,96,79471,2,0,P|364:126|370:179,1,83,0|0,1:2|1:2,0:0:0:0:
260,228,79778,2,0,P|265:188|291:155,1,83,8|0,0:2|0:2,0:0:0:0:
428,228,80086,5,0,1:2:0:0:
428,228,80240,1,0,0:2:0:0:
304,308,80394,2,0,L|213:302,1,83,8|0,0:2|0:2,0:0:0:0:
336,376,80701,1,0,1:2:0:0:
336,376,80855,1,0,1:2:0:0:
492,272,81009,2,0,P|504:228|492:184,1,83,8|0,0:2|0:2,0:0:0:0:
464,40,81317,6,0,P|452:84|464:128,1,83,0|0,1:2|0:2,0:0:0:0:
428,228,81624,1,8,0:2:0:0:
428,228,81778,1,0,0:2:0:0:
244,192,81932,1,0,1:2:0:0:
392,160,82086,1,0,1:2:0:0:
324,32,82240,1,8,1:2:0:0:
321,60,82317,1,8,1:2:0:0:
318,88,82394,1,8,1:2:0:0:
315,116,82471,1,8,1:2:0:0:
311,144,82548,5,12,0:2:0:0:
228,40,82701,1,0,1:2:0:0:
112,148,82855,1,10,0:2:0:0:
236,116,83009,1,0,1:2:0:0:
48,104,83163,2,0,P|36:144|44:188,1,83,10|0,0:2|1:2,0:0:0:0:
112,148,83471,1,10,0:2:0:0:
0,276,83624,2,0,B|84:316|68:244|172:284,1,166,0|0,1:2|1:2,0:0:0:0:
304,352,84086,6,0,P|261:360|200:340,1,83,10|0,0:2|1:2,0:0:0:0:
340,212,84393,1,10,0:2:0:0:
372,376,84547,1,0,1:2:0:0:
464,232,84701,1,0,0:2:0:0:
260,288,84855,1,0,1:2:0:0:
462,201,85009,5,8,0:2:0:0:
432,199,85086,1,8,0:2:0:0:
403,196,85163,1,8,0:2:0:0:
373,193,85240,1,8,0:2:0:0:
299,214,85317,5,0,1:2:0:0:
340,212,85394,1,0,1:2:0:0:
381,208,85471,1,0,1:2:0:0:
422,204,85548,1,0,1:2:0:0:
462,201,85624,5,8,0:2:0:0:
448,48,85778,1,0,1:2:0:0:
448,48,86086,6,0,P|444:82|396:24,1,166,4|0,1:2|1:2,0:0:0:0:
406,123,86548,1,10,0:2:0:0:
313,137,86701,1,0,0:2:0:0:
422,204,86855,1,2,1:2:0:0:
291,54,87009,1,0,1:2:0:0:
291,54,87086,1,0,1:2:0:0:
291,54,87163,5,8,0:2:0:0:
263,23,87240,1,8,0:2:0:0:
222,14,87317,1,8,0:2:0:0:
180,19,87394,1,8,0:2:0:0:
143,38,87471,6,0,L|157:138,1,83,4|0,1:2|0:2,0:0:0:0:
84,268,87778,2,0,L|96:186,1,83,10|0,0:2|0:2,0:0:0:0:
28,136,88086,1,0,1:2:0:0:
28,136,88240,1,0,1:2:0:0:
96,292,88394,2,0,L|108:210,1,83,10|0,0:2|0:2,0:0:0:0:
8,332,88701,6,0,L|188:324,1,166,0|10,1:2|0:2,0:0:0:0:
173,324,89163,1,0,0:2:0:0:
360,280,89317,2,0,P|404:268|460:280,1,83,0|0,1:2|1:2,0:0:0:0:
312,368,89624,2,0,P|268:380|212:368,1,83,10|0,0:2|0:2,0:0:0:0:
236,192,89932,5,0,1:2:0:0:
261,304,90086,1,0,0:2:0:0:
276,128,90240,2,0,P|202:123|176:152,1,83,10|0,0:2|0:2,0:0:0:0:
184,300,90548,1,0,1:2:0:0:
300,232,90701,1,0,1:2:0:0:
116,264,90855,2,0,L|107:175,1,83,10|0,0:2|0:2,0:0:0:0:
4,80,91163,6,0,B|30:28|30:28|40:148,1,166,0|10,1:2|0:2,0:0:0:0:
32,212,91624,1,0,0:2:0:0:
112,48,91778,2,0,P|185:43|212:72,1,83,0|0,1:2|1:2,0:0:0:0:
360,148,92086,1,10,1:2:0:0:
368,184,92163,1,8,1:2:0:0:
374,222,92240,1,8,1:2:0:0:
382,259,92317,1,8,1:2:0:0:
389,296,92394,6,0,L|396:200,1,83,4|0,1:2|1:2,0:0:0:0:
472,384,92701,2,0,L|465:288,1,83,10|0,0:2|0:2,0:0:0:0:
276,324,93009,1,0,1:2:0:0:
388,368,93163,1,0,1:2:0:0:
248,332,93317,1,10,0:2:0:0:
389,296,93471,1,0,0:2:0:0:
184,376,93624,6,0,P|173:332|181:287,1,83,0|8,1:2|0:2,0:0:0:0:
152,136,93932,2,0,P|163:180|155:225,1,83,0|8,1:2|0:2,0:0:0:0:
84,184,94163,1,8,0:2:0:0:
84,184,94240,5,0,1:2:0:0:
0,224,94394,1,8,0:3:0:0:
88,276,94548,5,8,0:3:0:0:
24,312,94701,1,8,0:3:0:0:
64,376,94855,5,4,1:2:0:0:
64,376,96086,5,4,1:2:0:0:
71,383,96548,5,0,1:2:0:0:
71,383,96624,1,0,1:2:0:0:
71,383,96701,2,0,P|63:347|71:303,1,62.2500023746491,8|8,0:2|0:3,0:0:0:0:
16,256,97009,2,0,P|24:220|16:176,1,62.2500023746491,8|8,0:3|0:3,0:0:0:0:
44,120,97317,6,0,L|180:112,1,124.500004749298,4|2,1:2|0:2,0:0:0:0:
168,112,97778,1,0,0:2:0:0:
232,68,97932,2,0,L|236:-4,2,62.2500023746491,8|2|0,0:2|1:2|0:2,0:0:0:0:
304,124,98394,6,0,L|312:-28,1,124.500004749298,2|2,1:2|0:2,0:0:0:0:
384,48,98855,2,0,L|380:124,1,62.2500023746491,0|0,0:2|0:2,0:0:0:0:
456,88,99163,2,0,L|460:164,2,62.2500023746491,10|0|2,0:2|1:2|0:2,0:0:0:0:
452,224,99778,6,0,L|528:216,2,41.5000015830994,12|0|0,1:2|0:0|0:0,0:0:0:0:
468,300,100086,2,0,L|544:292,2,41.5000015830994,0|0|0,0:2|0:0|0:0,0:0:0:0:
360,296,100394,6,0,L|284:288,2,41.5000015830994,12|0|0,1:2|0:0|0:0,0:0:0:0:
344,372,100702,2,0,L|268:364,2,41.5000015830994,0|0|0,0:2|0:0|0:0,0:0:0:0:
200,308,101009,6,0,L|276:316,2,41.5000015830994,8|0|0,0:2|1:2|1:2,0:0:0:0:
216,232,101317,2,0,L|292:240,2,41.5000015830994,8|0|0,0:2|1:2|1:2,0:0:0:0:
136,356,101624,5,8,0:2:0:0:
111,354,101700,1,8,0:2:0:0:
86,352,101777,1,8,0:2:0:0:
61,350,101854,1,8,0:2:0:0:
24,328,101932,5,0,1:2:0:0:
15,304,102008,1,0,1:2:0:0:
11,280,102085,1,0,1:2:0:0:
14,255,102162,1,0,1:2:0:0:
32,220,102240,6,0,L|32:132,1,62.2500023746491,4|8,1:2|0:2,0:0:0:0:
92,48,102548,1,0,1:2:0:0:
92,48,102855,2,0,L|92:136,1,62.2500023746491,8|8,0:2|0:2,0:0:0:0:
168,176,103163,2,0,L|168:88,1,62.2500023746491,0|8,1:2|0:2,0:0:0:0:
180,88,103394,1,8,0:2:0:0:
180,88,103471,6,0,P|216:84|256:92,1,62.2500023746491,0|8,1:2|0:2,0:0:0:0:
304,208,103778,2,0,P|282:178|269:140,1,62.2500023746491,0|8,1:2|0:2,0:0:0:0:
352,40,104086,2,0,P|337:73|310:103,1,62.2500023746491,0|8,1:2|0:2,0:0:0:0:
321,93,104317,1,0,0:2:0:0:
321,93,104394,1,0,1:2:0:0:
388,192,104548,1,8,0:2:0:0:
388,192,104624,1,0,0:2:0:0:
388,192,104701,6,0,L|379:284,1,83,4|0,1:2|0:2,0:0:0:0:
504,320,104932,1,8,0:2:0:0:
504,320,105009,2,0,L|510:226,1,83,2|8,1:2|0:2,0:0:0:0:
492,72,105317,5,2,1:2:0:0:
509,237,105471,1,0,0:2:0:0:
509,237,105548,1,8,0:2:0:0:
509,237,105624,1,2,1:2:0:0:
432,128,105778,1,8,0:2:0:0:
302,252,105932,6,0,B|346:264|346:264|398:248,1,83,2|0,1:2|0:2,0:0:0:0:
228,216,106163,1,8,0:2:0:0:
228,216,106240,2,0,B|184:204|184:204|132:220,1,83,2|8,1:2|0:2,0:0:0:0:
20,348,106548,5,2,1:2:0:0:
25,355,106778,1,8,0:2:0:0:
25,355,106855,1,2,1:2:0:0:
184,284,107009,1,8,0:2:0:0:
12,188,107163,6,0,P|4:232|20:276,1,83,2|8,1:2|0:2,0:0:0:0:
148,214,107394,1,0,0:0:0:0:
148,214,107471,2,0,P|156:170|140:126,1,83,2|8,1:2|0:2,0:0:0:0:
16,48,107778,5,2,1:2:0:0:
68,136,107932,1,8,0:2:0:0:
68,136,108009,1,0,0:0:0:0:
68,136,108086,1,2,1:2:0:0:
172,64,108240,1,8,0:2:0:0:
228,240,108394,5,2,1:2:0:0:
392,176,108548,1,8,0:2:0:0:
392,176,108624,1,0,0:0:0:0:
392,176,108701,1,2,1:2:0:0:
240,108,108855,1,8,0:2:0:0:
264,312,109009,5,2,1:2:0:0:
196,172,109163,1,8,0:2:0:0:
216,368,109317,1,2,1:2:0:0:
240,108,109471,1,8,0:2:0:0:
348,256,109624,5,6,1:2:0:0:
336,170,109778,1,0,0:2:0:0:
336,170,109855,1,8,0:2:0:0:
336,170,109932,1,2,1:2:0:0:
416,202,110086,1,8,0:2:0:0:
323,258,110240,5,2,1:2:0:0:
346,147,110394,1,0,0:2:0:0:
346,147,110471,1,8,0:2:0:0:
346,147,110548,1,2,1:2:0:0:
430,222,110702,1,8,0:2:0:0:
291,249,110855,5,2,1:2:0:0:
369,125,111009,1,0,0:2:0:0:
369,125,111086,1,8,0:2:0:0:
369,125,111163,1,2,1:2:0:0:
438,253,111317,1,8,0:2:0:0:
257,225,111471,5,2,1:2:0:0:
407,108,111625,1,0,0:2:0:0:
407,108,111701,1,8,0:2:0:0:
407,108,111778,1,2,1:2:0:0:
434,294,111933,1,8,0:2:0:0:
240,112,112086,5,2,1:2:0:0:
240,112,113317,5,8,0:2:0:0:
206,111,113393,1,8,0:2:0:0:
173,110,113470,1,8,0:2:0:0:
140,109,113547,1,8,0:2:0:0:
112,128,113624,5,0,1:2:0:0:
8,32,113778,1,0,0:2:0:0:
4,144,113932,1,0,1:2:0:0:
80,60,114086,1,8,0:2:0:0:
68,200,114240,2,0,B|72:236|72:236|64:258|64:258|72:304,1,83,0|8,1:2|0:2,0:0:0:0:
120,340,114471,1,8,0:2:0:0:
120,340,114548,5,4,1:2:0:0:
216,379,114701,1,8,0:2:0:0:
236,380,114778,1,0,0:0:0:0:
256,381,114855,1,2,1:2:0:0:
375,301,115009,5,8,0:2:0:0:
354,306,115086,1,0,0:2:0:0:
333,307,115163,1,2,1:2:0:0:
312,302,115240,1,0,0:2:0:0:
293,292,115317,1,0,0:2:0:0:
275,280,115394,1,8,0:2:0:0:
263,262,115471,2,0,L|269:220,1,41.5,2|0,1:2|0:2,0:0:0:0:
365,167,115624,2,0,L|376:224,1,41.5,8|0,0:2|0:2,0:0:0:0:
260,140,115778,6,0,P|273:93|299:51,1,83,2|0,1:2|0:2,0:0:0:0:
383,40,116009,1,8,0:2:0:0:
383,40,116086,1,2,1:2:0:0:
166,105,116240,1,8,0:2:0:0:
146,99,116317,1,0,0:2:0:0:
125,93,116394,5,2,1:2:0:0:
213,226,116548,1,0,0:2:0:0:
220,244,116624,1,8,0:2:0:0:
220,264,116701,1,2,1:2:0:0:
75,281,116855,1,8,0:2:0:0:
72,260,116932,1,0,0:2:0:0:
75,239,117009,6,0,P|99:291|126:316,1,83,2|0,1:2|0:2,0:0:0:0:
195,346,117240,1,8,0:2:0:0:
195,346,117317,2,0,L|294:331,1,83,2|8,1:2|0:2,0:0:0:0:
361,304,117548,1,0,0:2:0:0:
361,304,117624,6,0,L|446:320,1,83,2|0,1:2|0:2,0:0:0:0:
503,255,117855,1,8,0:2:0:0:
503,255,117932,2,0,L|496:163,1,83,2|8,1:2|0:2,0:0:0:0:
434,109,118163,1,0,0:2:0:0:
434,109,118240,6,0,P|396:136|320:136,1,124.5,2|8,1:2|0:2,0:0:0:0:
360,57,118548,1,2,1:2:0:0:
228,133,118701,2,0,L|231:45,1,83,8|0,0:2|1:2,0:0:0:0:
315,218,119009,2,0,L|320:120,1,83,8|0,0:2|1:2,0:0:0:0:
137,130,119317,1,8,0:2:0:0:
128,304,119471,5,6,1:2:0:0:
109,219,119625,1,0,0:2:0:0:
109,219,119702,1,8,0:2:0:0:
109,219,119779,1,2,1:2:0:0:
45,276,119933,1,8,0:2:0:0:
152,297,120087,5,2,1:2:0:0:
92,200,120241,1,0,0:2:0:0:
92,200,120318,1,8,0:2:0:0:
92,200,120395,1,2,1:2:0:0:
39,300,120548,1,8,0:2:0:0:
179,277,120701,5,2,1:2:0:0:
63,188,120855,1,0,0:0:0:0:
63,188,120932,1,8,0:0:0:0:
63,188,121009,1,2,1:2:0:0:
42,331,121163,1,8,0:0:0:0:
202,243,121317,5,2,1:2:0:0:
21,185,121471,1,0,0:2:0:0:
21,185,121548,1,8,0:2:0:0:
21,185,121624,1,2,1:2:0:0:
60,369,121778,1,8,0:2:0:0:
216,204,121932,6,0,B|260:196|260:196|320:208,1,83,4|8,1:2|0:2,0:0:0:0:
316,224,122163,1,8,0:2:0:0:
316,224,122240,1,0,1:2:0:0:
488,200,122394,1,8,0:2:0:0:
488,200,122471,1,8,0:2:0:0:
489,200,122548,2,0,L|417:216,1,41.5,0|0,1:2|0:0,0:0:0:0:
344,144,122701,2,0,L|393:198,1,41.5,8|0,0:2|0:0,0:0:0:0:
372,296,122855,2,0,L|394:225,1,41.5,8|0,1:2|1:2,0:0:0:0:
456,116,123009,5,8,0:2:0:0:
464,92,123317,5,2,1:2:0:0:
472,72,123624,5,2,1:2:0:0:
412,20,123778,1,8,1:2:0:0:
388,24,123932,1,8,0:3:0:0:
280,72,124086,1,8,0:3:0:0:
256,68,124240,1,8,0:3:0:0:
148,28,124394,5,6,1:2:0:0:
148,28,127624,5,0,0:0:0:0:
21,102,127778,2,0,B|65:98|65:98|97:110|97:110|169:106,1,124.5,12|0,0:2|0:2,0:0:0:0:
52,172,128086,6,0,P|40:216|52:260,1,83,0|8,1:2|0:2,0:0:0:0:
28,328,128317,1,8,0:2:0:0:
28,328,128394,2,0,L|92:316,1,41.5,8|8,0:2|0:2,0:0:0:0:
116,216,128548,2,0,L|180:228,1,41.5,8|8,0:2|0:2,0:0:0:0:
156,324,128701,6,0,L|220:312,1,41.5,0|0,1:2|0:0,0:0:0:0:
260,264,128855,2,0,L|324:276,1,41.5,8|0,0:2|0:0,0:0:0:0:
384,336,129009,1,2,1:2:0:0:
368,330,129086,1,0,0:0:0:0:
368,314,129163,1,8,0:2:0:0:
384,309,129240,1,0,0:0:0:0:
393,322,129317,5,14,0:2:0:0:
332,200,129470,1,0,1:2:0:0:
280,344,129624,1,10,0:2:0:0:
228,192,129778,1,0,1:2:0:0:
47,251,129932,2,0,P|87:257|128:240,1,83,10|0,0:2|1:2,0:0:0:0:
88,100,130240,2,0,L|80:196,1,83,10|0,0:2|1:2,0:0:0:0:
168,88,130548,5,10,0:2:0:0:
81,182,130701,1,0,0:0:0:0:
48,36,130855,1,10,0:2:0:0:
156,164,131009,1,0,1:2:0:0:
248,12,131162,5,10,0:2:0:0:
280,176,131316,1,0,1:2:0:0:
372,32,131470,1,10,0:2:0:0:
168,88,131624,1,0,1:2:0:0:
408,120,131778,5,10,0:2:0:0:
426,142,131854,1,0,0:0:0:0:
435,169,131931,1,0,1:2:0:0:
433,198,132008,1,0,0:0:0:0:
421,224,132085,1,14,0:2:0:0:
421,224,132855,6,0,B|398:180|398:180|397:332,1,166,0|0,1:2|1:2,0:0:0:0:
284,212,133317,5,10,0:2:0:0:
270,305,133470,1,0,1:2:0:0:
188,248,133624,1,10,0:2:0:0:
340,344,133778,1,0,1:2:0:0:
340,344,133855,1,0,0:0:0:0:
340,344,133932,5,10,1:2:0:0:
312,375,134009,1,8,1:2:0:0:
271,384,134086,1,8,1:2:0:0:
235,375,134163,1,8,1:2:0:0:
200,352,134240,6,0,L|188:269,1,83,4|8,1:2|0:2,0:0:0:0:
112,272,134547,2,0,L|100:354,1,83,0|0,1:2|1:2,0:0:0:0:
20,356,134855,1,14,0:2:0:0:
20,356,135009,2,0,B|37:236|37:236|16:172,1,166,0|8,0:0|1:2,0:0:0:0:
16,116,135394,1,8,1:2:0:0:
16,116,135471,6,0,P|56:124|116:100,1,83,8|8,1:2|0:2,0:0:0:0:
232,48,135778,1,2,1:2:0:0:
148,56,135932,1,0,1:2:0:0:
292,96,136086,2,0,P|336:84|392:96,1,83,12|0,0:2|0:0,0:0:0:0:
512,140,136394,2,0,P|468:152|412:140,1,83,0|8,1:2|1:2,0:0:0:0:
368,192,136624,1,8,1:2:0:0:
368,192,136701,5,0,1:2:0:0:
393,304,136855,1,8,0:2:0:0:
292,208,137009,2,0,P|218:203|192:232,1,83,2|0,1:2|1:2,0:0:0:0:
132,340,137317,1,12,0:2:0:0:
248,272,137470,1,0,0:2:0:0:
108,328,137624,2,0,L|99:239,1,83,0|8,1:2|0:2,0:0:0:0:
20,92,137932,5,0,1:2:0:0:
64,176,138086,1,0,1:2:0:0:
168,16,138240,5,8,0:2:0:0:
73,12,138394,1,0,1:2:0:0:
164,176,138548,5,8,0:2:0:0:
214,95,138702,1,0,1:2:0:0:
328,200,138855,1,8,1:2:0:0:
320,164,138932,1,8,1:2:0:0:
314,126,139009,1,8,1:2:0:0:
306,89,139086,1,8,1:2:0:0:
299,52,139163,6,0,L|292:148,1,83,0|0,1:2|0:2,0:0:0:0:
400,200,139471,2,0,P|444:192|492:208,1,83,10|0,0:2|0:2,0:0:0:0:
320,296,139778,1,2,1:2:0:0:
432,340,139932,1,0,1:2:0:0:
292,304,140086,1,10,0:2:0:0:
433,268,140240,1,0,0:2:0:0:
232,352,140394,6,0,P|221:308|229:263,1,83,2|0,1:2|0:2,0:0:0:0:
168,132,140701,2,0,P|179:176|171:221,1,83,10|0,0:2|0:2,0:0:0:0:
104,180,140932,1,0,0:0:0:0:
104,180,141009,1,2,1:2:0:0:
88,92,141163,1,0,1:2:0:0:
12,232,141317,1,8,1:2:0:0:
112,256,141470,1,8,1:2:0:0:
112,256,141548,1,8,1:2:0:0:
112,256,141624,5,4,1:2:0:0:
256,192,141701,12,0,142778,2:0:0:0:
256,192,142855,12,4,144086,1:2:0:0:
