osu file format v14

[General]
AudioFilename: audio.mp3
AudioLeadIn: 0
PreviewTime: 77624
Countdown: 0
SampleSet: Soft
StackLeniency: 0.5
Mode: 0
LetterboxInBreaks: 0
WidescreenStoryboard: 0

[Editor]
DistanceSpacing: 0.1
BeatDivisor: 4
GridSize: 32
TimelineZoom: 2.3

[Metadata]
Title:Soushi Sou Ai
TitleUnicode:相思創愛
Artist:Ito Kashitaro x Lon
ArtistUnicode:伊東歌詞太郎×ろん
Creator:Anishina Kodoku
Version:Tatemae
Source:言ノ葉Project
Tags:第4弾 プロジェクト vocaloid utaite cover kalindraz loreley djulus kanor Lobelia [ Abhor ] nattu まらしぃ marasy
BeatmapID:1647044
BeatmapSetID:669776

[Difficulty]
HPDrainRate:6
CircleSize:4
OverallDifficulty:9
ApproachRate:9.5
SliderMultiplier:1.66
SliderTickRate:1

[Events]
//Background and Video events
Video,-27,"os.flv"
0,0,"im not gay.png",0,0
//Break Periods
//Storyboard Layer 0 (Background)
//Storyboard Layer 1 (Fail)
//Storyboard Layer 2 (Pass)
//Storyboard Layer 3 (Foreground)
//Storyboard Sound Samples

[TimingPoints]
17946,307.692307692308,4,2,2,30,1,0
18548,307.692307692308,4,2,2,40,1,0
18548,-111.111111111111,4,2,2,40,0,0
25932,-83.3333333333333,4,2,2,60,0,0
26855,-111.111111111111,4,2,2,40,0,0
28086,-200,4,2,2,40,0,0
28317,-200,4,2,2,20,0,0
28394,-83.3333333333333,4,2,2,70,0,0
28624,-100,4,2,2,15,0,0
28701,-100,4,2,2,70,0,0
33548,-100,4,2,2,5,0,0
33624,-100,4,2,2,70,0,0
35471,-100,4,2,2,70,0,0
37932,-100,4,2,2,70,0,0
38471,-100,4,2,2,5,0,0
38548,-100,4,2,2,70,0,0
43163,-100,4,2,2,70,0,0
43471,-100,4,2,2,70,0,0
45624,-83.3333333333333,4,2,2,70,0,0
47471,-76.9230769230769,4,2,2,70,0,0
48086,-83.3333333333333,4,2,3,50,0,0
55471,-200,4,2,3,50,0,0
56701,-83.3333333333333,4,2,2,50,0,0
57932,-100,4,2,2,70,0,0
67778,-100,4,2,3,50,0,0
70240,-333.333333333333,4,2,3,50,0,0
70317,-100,4,2,3,50,0,0
71471,-333.333333333333,4,2,3,50,0,0
71548,-100,4,2,3,50,0,0
72086,-100,4,2,2,50,0,0
72701,-100,4,2,2,60,0,0
76240,-58.8235294117647,4,2,2,70,0,0
76471,-66.6666666666667,4,2,2,20,0,0
76548,-55.5555555555556,4,2,2,70,0,0
76778,-58.8235294117647,4,2,2,20,0,0
76855,-62.5,4,2,2,70,0,0
76932,-50,4,2,2,20,0,0
77009,-76.9230769230769,4,2,2,70,0,0
77240,-76.9230769230769,4,2,2,20,0,0
77317,-250.000000000001,4,2,2,70,0,0
77548,-100,4,2,2,20,0,0
77624,-90.9090909090909,4,2,2,80,0,1
85778,-90.9090909090909,4,2,2,50,0,0
86086,-83.3333333333333,4,2,2,80,0,1
86394,-90.9090909090909,4,2,2,80,0,1
94394,-250,4,2,2,80,0,1
94855,-133.333333333333,4,2,2,50,0,0
99778,-100,4,2,2,70,0,0
100086,-133.333333333333,4,2,2,70,0,0
100394,-100,4,2,2,70,0,0
100701,-100,4,2,2,70,0,0
101009,-90.9090909090909,4,2,2,70,0,0
101317,-83.3333333333333,4,2,2,70,0,0
101624,-100,4,2,2,70,0,0
112086,-142.857142857143,4,2,2,40,0,0
113317,-62.5,4,2,2,60,0,0
113624,-58.8235294117647,4,2,2,70,0,0
114548,-83.3333333333333,4,2,2,70,0,0
123009,-83.3333333333333,4,2,2,70,0,0
123086,-200,4,2,2,70,0,0
123163,-83.3333333333333,4,2,3,70,0,0
123932,-250,4,2,3,70,0,0
124394,-250,4,2,3,40,0,0
126855,-200,4,2,3,50,0,0
127778,-66.6666666666667,4,2,2,70,0,1
128086,-83.3333333333333,4,2,2,70,0,1
128701,-250,4,2,2,70,0,1
129317,-83.3333333333333,4,2,2,70,0,1
130548,-66.6666666666667,4,2,2,70,0,1
130855,-83.3333333333333,4,2,2,70,0,1
131778,-71.4285714285714,4,2,2,70,0,1
132086,-83.3333333333333,4,2,2,50,0,0
132855,-83.3333333333333,4,2,2,70,0,1
133163,-83.3333333333333,4,2,2,70,0,1
134240,-133.333333333333,4,2,2,70,0,1
137932,-83.3333333333333,4,2,2,80,0,1
141624,-83.3333333333333,4,2,2,60,0,0
142855,-133.333333333333,4,2,2,60,0,0
144086,-76.9230769230769,4,2,2,60,0,0
144317,-76.9230769230769,4,2,2,20,0,0
144394,-100,4,2,2,60,0,0
149240,-100,4,2,2,5,0,0
149317,-100,4,2,2,60,0,0
151163,-100,4,2,2,60,0,0
153624,-100,4,2,2,60,0,0
153932,-100,4,2,2,60,0,0
154163,-100,4,2,2,20,0,0
154240,-100,4,2,2,60,0,0
158855,-100,4,2,2,60,0,0
159086,-100,4,2,2,5,0,0
159163,-100,4,2,2,60,0,0
161317,-83.3333333333333,4,2,2,60,0,0
163163,-76.9230769230769,4,2,2,60,0,0
163778,-76.9230769230769,4,2,2,30,0,0

[Colours]
Combo1 : 160,194,201
Combo2 : 183,174,240
Combo3 : 149,38,74

[HitObjects]
346,296,17945,6,0,P|336:318|337:341,1,41.5,4|0,0:0|0:0,0:0:0:0:
346,296,18099,2,0,P|343:261|342:238,1,41.5
346,296,18253,6,0,P|288:261|216:284,1,124.5,8|0,0:2|0:2,0:0:0:0:
235,272,18548,6,0,P|242:236|262:195,1,74.699997720337,2|0,1:2|0:2,0:0:0:0:
384,176,18855,2,0,P|377:140|357:99,1,74.699997720337,2|0,0:2|0:2,0:0:0:0:
260,105,19163,1,2,0:2:0:0:
162,110,19317,1,0,0:2:0:0:
162,110,19394,1,0,0:2:0:0:
162,110,19471,1,2,0:2:0:0:
261,88,19624,1,0,0:2:0:0:
166,191,19778,5,2,0:2:0:0:
204,36,19932,1,0,0:2:0:0:
173,195,20086,1,2,0:2:0:0:
196,37,20240,1,0,0:2:0:0:
286,189,20394,5,2,0:2:0:0:
357,344,20701,5,2,0:2:0:0:
356,338,20855,1,0,0:2:0:0:
257,315,21009,5,4,0:3:0:0:
259,300,21163,1,0,0:2:0:0:
219,226,21317,5,2,0:2:0:0:
228,196,21471,1,0,0:2:0:0:
268,126,21624,5,2,0:2:0:0:
324,210,21932,5,2,0:2:0:0:
365,40,22086,1,0,0:2:0:0:
332,213,22240,1,2,0:2:0:0:
358,40,22394,1,0,0:2:0:0:
460,289,22548,5,2,0:2:0:0:
284,121,22855,5,4,0:3:0:0:
479,190,23009,1,8,0:2:0:0:
256,260,23163,1,4,0:3:0:0:
256,260,23471,6,0,L|268:358,1,74.699997720337,0|0,1:2|0:2,0:0:0:0:
400,218,23778,2,0,L|388:316,1,74.699997720337,2|0,1:2|0:2,0:0:0:0:
308,175,24086,1,2,1:2:0:0:
397,124,24240,1,0,0:2:0:0:
397,124,24317,1,0,0:2:0:0:
397,124,24394,1,2,1:2:0:0:
400,218,24548,1,0,0:2:0:0:
312,80,24701,5,2,1:2:0:0:
457,62,24855,1,0,0:2:0:0:
310,73,25009,1,2,1:2:0:0:
457,68,25163,1,0,0:2:0:0:
239,31,25317,5,2,1:2:0:0:
280,352,25624,5,2,1:2:0:0:
212,284,25778,1,0,0:2:0:0:
123,316,25932,6,0,P|89:282|95:216,1,99.5999969604493,8|0,1:2|1:2,0:0:0:0:
166,180,26163,1,0,1:2:0:0:
166,180,26240,2,0,P|197:144|188:79,1,99.5999969604493,0|8,1:2|0:2,0:0:0:0:
105,41,26471,5,0,1:2:0:0:
105,41,26548,2,0,L|39:39,1,49.7999984802247,0|0,1:2|0:2,0:0:0:0:
50,127,26701,2,0,L|108:122,1,49.7999984802247,0|0,1:2|0:2,0:0:0:0:
196,94,26855,5,8,0:2:0:0:
64,324,27009,1,8,0:2:0:0:
277,216,27163,6,0,L|283:268,1,37.3499988601685,10|0,0:2|0:2,0:0:0:0:
365,331,27317,2,0,L|352:277,1,37.3499988601685,2|0,1:2|0:2,0:0:0:0:
196,94,27624,6,0,L|204:136,1,37.3499988601685,2|0,1:2|0:2,0:0:0:0:
449,64,27932,2,0,B|460:73|460:73|464:99,1,37.3499988601685,2|0,1:2|0:2,0:0:0:0:
464,96,28086,6,0,L|392:97,1,62.25,8|0,0:2|0:2,0:0:0:0:
354,123,28394,6,0,L|508:109,1,149.399995440674,4|0,1:2|0:2,0:0:0:0:
503,126,28701,5,8,0:2:0:0:
307,36,28855,1,2,0:2:0:0:
499,153,29009,5,0,1:2:0:0:
262,130,29163,1,2,0:2:0:0:
231,155,29241,1,0,0:0:0:0:
216,195,29317,1,8,0:2:0:0:
305,206,29471,1,2,0:2:0:0:
106,39,29624,5,0,1:2:0:0:
63,110,29778,1,2,0:2:0:0:
94,186,29932,1,8,0:2:0:0:
147,122,30086,1,2,0:2:0:0:
11,176,30240,1,0,1:2:0:0:
11,176,30548,5,8,0:2:0:0:
147,122,30701,1,2,0:2:0:0:
201,255,30855,5,0,1:2:0:0:
65,309,31008,1,2,0:2:0:0:
116,221,31163,5,8,0:2:0:0:
285,289,31317,1,2,0:2:0:0:
456,351,31471,1,0,1:2:0:0:
208,336,31778,5,8,0:2:0:0:
361,228,31931,1,2,0:2:0:0:
464,338,32086,5,0,1:2:0:0:
286,277,32240,1,2,0:2:0:0:
118,211,32394,1,8,0:2:0:0:
433,173,32701,5,0,1:2:0:0:
357,364,32855,1,2,0:2:0:0:
175,148,33009,1,8,0:2:0:0:
208,124,33085,1,8,0:2:0:0:
249,120,33162,1,8,0:2:0:0:
287,136,33239,1,8,0:2:0:0:
313,168,33317,6,0,L|290:303,1,124.5,4|0,1:2|0:2,0:0:0:0:
193,317,33624,2,0,L|210:208,1,83,8|2,0:2|0:2,0:0:0:0:
300,54,33932,5,0,1:2:0:0:
63,31,34086,1,2,0:2:0:0:
32,56,34164,1,0,0:0:0:0:
17,96,34240,1,8,0:2:0:0:
106,107,34394,1,2,0:2:0:0:
43,332,34547,5,0,1:2:0:0:
86,261,34701,1,2,0:2:0:0:
55,185,34855,1,8,0:2:0:0:
2,249,35009,1,2,0:2:0:0:
138,195,35163,1,0,1:2:0:0:
141,183,35471,6,0,L|198:183,1,41.5,8|8,0:2|0:2,0:0:0:0:
274,216,35624,1,0,1:2:0:0:
274,216,35701,1,0,1:2:0:0:
274,216,35778,6,0,P|297:222|324:238,1,41.5,12|0,1:2|0:2,0:0:0:0:
157,279,35932,2,0,P|177:274|196:265,1,41.5,8|0,0:2|0:2,0:0:0:0:
251,121,36086,2,0,P|245:100|236:82,1,41.5,0|0,1:2|0:2,0:0:0:0:
136,173,36240,2,0,P|157:172|178:171,1,41.5,8|0,0:2|0:2,0:0:0:0:
327,143,36394,5,8,0:2:0:0:
332,134,36701,6,0,L|273:143,1,41.5,8|0,0:2|0:2,0:0:0:0:
133,166,36855,2,0,L|198:157,1,41.5,0|0,1:2|0:2,0:0:0:0:
332,221,37009,5,8,0:2:0:0:
75,55,37163,1,2,1:2:0:0:
340,228,37471,5,2,1:2:0:0:
66,49,37778,5,2,1:2:0:0:
41,283,37932,1,8,0:2:0:0:
58,319,38008,1,8,0:2:0:0:
93,340,38085,1,8,0:2:0:0:
134,344,38162,1,8,0:2:0:0:
172,327,38240,6,0,B|200:293|200:293|188:200,1,124.5,4|0,1:2|0:2,0:0:0:0:
233,143,38547,2,0,P|204:179|200:216,1,83,8|2,0:2|0:2,0:0:0:0:
359,348,38855,5,0,1:2:0:0:
386,111,39009,1,2,0:2:0:0:
361,80,39087,1,0,0:0:0:0:
321,64,39163,1,8,0:2:0:0:
312,148,39317,1,2,0:2:0:0:
359,348,39470,5,0,1:2:0:0:
402,277,39624,1,2,0:2:0:0:
371,201,39778,1,8,0:2:0:0:
318,265,39932,1,2,0:2:0:0:
454,211,40086,1,0,1:2:0:0:
454,211,40394,5,8,0:2:0:0:
318,265,40547,1,2,0:2:0:0:
264,132,40701,5,0,1:2:0:0:
400,78,40854,1,2,0:2:0:0:
349,166,41009,5,8,0:2:0:0:
181,100,41163,1,2,0:2:0:0:
3,39,41317,1,0,1:2:0:0:
237,25,41624,5,8,0:2:0:0:
130,187,41777,1,2,0:2:0:0:
0,50,41932,5,0,1:2:0:0:
178,111,42086,1,2,0:2:0:0:
346,177,42240,1,8,0:2:0:0:
62,137,42547,5,0,1:2:0:0:
299,81,42701,1,2,0:2:0:0:
362,348,42855,6,0,L|402:337,1,41.5,8|8,0:2|0:2,0:0:0:0:
307,280,43009,2,0,L|236:271,1,41.5,8|8,0:2|0:2,0:0:0:0:
180,296,43163,6,0,B|188:247|188:247|204:225|204:225|218:153,1,124.5,4|0,1:2|0:2,0:0:0:0:
147,113,43470,2,0,L|126:205,1,83,8|2,0:2|0:2,0:0:0:0:
238,65,43778,1,0,1:2:0:0:
48,181,43932,1,2,0:2:0:0:
48,181,44008,1,0,0:2:0:0:
48,181,44086,1,8,0:2:0:0:
92,22,44240,1,2,0:2:0:0:
259,161,44393,5,0,1:2:0:0:
132,136,44547,1,2,0:2:0:0:
353,82,44701,1,8,0:2:0:0:
278,252,44855,1,2,0:2:0:0:
268,54,45009,5,0,1:2:0:0:
429,156,45163,1,2,0:2:0:0:
206,131,45317,1,8,0:2:0:0:
189,130,45393,1,8,0:2:0:0:
172,130,45470,1,8,0:2:0:0:
156,130,45547,1,8,0:2:0:0:
138,128,45624,6,0,L|130:228,1,99.5999969604493,0|8,1:2|0:2,0:0:0:0:
291,80,45932,2,0,L|297:182,1,99.5999969604493,0|10,1:2|0:2,0:0:0:0:
132,31,46240,1,4,1:2:0:0:
123,128,46548,6,0,L|115:228,1,99.5999969604493,0|8,1:2|0:2,0:0:0:0:
276,80,46856,2,0,L|282:182,1,99.5999969604493,0|10,1:2|0:2,0:0:0:0:
117,31,47164,1,4,1:2:0:0:
117,31,47471,6,8,P|191:20|216:49,1,107.89999506073,0|8,1:2|0:2,0:0:0:0:
371,73,47778,2,8,P|325:97|276:80,1,107.89999506073,0|8,1:2|0:2,0:0:0:0:
431,24,48086,5,4,1:2:0:0:
431,24,48394,1,0,1:2:0:0:
431,24,48701,1,0,1:2:0:0:
431,24,49009,1,0,1:2:0:0:
323,253,49317,5,0,1:2:0:0:
113,337,49624,1,0,1:2:0:0:
411,324,49932,1,0,1:2:0:0:
207,261,50240,1,0,1:2:0:0:
153,33,50548,5,0,1:2:0:0:
153,33,50855,1,0,1:2:0:0:
153,33,51163,1,0,1:2:0:0:
153,33,51471,1,0,1:2:0:0:
292,196,51778,5,0,1:2:0:0:
306,43,52086,1,0,1:2:0:0:
436,303,52394,1,0,1:2:0:0:
450,150,52702,1,0,1:2:0:0:
193,254,53009,6,0,L|175:355,1,99.5999969604493,0|0,1:2|0:0,0:0:0:0:
267,209,53317,5,0,1:2:0:0:
267,209,53471,1,0,0:0:0:0:
85,242,53624,5,0,1:2:0:0:
267,98,53932,1,0,1:2:0:0:
50,82,54240,5,0,1:2:0:0:
349,205,54548,1,0,1:2:0:0:
163,205,54855,1,0,1:2:0:0:
333,53,55163,1,0,1:2:0:0:
333,53,55471,6,0,P|376:54|429:57,1,83,0|0,1:2|1:2,0:0:0:0:
469,260,56086,2,0,P|426:261|373:264,1,83,0|0,1:2|1:2,0:0:0:0:
289,311,56701,5,0,1:2:0:0:
290,208,56855,1,0,0:2:0:0:
190,307,57009,5,0,1:2:0:0:
278,182,57163,1,2,0:2:0:0:
113,231,57317,5,0,1:2:0:0:
267,157,57471,1,10,0:2:0:0:
267,157,57548,1,8,0:2:0:0:
267,157,57624,2,0,L|326:148,1,49.7999984802247,10|0,0:2|0:2,0:0:0:0:
390,138,57778,2,0,L|449:129,1,49.7999984802247,10|0,0:2|0:2,0:0:0:0:
510,88,57932,6,0,P|517:128|510:169,1,83,6|0,1:2|1:2,0:0:0:0:
343,293,58240,1,10,0:2:0:0:
265,344,58394,2,0,P|258:305|259:261,1,83,0|2,1:2|0:2,0:0:0:0:
300,118,58701,1,0,1:2:0:0:
152,160,58855,1,10,0:2:0:0:
152,160,59009,1,0,0:2:0:0:
220,46,59163,6,0,L|217:87,1,41.5,2|0,0:2|0:2,0:0:0:0:
240,181,59317,1,0,1:2:0:0:
352,109,59471,1,10,0:2:0:0:
352,109,59624,1,0,1:2:0:0:
228,19,59778,1,2,0:2:0:0:
224,218,59932,1,0,1:2:0:0:
224,218,60009,1,0,1:2:0:0:
224,218,60086,1,10,0:2:0:0:
121,73,60240,1,0,0:2:0:0:
23,220,60394,6,0,P|64:217|103:203,1,83,2|0,1:2|1:2,0:0:0:0:
226,119,60701,1,10,0:2:0:0:
226,119,60855,2,0,L|217:211,1,83,0|2,1:2|0:2,0:0:0:0:
243,360,61163,1,0,1:2:0:0:
364,294,61317,1,10,0:2:0:0:
225,223,61471,1,0,0:2:0:0:
453,282,61624,6,0,P|395:217|315:219,1,166,2|10,0:2|0:2,0:0:0:0:
146,267,62086,1,0,1:2:0:0:
189,48,62240,1,2,0:2:0:0:
283,128,62394,1,0,1:2:0:0:
283,128,62471,1,0,1:2:0:0:
283,128,62548,6,0,L|344:122,1,41.5,8|8,0:2|0:2,0:0:0:0:
417,44,62701,2,0,L|386:89,1,41.5,8|8,0:2|0:2,0:0:0:0:
402,165,62855,6,0,L|400:266,1,83,2|0,1:2|1:2,0:0:0:0:
193,209,63163,1,10,0:2:0:0:
193,209,63317,2,0,P|165:178|154:138,1,83,0|2,1:2|0:2,0:0:0:0:
325,218,63624,1,0,1:2:0:0:
256,102,63778,1,10,0:2:0:0:
236,294,63932,6,0,L|253:127,1,166,0|0,0:2|1:2,0:0:0:0:
185,28,64394,5,10,0:2:0:0:
128,131,64547,1,0,1:2:0:0:
315,25,64701,1,2,0:2:0:0:
389,139,64855,1,0,1:2:0:0:
389,139,64932,1,0,1:2:0:0:
389,139,65009,1,10,0:2:0:0:
150,21,65163,1,0,0:2:0:0:
259,293,65317,5,2,1:2:0:0:
226,106,65471,1,8,0:2:0:0:
266,315,65624,5,2,1:2:0:0:
364,218,65778,1,0,1:2:0:0:
273,335,65932,5,10,0:2:0:0:
175,301,66086,1,0,1:2:0:0:
451,324,66240,5,8,1:2:0:0:
425,319,66316,1,8,1:2:0:0:
401,313,66393,1,8,1:2:0:0:
376,308,66470,1,8,1:2:0:0:
351,302,66548,5,10,0:2:0:0:
109,361,66701,1,0,1:2:0:0:
225,83,66855,5,10,0:2:0:0:
269,308,67008,1,0,1:2:0:0:
33,130,67163,6,0,B|144:103,1,83,10|0,0:2|1:2,0:0:0:0:
336,85,67471,1,10,0:2:0:0:
193,239,67624,1,0,1:2:0:0:
143,23,67778,5,4,1:2:0:0:
143,23,68086,1,0,1:2:0:0:
143,23,68394,1,0,1:2:0:0:
143,23,68701,1,0,1:2:0:0:
383,321,69009,5,0,1:2:0:0:
448,233,69317,1,0,1:2:0:0:
264,183,69624,1,0,1:2:0:0:
450,35,69932,1,0,1:2:0:0:
123,112,70240,6,0,L|125:123,1,6.22499981002808,2|0,1:2|0:0,0:0:0:0:
294,91,70548,1,0,1:2:0:0:
52,265,70855,1,0,1:2:0:0:
258,278,71163,1,0,1:2:0:0:
261,45,71471,6,0,L|260:35,1,6.22499981002808,2|0,1:2|0:0,0:0:0:0:
126,180,71778,1,0,1:2:0:0:
174,56,72086,5,8,0:2:0:0:
187,83,72162,1,8,0:2:0:0:
209,105,72239,1,8,0:2:0:0:
236,118,72316,1,8,0:2:0:0:
266,123,72394,6,0,L|273:178,1,41.5,0|0,1:2|1:2,0:0:0:0:
336,87,72548,2,0,L|343:142,1,41.5,0|0,1:2|1:2,0:0:0:0:
360,206,72701,5,8,0:2:0:0:
150,173,72855,1,0,1:2:0:0:
338,67,73009,1,8,0:2:0:0:
234,335,73163,1,0,1:2:0:0:
233,319,73624,5,8,0:2:0:0:
423,211,73778,1,0,1:2:0:0:
185,139,73932,1,8,0:2:0:0:
432,30,74086,1,0,1:2:0:0:
441,43,74548,5,8,1:2:0:0:
346,250,74701,1,8,1:2:0:0:
231,35,74855,1,0,1:2:0:0:
143,261,75008,1,8,0:2:0:0:
31,33,75163,5,12,0:2:0:0:
261,187,75317,5,0,1:2:0:0:
308,119,75471,1,0,1:2:0:0:
28,262,75624,5,12,0:2:0:0:
302,105,75778,5,0,1:2:0:0:
261,200,75932,1,0,1:2:0:0:
15,24,76086,5,12,0:2:0:0:
261,24,76240,6,0,B|218:59|229:120|229:120|195:68|133:81,1,211.650004036903,0|0,1:2|0:0,0:0:0:0:
171,164,76548,6,0,B|214:127|203:64|203:64|238:118|302:104,1,224.099993161011,0|0,1:2|0:0,0:0:0:0:
301,104,76855,6,0,P|300:65|308:28,1,66.4,0|0,1:2|0:0,0:0:0:0:
67,43,77009,6,0,P|132:99|179:194,1,161.849992591095,8|0,0:2|0:0,0:0:0:0:
284,227,77317,6,0,P|269:206|257:175,1,49.8,8|0,0:2|0:2,0:0:0:0:
197,282,77624,6,0,P|248:279|295:257,1,91.300002786255,4|0,1:2|0:2,0:0:0:0:
488,188,77932,2,0,P|460:144|417:114,1,91.300002786255,8|0,0:2|0:2,0:0:0:0:
337,328,78240,6,0,P|360:281|365:230,1,91.300002786255,0|0,1:2|1:2,0:0:0:0:
461,43,78548,2,0,P|409:45|362:67,1,91.300002786255,8|0,0:2|0:2,0:0:0:0:
195,205,78855,5,0,1:2:0:0:
195,205,79009,1,0,0:2:0:0:
440,145,79163,1,8,0:2:0:0:
440,145,79317,1,0,0:2:0:0:
362,258,79471,6,0,L|357:349,1,91.300002786255,0|0,1:2|1:2,0:0:0:0:
161,108,79778,2,0,L|165:199,1,91.300002786255,8|0,0:2|0:2,0:0:0:0:
263,154,80086,5,0,1:2:0:0:
254,244,80240,1,0,0:2:0:0:
30,26,80394,5,8,0:2:0:0:
47,178,80548,1,0,0:2:0:0:
288,285,80701,5,0,1:2:0:0:
306,124,80855,1,0,1:2:0:0:
0,105,81009,5,8,0:2:0:0:
23,331,81163,1,0,0:2:0:0:
341,202,81317,6,0,P|294:205|234:217,1,91.300002786255,0|0,1:2|0:2,0:0:0:0:
24,198,81624,1,8,0:2:0:0:
191,280,81778,1,0,0:2:0:0:
98,126,81932,6,0,B|117:177|117:177|107:217,1,91.300002786255,0|0,1:2|1:2,0:0:0:0:
189,369,82240,1,8,1:2:0:0:
144,362,82316,1,8,1:2:0:0:
109,335,82393,1,8,1:2:0:0:
93,293,82470,1,8,1:2:0:0:
101,248,82547,5,12,0:2:0:0:
421,102,82701,1,0,1:2:0:0:
255,53,82855,5,10,0:2:0:0:
456,189,83009,1,0,1:2:0:0:
153,160,83163,5,10,0:2:0:0:
501,120,83317,1,0,1:2:0:0:
250,220,83471,6,0,L|254:276,1,45.6500013931275,10|0,0:2|0:2,0:0:0:0:
340,59,83624,2,0,L|337:105,1,45.6500013931275,0|0,1:2|0:2,0:0:0:0:
240,195,83778,6,0,L|239:318,1,91.300002786255,0|0,1:2|1:2,0:0:0:0:
369,198,84086,1,10,0:2:0:0:
142,134,84240,1,0,1:2:0:0:
239,286,84394,5,10,0:2:0:0:
314,82,84548,1,0,1:2:0:0:
297,343,84701,2,0,P|257:364|212:364,1,91.300002786255,0|0,0:2|1:2,0:0:0:0:
57,258,85009,5,8,0:2:0:0:
54,208,85085,1,8,0:2:0:0:
79,170,85162,1,8,0:2:0:0:
118,157,85239,1,8,0:2:0:0:
148,171,85317,5,0,1:2:0:0:
165,168,85393,1,0,1:2:0:0:
169,154,85471,1,0,1:2:0:0:
160,151,85548,1,0,1:2:0:0:
155,152,85624,5,8,0:2:0:0:
364,47,85778,1,0,1:2:0:0:
364,47,86086,6,0,B|299:35|299:35|342:171,1,199.199993920899,4|0,1:2|1:2,0:0:0:0:
448,264,86548,5,10,0:2:0:0:
282,324,86701,1,0,0:2:0:0:
143,187,86855,5,2,1:2:0:0:
146,190,86932,1,0,1:2:0:0:
144,194,87009,1,0,1:2:0:0:
140,195,87086,1,0,1:2:0:0:
158,174,87163,5,8,0:2:0:0:
191,203,87239,1,8,0:2:0:0:
192,248,87316,1,8,0:2:0:0:
160,279,87393,1,8,0:2:0:0:
116,298,87471,6,0,P|82:308|10:302,1,91.300002786255,4|0,1:2|0:2,0:0:0:0:
142,83,87778,2,0,P|101:113|44:128,1,91.300002786255,10|0,0:2|0:2,0:0:0:0:
333,315,88086,6,0,P|308:340|243:371,1,91.300002786255,0|0,1:2|1:2,0:0:0:0:
295,37,88394,2,0,P|283:86|249:134,1,91.300002786255,10|0,0:2|0:2,0:0:0:0:
428,279,88702,5,0,1:2:0:0:
428,279,88856,1,0,0:2:0:0:
463,53,89010,1,10,0:2:0:0:
463,53,89164,1,0,0:2:0:0:
258,284,89318,6,0,B|243:242|243:242|255:198,1,91.300002786255,0|0,1:2|1:2,0:0:0:0:
462,139,89624,2,0,P|422:156|367:159,1,91.300002786255,10|0,0:2|0:2,0:0:0:0:
152,305,89933,5,0,1:2:0:0:
376,254,90087,1,0,0:2:0:0:
141,312,90241,1,10,0:2:0:0:
429,318,90395,1,0,0:2:0:0:
96,240,90548,6,0,P|126:230|146:231,1,45.6500013931275,0|0,1:2|0:0,0:0:0:0:
277,272,90702,1,0,1:2:0:0:
365,140,90855,6,0,P|335:151|320:165,1,45.6500013931275,10|0,0:2|0:0,0:0:0:0:
279,283,91009,1,0,0:2:0:0:
181,78,91164,6,0,P|214:120|222:188,1,91.300002786255,0|0,1:2|0:2,0:0:0:0:
334,352,91471,1,10,0:2:0:0:
200,254,91625,1,0,0:2:0:0:
449,244,91779,6,0,B|393:226|393:226|353:234,1,91.300002786255,0|0,1:2|1:2,0:0:0:0:
124,332,92087,1,10,1:2:0:0:
96,296,92163,1,8,1:2:0:0:
90,251,92240,1,8,1:2:0:0:
107,210,92317,1,8,1:2:0:0:
144,184,92394,5,4,1:2:0:0:
176,264,92548,1,0,1:2:0:0:
241,144,92702,5,10,0:2:0:0:
258,4,92856,1,0,0:2:0:0:
350,189,93010,5,0,1:2:0:0:
326,363,93164,1,0,1:2:0:0:
487,249,93317,5,10,0:2:0:0:
430,8,93471,1,0,0:2:0:0:
271,11,93625,6,0,B|258:27|258:27|260:104,1,91.300002786255,0|8,1:2|0:2,0:0:0:0:
112,199,93932,2,0,P|155:211|193:236,1,91.300002786255,0|8,1:2|0:2,0:0:0:0:
215,258,94163,1,8,0:2:0:0:
215,258,94240,1,0,1:2:0:0:
276,342,94394,6,0,L|277:324,1,16.6,8|0,0:3|0:0,0:0:0:0:
426,267,94548,2,0,L|410:257,1,16.6,8|0,0:3|0:0,0:0:0:0:
363,333,94701,2,0,L|356:319,1,16.6,8|0,0:3|0:0,0:0:0:0:
454,188,94855,6,0,P|397:157|332:157,1,124.500004749298,4|0,1:2|0:2,0:0:0:0:
106,180,95317,1,0,0:2:0:0:
106,180,95471,2,0,B|89:134|89:134|106:43,1,124.500004749298,2|0,0:2|0:2,0:0:0:0:
239,106,95932,1,0,0:2:0:0:
358,77,96086,6,0,B|312:81|312:81|282:100|282:100|218:109,1,124.500004749298,4|0,1:2|0:2,0:0:0:0:
248,23,96548,1,0,1:2:0:0:
248,23,96624,1,0,1:2:0:0:
248,23,96701,1,8,0:2:0:0:
340,154,96855,1,8,0:3:0:0:
169,188,97009,5,8,0:3:0:0:
239,106,97163,1,8,0:3:0:0:
240,251,97317,6,0,P|255:192|256:167,1,62.2500023746491,4|0,1:2|0:2,0:0:0:0:
141,99,97624,1,2,0:2:0:0:
141,99,97778,1,0,0:2:0:0:
265,25,97932,5,8,0:2:0:0:
50,84,98086,2,0,P|55:114|65:144,1,62.2500023746491,2|0,1:2|0:2,0:0:0:0:
265,25,98394,2,0,P|230:26|198:36,1,62.2500023746491,2|0,1:2|0:2,0:0:0:0:
166,202,98701,5,2,0:2:0:0:
166,202,98855,1,0,0:2:0:0:
166,202,99009,1,0,0:2:0:0:
166,202,99163,2,0,B|165:233|165:233|162:242|162:242|163:275,2,62.2500023746491,10|0|2,0:2|1:2|0:2,0:0:0:0:
409,75,99778,6,0,P|436:93|444:186,1,124.5,12|0,1:2|0:2,0:0:0:0:
449,179,100086,6,0,P|412:182|387:191,1,62.2500023746491,0|0,0:2|0:2,0:0:0:0:
294,169,100394,6,0,P|256:216|251:278,1,124.5,12|0,1:2|0:2,0:0:0:0:
167,353,100701,6,0,B|137:354|137:354|142:321,2,55.3333333333333,0|0|0,0:2|0:0|0:0,0:0:0:0:
105,224,101009,6,0,B|120:249|120:249|88:261,2,60.86666852417,8|0|0,0:2|1:2|1:2,0:0:0:0:
23,353,101317,6,0,B|38:321|38:321|64:346,2,66.3999979736329,8|0|0,0:2|1:2|1:2,0:0:0:0:
47,163,101624,5,8,0:2:0:0:
58,151,101700,1,8,0:2:0:0:
76,142,101777,1,8,0:2:0:0:
100,140,101854,1,8,0:2:0:0:
136,150,101932,5,0,1:2:0:0:
174,173,102008,1,0,1:2:0:0:
225,188,102085,1,0,1:2:0:0:
284,169,102162,1,0,1:2:0:0:
303,101,102239,5,4,1:2:0:0:
225,24,102394,1,8,0:2:0:0:
225,24,102471,1,8,0:2:0:0:
225,24,102548,2,0,B|212:75|212:75|223:124,1,83,0|0,1:2|0:2,0:0:0:0:
106,238,102855,5,8,0:2:0:0:
57,74,103009,1,8,0:2:0:0:
57,74,103086,1,8,0:2:0:0:
57,74,103163,1,0,1:2:0:0:
394,213,103317,1,8,0:2:0:0:
403,172,103393,1,8,0:2:0:0:
397,132,103471,5,0,1:2:0:0:
248,140,103624,2,0,L|250:193,1,41.5,8|0,0:2|0:2,0:0:0:0:
261,271,103778,5,0,1:2:0:0:
264,272,103855,1,0,1:2:0:0:
267,273,103932,2,0,P|272:297|296:321,1,41.5,8|0,0:2|0:2,0:0:0:0:
137,344,104086,5,0,1:2:0:0:
135,341,104163,1,0,1:2:0:0:
133,338,104240,2,0,P|144:315|141:282,1,41.5,8|0,0:2|0:2,0:0:0:0:
45,241,104394,5,0,1:2:0:0:
44,237,104471,1,0,1:2:0:0:
43,232,104548,2,0,P|33:250|18:263,1,41.5,8|0,0:2|0:2,0:0:0:0:
126,195,104701,6,0,P|100:162|52:144,1,83,4|0,1:2|0:2,0:0:0:0:
48,143,104932,1,8,0:2:0:0:
48,143,105009,1,2,1:2:0:0:
76,313,105163,1,8,0:2:0:0:
130,77,105317,5,2,1:2:0:0:
245,240,105471,1,0,0:2:0:0:
245,240,105548,1,8,0:2:0:0:
245,240,105624,1,2,1:2:0:0:
324,58,105778,1,8,0:2:0:0:
135,173,105932,5,2,1:2:0:0:
234,97,106086,2,0,P|230:124|233:161,1,41.5,0|8,0:2|0:2,0:0:0:0:
232,216,106240,1,2,1:2:0:0:
311,326,106394,1,8,0:2:0:0:
429,172,106548,6,0,P|394:195|354:202,1,83,2|0,1:2|0:2,0:0:0:0:
328,204,106778,1,8,0:2:0:0:
328,204,106855,1,2,1:2:0:0:
360,112,107009,1,8,0:2:0:0:
409,322,107163,5,2,1:2:0:0:
115,264,107317,2,0,P|140:273|177:279,1,41.5,8|0,0:2|0:0,0:0:0:0:
230,292,107471,1,2,1:2:0:0:
39,357,107624,1,8,0:2:0:0:
29,65,107778,5,2,1:2:0:0:
103,295,107932,1,8,0:2:0:0:
27,279,108086,5,2,1:2:0:0:
174,102,108240,1,8,0:2:0:0:
97,121,108394,5,2,1:2:0:0:
256,344,108548,1,8,0:2:0:0:
174,346,108701,5,2,1:2:0:0:
286,216,108855,1,8,0:2:0:0:
85,323,109009,5,2,1:2:0:0:
149,259,109163,2,0,P|159:283|164:317,1,41.5,8|0,0:2|0:0,0:0:0:0:
184,186,109317,5,2,1:2:0:0:
102,189,109471,2,0,P|105:168|113:149,1,41.5,8|0,0:2|0:0,0:0:0:0:
225,62,109624,5,6,1:2:0:0:
299,239,109778,1,0,0:2:0:0:
306,241,109855,1,8,0:2:0:0:
310,233,109932,1,2,1:2:0:0:
426,100,110086,1,8,0:2:0:0:
258,137,110240,5,2,1:2:0:0:
243,331,110394,1,0,0:2:0:0:
236,333,110471,1,8,0:2:0:0:
232,325,110548,1,2,1:2:0:0:
416,229,110702,1,8,0:2:0:0:
188,30,110855,5,2,1:2:0:0:
166,254,111009,1,0,0:2:0:0:
159,267,111086,1,8,0:2:0:0:
173,272,111163,1,2,1:2:0:0:
5,135,111317,1,8,0:2:0:0:
259,133,111471,5,2,1:2:0:0:
247,327,111624,1,0,0:2:0:0:
251,338,111701,1,8,0:2:0:0:
237,343,111778,1,2,1:2:0:0:
70,228,111933,1,8,0:2:0:0:
398,217,112086,5,2,1:2:0:0:
405,211,112163,2,0,L|401:260,1,29.0499991134644,2|0,0:2|0:2,0:0:0:0:
466,124,112317,5,0,0:2:0:0:
459,118,112394,2,0,L|454:166,1,29.0499991134644,2|0,0:2|0:2,0:0:0:0:
361,139,112548,5,0,0:2:0:0:
350,124,112625,2,0,L|396:126,1,29.0499991134644,2|0,0:2|0:2,0:0:0:0:
510,220,112778,2,0,L|481:222,1,29.0499991134644,2|0,0:2|0:2,0:0:0:0:
363,251,112932,5,0,0:2:0:0:
378,267,113009,2,0,L|374:219,1,29.0499991134644,2|0,0:2|0:2,0:0:0:0:
304,189,113163,5,0,0:2:0:0:
304,189,113240,1,2,0:2:0:0:
304,189,113317,2,0,P|275:166|231:172,1,66.4,8|8,0:2|0:2,0:0:0:0:
231,272,113471,2,0,P|205:292|173:294,1,66.4,8|8,0:2|0:2,0:0:0:0:
9,157,113624,6,0,B|-9:152|-23:168|-23:168|-5:178|8:167,1,70.5500013456345,0|0,1:2|0:2,0:0:0:0:
156,187,113778,2,0,B|156:205|176:212|176:212|178:191|161:181,1,70.5500013456345,0|0,0:2|0:2,0:0:0:0:
117,60,113932,2,0,B|126:48|123:27|123:27|106:39|110:62,1,70.5500013456345,0|0,1:2|0:2,0:0:0:0:
22,153,114086,6,0,P|6:191|13:233,1,70.5500013456345,8|0,0:2|0:2,0:0:0:0:
99,293,114240,1,0,1:2:0:0:
99,293,114317,1,0,0:2:0:0:
99,293,114394,1,8,0:2:0:0:
99,293,114471,1,8,0:2:0:0:
99,293,114548,6,0,L|207:284,1,99.5999969604493,4|8,1:2|0:2,0:0:0:0:
222,273,114778,1,0,0:0:0:0:
222,273,114855,1,2,1:2:0:0:
362,21,115009,5,8,0:2:0:0:
362,25,115086,1,0,0:2:0:0:
362,29,115163,5,2,1:2:0:0:
338,33,115239,1,0,0:2:0:0:
314,36,115316,1,0,0:2:0:0:
290,39,115393,1,8,0:2:0:0:
268,41,115471,5,2,1:2:0:0:
315,59,115547,1,0,0:2:0:0:
361,76,115624,1,8,0:2:0:0:
408,94,115701,1,0,0:2:0:0:
455,156,115778,6,0,L|441:109,1,49.7999984802247,2|0,1:2|0:2,0:0:0:0:
255,193,115932,5,0,0:2:0:0:
255,193,116009,1,8,0:2:0:0:
255,193,116086,2,0,L|297:147,1,49.7999984802247,2|0,1:2|0:2,0:0:0:0:
443,269,116240,5,8,0:2:0:0:
443,269,116317,1,0,0:2:0:0:
443,269,116394,2,0,L|382:255,1,49.7999984802247,2|0,1:2|0:2,0:0:0:0:
396,69,116548,5,0,0:2:0:0:
396,69,116625,1,8,0:2:0:0:
396,69,116702,2,0,L|413:127,1,49.7999984802247,2|0,1:2|0:2,0:0:0:0:
304,281,116855,5,8,0:2:0:0:
304,281,116932,1,0,0:2:0:0:
304,281,117009,2,0,L|225:281,1,49.7999984802247,2|0,1:2|0:2,0:0:0:0:
119,204,117163,5,0,0:2:0:0:
115,200,117240,1,8,0:2:0:0:
111,196,117317,2,0,L|190:188,1,49.7999984802247,2|0,1:2|0:2,0:0:0:0:
105,90,117471,5,8,0:2:0:0:
100,98,117548,1,0,0:2:0:0:
94,106,117624,2,0,L|17:111,1,49.7999984802247,2|0,1:2|0:2,0:0:0:0:
3,203,117778,5,0,0:2:0:0:
12,214,117855,1,8,0:2:0:0:
21,225,117932,2,0,L|12:303,1,49.7999984802247,2|0,1:2|0:2,0:0:0:0:
115,337,118086,5,8,0:2:0:0:
129,350,118163,1,0,0:2:0:0:
148,356,118240,2,0,P|138:298|144:235,1,99.5999969604493,2|0,1:2|0:2,0:0:0:0:
135,144,118471,5,8,0:2:0:0:
136,144,118548,2,0,P|115:145|129:161,1,49.7999984802247,2|0,1:2|0:2,0:0:0:0:
227,115,118701,2,0,P|248:114|235:99,1,49.7999984802247,8|0,0:2|0:0,0:0:0:0:
158,66,118855,5,0,1:2:0:0:
416,89,119009,2,0,P|372:59|314:65,1,99.5999969604493,8|0,0:2|1:2,0:0:0:0:
201,199,119317,1,8,0:2:0:0:
346,138,119471,5,6,1:2:0:0:
259,293,119624,2,0,L|253:343,2,49.7999984802247,0|8|2,0:2|0:2|1:2,0:0:0:0:
227,115,119932,1,8,0:2:0:0:
392,257,120086,5,2,1:2:0:0:
421,48,120240,2,0,L|354:69,2,49.7999984802247,0|8|2,0:2|0:2|1:2,0:0:0:0:
287,225,120548,1,8,0:2:0:0:
450,163,120701,5,2,1:2:0:0:
333,340,120854,1,0,0:2:0:0:
333,340,120931,1,8,0:2:0:0:
333,340,121008,1,2,1:2:0:0:
318,148,121162,1,8,0:2:0:0:
497,272,121316,5,2,1:2:0:0:
237,157,121470,1,0,0:2:0:0:
237,157,121547,1,8,0:2:0:0:
237,157,121624,1,2,1:2:0:0:
480,77,121778,1,8,0:2:0:0:
317,271,121932,5,4,1:2:0:0:
361,66,122086,1,8,0:2:0:0:
355,39,122162,1,8,0:2:0:0:
350,12,122239,1,0,1:2:0:0:
200,232,122394,5,8,0:2:0:0:
194,260,122470,1,8,0:2:0:0:
189,287,122547,1,0,1:2:0:0:
107,92,122701,1,8,0:2:0:0:
24,208,122855,6,0,L|29:281,1,49.7999984802247,8|0,1:2|1:2,0:0:0:0:
94,317,123009,5,8,0:2:0:0:
94,317,123086,2,0,L|93:352,1,20.75,0|0,0:2|0:2,0:0:0:0:
208,142,123317,6,0,L|207:93,1,49.7999984802247,2|0,1:2|0:2,0:0:0:0:
297,253,123624,6,0,P|306:232|312:203,1,49.7999984802247,2|0,1:2|0:2,0:0:0:0:
139,252,123778,2,0,P|126:229|124:202,1,49.7999984802247,8|0,1:2|0:2,0:0:0:0:
218,333,123932,6,0,L|217:316,1,16.6,8|0,0:3|0:0,0:0:0:0:
302,201,124086,2,0,L|287:209,1,16.6,8|0,0:3|0:0,0:0:0:0:
134,204,124240,2,0,L|148:211,1,16.6,8|0,0:3|0:0,0:0:0:0:
219,241,124394,5,6,1:2:0:0:
232,140,124701,5,0,0:0:0:0:
332,119,125009,5,0,0:0:0:0:
418,164,125317,5,2,0:0:0:0:
431,267,125624,6,0,B|329:251|329:251|357:272,1,132.8,0|2,0:0|0:0,0:0:0:0:
353,269,126548,5,0,0:0:0:0:
245,142,126855,6,0,P|228:184|238:239,1,83,0|0,0:2|0:2,0:0:0:0:
247,364,127471,2,0,P|226:330|212:316,1,41.5,0|0,0:2|0:0,0:0:0:0:
149,246,127701,5,0,1:2:0:0:
149,246,127778,2,0,P|215:244|225:118,1,186.750007123947,12|0,0:2|0:2,0:0:0:0:
176,100,128086,6,0,L|70:94,1,99.5999969604493,0|8,1:2|0:2,0:0:0:0:
48,81,128317,5,8,0:2:0:0:
93,62,128393,1,8,0:2:0:0:
143,65,128470,1,8,0:2:0:0:
186,88,128548,1,8,0:2:0:0:
231,106,128624,1,8,0:2:0:0:
279,89,128701,6,0,L|303:86,1,16.6,0|0,1:2|0:0,0:0:0:0:
334,176,128855,2,0,L|350:158,1,16.6,8|0,0:2|0:0,0:0:0:0:
218,9,129009,6,0,L|232:28,1,16.6,2|0,1:2|0:0,0:0:0:0:
165,166,129163,2,0,L|188:171,1,16.6,8|0,0:2|0:0,0:0:0:0:
396,28,129317,6,0,B|369:36|347:32|347:32|365:48|373:79,1,99.5999969604493,14|0,0:2|1:2,0:0:0:0:
476,168,129624,1,10,0:2:0:0:
274,258,129778,1,0,1:2:0:0:
402,339,129932,6,0,L|410:221,1,99.5999969604493,10|0,0:2|1:2,0:0:0:0:
279,22,130240,1,10,0:2:0:0:
341,178,130394,1,0,1:2:0:0:
464,85,130548,6,0,B|419:106|419:106|333:94|333:94|281:114,1,186.750007123947,10|0,0:2|0:0,0:0:0:0:
269,122,130855,1,10,0:2:0:0:
407,24,131009,1,0,1:2:0:0:
344,205,131163,5,10,0:2:0:0:
213,60,131317,1,0,1:2:0:0:
125,246,131471,2,0,B|108:201|108:201|121:151,1,99.5999969604493,10|0,0:2|1:2,0:0:0:0:
207,76,131778,6,0,B|215:113|195:109|205:146,1,58.0999982269288,10|0,0:2|0:0,0:0:0:0:
258,280,131932,2,0,B|250:243|270:247|260:210,1,58.0999982269288,0|0,1:2|0:0,0:0:0:0:
396,53,132086,1,14,0:2:0:0:
6,284,132855,6,0,B|56:259|98:290|98:290|128:351|192:338,1,199.199993920899,0|0,1:2|1:2,0:0:0:0:
359,330,133317,5,10,0:2:0:0:
318,154,133471,1,0,1:2:0:0:
172,259,133624,5,10,0:2:0:0:
242,69,133778,1,0,1:2:0:0:
448,307,133932,5,10,1:2:0:0:
446,245,134008,1,8,1:2:0:0:
444,183,134085,1,8,1:2:0:0:
442,121,134162,1,8,1:2:0:0:
441,60,134240,6,0,P|402:62|369:76,1,62.2500023746491,4|8,1:2|0:2,0:0:0:0:
305,17,134548,2,0,P|289:44|282:75,1,62.2500023746491,0|0,1:2|1:2,0:0:0:0:
160,228,134855,6,0,P|115:190|125:116,1,124.500004749298,14|0,0:2|1:2,0:0:0:0:
215,34,135317,1,8,1:2:0:0:
215,34,135394,1,8,1:2:0:0:
215,34,135471,5,8,1:2:0:0:
329,81,135624,1,8,0:2:0:0:
226,152,135778,1,2,1:2:0:0:
201,19,135932,1,0,1:2:0:0:
388,26,136086,6,0,P|377:95|372:164,1,124.500004749298,12|0,0:2|1:2,0:0:0:0:
306,232,136548,1,8,1:2:0:0:
306,232,136624,1,8,1:2:0:0:
306,232,136701,6,0,P|316:259|318:316,2,62.2500023746491,0|8|2,1:2|0:2|1:2,0:0:0:0:
224,79,137163,1,0,1:2:0:0:
153,223,137317,1,12,0:2:0:0:
69,89,137471,1,0,0:2:0:0:
69,89,137548,1,0,0:2:0:0:
69,89,137624,2,0,L|-17:78,1,62.2500023746491,0|8,1:2|0:2,0:0:0:0:
142,47,137932,5,0,1:2:0:0:
275,10,138086,1,0,1:2:0:0:
355,89,138240,5,8,0:2:0:0:
143,69,138394,1,0,1:2:0:0:
104,184,138548,5,8,0:2:0:0:
371,260,138702,1,0,1:2:0:0:
19,366,138855,5,8,1:2:0:0:
89,355,138931,1,8,1:2:0:0:
159,344,139008,1,8,1:2:0:0:
229,335,139085,1,8,1:2:0:0:
305,371,139163,6,0,B|312:318|312:318|281:270,1,99.5999969604493,0|0,1:2|0:2,0:0:0:0:
200,137,139471,5,10,0:2:0:0:
229,335,139624,1,0,0:2:0:0:
179,121,139778,5,2,1:2:0:0:
130,253,139931,1,0,1:2:0:0:
172,98,140086,5,10,0:2:0:0:
77,141,140239,1,0,0:2:0:0:
244,41,140394,5,2,1:2:0:0:
53,137,140547,1,0,0:2:0:0:
260,58,140701,5,10,0:2:0:0:
137,273,140854,1,0,0:2:0:0:
280,62,141009,5,2,1:2:0:0:
235,354,141162,1,0,1:2:0:0:
338,119,141317,5,8,1:2:0:0:
348,118,141393,1,8,1:2:0:0:
359,117,141470,1,8,1:2:0:0:
369,115,141547,1,8,1:2:0:0:
377,115,141624,6,0,B|375:176|441:249|431:328|431:328|379:300|324:305|324:305|353:224|460:190|460:190|473:152|505:135|505:135|505:78|444:50,1,697.199978723145,4|0,1:2|0:0,0:0:0:0:
254,35,142855,6,0,B|270:63|272:94,1,62.2500023746491,12|0,0:2|1:2,0:0:0:0:
83,52,143163,2,0,B|115:51|143:65,1,62.2500023746491,8|0,0:2|1:2,0:0:0:0:
37,199,143471,5,0,1:2:0:0:
31,195,143548,1,0,1:2:0:0:
34,191,143624,1,0,1:2:0:0:
38,189,143701,1,0,1:2:0:0:
44,192,143778,1,0,1:2:0:0:
45,197,143855,1,0,1:2:0:0:
43,204,143932,1,0,1:2:0:0:
36,205,144009,1,0,1:2:0:0:
5,200,144086,6,0,B|21:215|21:215|185:222,1,161.849992591095,4|0,1:2|0:2,0:0:0:0:
180,226,144394,5,8,0:2:0:0:
34,89,144548,1,2,0:2:0:0:
260,183,144701,5,0,1:2:0:0:
187,26,144855,1,2,0:2:0:0:
156,51,144933,1,0,0:2:0:0:
141,91,145009,1,8,0:2:0:0:
230,102,145163,1,2,0:2:0:0:
150,346,145316,5,0,1:2:0:0:
113,195,145470,1,2,0:2:0:0:
164,320,145624,1,8,0:2:0:0:
123,172,145778,1,2,0:2:0:0:
26,357,145932,1,0,1:2:0:0:
26,357,146240,5,8,0:2:0:0:
197,237,146393,1,2,0:2:0:0:
57,259,146548,5,0,1:2:0:0:
253,330,146701,1,2,0:2:0:0:
123,172,146855,5,8,0:2:0:0:
140,328,147009,1,2,0:2:0:0:
278,251,147163,1,0,1:2:0:0:
51,274,147471,5,8,0:2:0:0:
247,345,147624,1,2,0:2:0:0:
288,249,147778,5,0,1:2:0:0:
150,326,147932,1,2,0:2:0:0:
133,170,148086,1,8,0:2:0:0:
133,170,148393,5,0,1:2:0:0:
44,322,148547,1,2,0:2:0:0:
77,102,148701,1,8,1:2:0:0:
110,78,148777,1,8,1:2:0:0:
151,74,148854,1,8,1:2:0:0:
189,90,148931,1,8,1:2:0:0:
215,122,149009,6,0,P|176:104|183:12,1,124.5,4|0,1:2|0:2,0:0:0:0:
259,18,149317,2,0,B|251:36|251:36|251:101,1,83,8|2,0:2|0:2,0:0:0:0:
385,316,149624,5,0,1:2:0:0:
420,169,149778,1,2,0:2:0:0:
390,143,149856,1,0,0:2:0:0:
348,135,149932,1,8,0:2:0:0:
236,193,150086,1,2,0:2:0:0:
311,368,150240,5,0,1:2:0:0:
348,217,150394,1,2,0:2:0:0:
297,342,150548,1,8,0:2:0:0:
338,194,150702,1,2,0:2:0:0:
100,295,150856,1,0,1:2:0:0:
101,281,151163,6,0,P|123:282|156:274,1,41.5,8|8,0:2|0:2,0:0:0:0:
252,218,151317,1,8,0:2:0:0:
252,218,151393,1,8,0:2:0:0:
252,218,151471,6,0,L|201:236,1,41.5,8|0,1:2|0:2,0:0:0:0:
134,319,151624,2,0,L|141:278,1,41.5,8|0,0:2|0:2,0:0:0:0:
112,167,151778,2,0,L|143:193,1,41.5,0|0,1:2|0:2,0:0:0:0:
259,309,151932,2,0,P|237:310|204:302,1,41.5,8|0,0:2|0:2,0:0:0:0:
75,244,152086,5,8,0:2:0:0:
62,241,152394,6,0,L|67:282,1,41.5,8|0,0:2|0:2,0:0:0:0:
219,353,152547,2,0,L|211:312,1,41.5,0|0,1:2|0:2,0:0:0:0:
200,146,152701,5,8,0:2:0:0:
28,370,152855,1,2,1:2:0:0:
207,138,153163,5,2,1:2:0:0:
22,377,153471,5,2,1:2:0:0:
88,71,153624,1,8,1:2:0:0:
52,88,153700,1,8,1:2:0:0:
31,123,153777,1,8,1:2:0:0:
27,164,153854,1,8,1:2:0:0:
44,202,153932,6,0,B|132:189|132:189|171:218,1,124.5,4|0,1:2|0:2,0:0:0:0:
240,239,154240,2,0,L|144:225,1,83,8|2,0:2|0:2,0:0:0:0:
16,288,154547,5,0,1:2:0:0:
323,203,154701,1,2,0:2:0:0:
298,172,154779,1,0,0:2:0:0:
258,156,154855,1,8,0:2:0:0:
240,239,155009,1,2,0:2:0:0:
376,337,155163,5,0,1:2:0:0:
413,186,155317,1,2,0:2:0:0:
362,311,155471,1,8,0:2:0:0:
403,163,155625,1,2,0:2:0:0:
500,348,155779,1,0,1:2:0:0:
500,348,156087,5,8,0:2:0:0:
329,228,156240,1,2,0:2:0:0:
469,250,156395,5,0,1:2:0:0:
273,321,156548,1,2,0:2:0:0:
403,163,156702,5,8,0:2:0:0:
386,319,156856,1,2,0:2:0:0:
248,242,157010,1,0,1:2:0:0:
475,265,157318,5,8,0:2:0:0:
279,336,157471,1,2,0:2:0:0:
238,240,157625,5,0,1:2:0:0:
376,317,157779,1,2,0:2:0:0:
393,161,157933,1,8,0:2:0:0:
393,161,158239,5,0,1:2:0:0:
277,40,158393,1,2,0:2:0:0:
107,129,158548,6,0,P|87:134|68:141,1,41.5,8|8,1:2|1:2,0:0:0:0:
151,54,158702,2,8,P|168:67|190:93,1,41.5,8|8,1:2|1:2,0:0:0:0:
237,146,158855,6,0,P|229:210|239:290,1,124.5,4|0,1:2|0:2,0:0:0:0:
315,312,159163,2,0,P|318:269|306:211,1,83,8|2,0:2|0:2,0:0:0:0:
259,60,159471,1,0,1:2:0:0:
125,201,159624,1,2,0:2:0:0:
129,219,159700,1,0,0:2:0:0:
133,239,159777,1,8,0:2:0:0:
339,114,159933,1,2,0:2:0:0:
225,157,160086,5,0,1:2:0:0:
351,137,160240,1,2,0:2:0:0:
146,97,160394,1,8,0:2:0:0:
217,255,160548,1,2,0:2:0:0:
452,130,160702,1,0,1:2:0:0:
432,125,161009,6,0,P|432:106|434:83,3,41.5,8|8|0|0,0:2|0:2|1:2|1:2,0:0:0:0:
309,198,161317,6,0,P|337:206|360:243,1,49.7999984802247,0|0,1:2|0:0,0:0:0:0:
373,206,161471,2,0,P|380:234|359:272,1,49.7999984802247,8|0,0:2|0:0,0:0:0:0:
456,277,161624,6,0,P|448:305|411:328,1,49.7999984802247,0|0,1:2|0:0,0:0:0:0:
448,341,161778,2,0,P|419:348|381:327,1,49.7999984802247,10|0,0:2|0:0,0:0:0:0:
321,315,161933,5,4,1:2:0:0:
157,357,162240,6,0,P|129:349|106:312,1,49.7999984802247,0|0,1:2|0:0,0:0:0:0:
93,349,162394,2,0,P|86:321|107:283,1,49.7999984802247,8|0,0:2|0:0,0:0:0:0:
10,278,162547,6,0,P|17:250|55:227,1,49.7999984802247,0|0,1:2|0:0,0:0:0:0:
18,214,162701,2,0,P|46:207|84:228,1,49.7999984802247,10|0,0:2|0:0,0:0:0:0:
145,240,162856,5,4,1:2:0:0:
389,48,163164,6,0,B|304:38|304:38|337:81,1,107.89999506073,0|8,1:2|0:2,0:0:0:0:
359,131,163471,2,0,B|373:149|373:149|288:139,1,107.89999506073,0|8,1:2|0:2,0:0:0:0:
235,79,163779,5,4,1:3:0:0:
