osu file format v14

[General]
AudioFilename: audio.mp3
AudioLeadIn: 0
PreviewTime: 77624
Countdown: 0
SampleSet: Soft
StackLeniency: 0.3
Mode: 0
LetterboxInBreaks: 0
WidescreenStoryboard: 1

[Editor]
Bookmarks: 28385,38231,74846
DistanceSpacing: 0.3
BeatDivisor: 4
GridSize: 4
TimelineZoom: 3.299999

[Metadata]
Title:Soushi Sou Ai
TitleUnicode:相思創愛
Artist:Ito Kashitaro x Lon
ArtistUnicode:伊東歌詞太郎×ろん
Creator:Anishina Kodoku
Version:Kalindraz's Insane
Source:言ノ葉Project
Tags:第4弾 プロジェクト vocaloid utaite cover kalindraz loreley djulus kanor Lobelia [ Abhor ] nattu まらしぃ marasy
BeatmapID:1645491
BeatmapSetID:669776

[Difficulty]
HPDrainRate:6
CircleSize:3.8
OverallDifficulty:7
ApproachRate:9
SliderMultiplier:1.56
SliderTickRate:1

[Events]
//Background and Video events
Video,-27,"os.flv"
0,0,"okay im gay.jpg",0,0
//Break Periods
2,67978,71486
2,95055,99178
2,124594,127178
//Storyboard Layer 0 (Background)
//Storyboard Layer 1 (Fail)
//Storyboard Layer 2 (Pass)
//Storyboard Layer 3 (Foreground)
//Storyboard Sound Samples

[TimingPoints]
17946,307.692307692308,4,2,2,30,1,0
18548,307.692307692308,4,2,2,40,1,0
18548,-100,4,2,2,40,0,0
25932,-100,4,2,2,60,0,0
26855,-100,4,2,2,40,0,0
28624,-100,4,2,2,15,0,0
28701,-100,4,2,2,70,0,0
33548,-100,4,2,2,5,0,0
33624,-100,4,2,2,70,0,0
38471,-100,4,2,2,5,0,0
38548,-100,4,2,2,70,0,0
48086,-133.333333333333,4,2,3,50,0,0
56701,-133.333333333333,4,2,2,50,0,0
57932,-100,4,2,2,70,0,0
67778,-100,4,2,3,50,0,0
72086,-100,4,2,2,50,0,0
72701,-100,4,2,2,60,0,0
76240,-100,4,2,2,70,0,0
77548,-100,4,2,2,20,0,0
77624,-100,4,2,2,80,0,1
94855,-133.333333333333,4,2,2,50,0,0
99778,-133.333333333333,4,2,2,70,0,0
104701,-100,4,2,2,70,0,0
112086,-100,4,2,2,40,0,0
113624,-100,4,2,2,70,0,0
123163,-100,4,2,3,70,0,0
124394,-100,4,2,3,40,0,0
127778,-100,4,2,2,70,0,1
131778,-100,4,2,2,70,0,0
132855,-100,4,2,2,70,0,1
134855,-166.666666666667,4,2,2,70,0,1
135471,-100,4,2,2,70,0,1
136086,-166.666666666667,4,2,2,70,0,1
136701,-100,4,2,2,70,0,1
137317,-166.666666666667,4,2,2,70,0,1
137932,-100,4,2,2,80,0,1
141624,-100,4,2,2,60,0,0
149240,-100,4,2,2,5,0,0
149317,-100,4,2,2,60,0,0
154240,-100,4,2,2,60,0,0
159086,-100,4,2,2,5,0,0
159163,-100,4,2,2,60,0,0
163778,-100,4,2,2,30,0,0

[Colours]
Combo1 : 173,188,187
Combo2 : 202,15,19
Combo3 : 149,38,74

[HitObjects]
255,145,17945,5,4,0:3:0:0:
255,145,18021,1,0,1:2:0:0:
255,145,18098,1,0,1:2:0:0:
319,246,18253,1,8,0:2:0:0:
319,246,18548,6,0,L|231:254,1,78,2|0,1:2|0:2,0:0:0:0:
250,340,18855,2,0,L|338:332,1,78,2|0,0:2|0:2,0:0:0:0:
414,285,19163,1,2,0:2:0:0:
386,182,19317,1,0,0:2:0:0:
386,182,19394,1,0,0:0:0:0:
386,182,19471,1,2,0:2:0:0:
480,116,19624,1,0,0:2:0:0:
480,116,19778,6,0,P|484:68|468:36,1,78,2|0,0:2|0:2,0:0:0:0:
272,64,20086,2,0,P|268:112|284:144,1,78,2|0,0:2|0:2,0:0:0:0:
372,40,20394,1,2,0:2:0:0:
372,40,20701,1,2,0:2:0:0:
272,64,20855,1,0,0:2:0:0:
184,24,21009,6,0,B|144:16|144:16|96:24,1,78,4|0,0:3|0:2,0:0:0:0:
108,192,21317,2,0,B|148:200|148:200|196:192,1,78,2|0,0:2|0:2,0:0:0:0:
64,108,21624,1,2,0:2:0:0:
64,108,21932,1,2,0:2:0:0:
8,192,22086,1,0,0:2:0:0:
64,284,22240,6,0,L|80:376,1,78,2|0,0:2|0:2,0:0:0:0:
156,260,22548,1,2,0:2:0:0:
156,260,22855,1,4,0:3:0:0:
241,287,23009,1,8,0:2:0:0:
328,312,23163,1,4,0:3:0:0:
328,312,23471,6,0,L|312:232,1,78,0|0,1:2|0:2,0:0:0:0:
320,152,23778,2,0,L|400:136,1,78,2|0,1:2|0:2,0:0:0:0:
480,144,24086,2,0,L|496:224,1,78,2|0,1:2|0:2,0:0:0:0:
488,304,24317,1,0,0:2:0:0:
488,304,24394,2,0,L|408:320,1,78,2|0,1:2|0:2,0:0:0:0:
328,312,24701,6,0,L|248:328,1,78,2|0,1:2|0:2,0:0:0:0:
243,167,25009,2,0,L|323:151,1,78,2|0,1:2|0:2,0:0:0:0:
200,248,25317,1,2,1:2:0:0:
200,248,25624,1,2,1:2:0:0:
116,216,25778,1,0,0:2:0:0:
36,176,25932,6,0,L|33:137,3,39,8|0|0|0,1:2|0:0|1:2|1:2,0:0:0:0:
116,116,26240,1,0,1:2:0:0:
116,116,26317,1,0,0:0:0:0:
116,116,26394,2,0,L|113:77,1,39,8|0,1:2|1:2,0:0:0:0:
214,77,26548,6,0,L|211:116,3,39,8|0|0|0,1:2|0:0|1:2|1:2,0:0:0:0:
303,101,26855,1,8,0:2:0:0:
375,167,27009,1,0,0:0:0:0:
375,167,27085,1,0,0:0:0:0:
375,167,27163,5,10,0:2:0:0:
507,99,27317,1,2,1:2:0:0:
439,3,27624,5,2,1:2:0:0:
379,95,27932,5,2,1:2:0:0:
511,163,28086,1,8,0:2:0:0:
511,163,28394,6,0,P|474:188|451:222,1,78,4|0,1:2|0:0,0:0:0:0:
512,384,28701,2,0,P|508:339|490:302,1,78,8|2,0:2|0:2,0:0:0:0:
385,307,29009,2,0,L|301:299,1,78,0|2,1:2|0:2,0:0:0:0:
249,366,29240,1,0,0:2:0:0:
249,366,29317,2,0,L|165:358,1,78,8|2,0:2|0:2,0:0:0:0:
96,288,29624,5,0,1:2:0:0:
0,256,29778,1,2,0:2:0:0:
20,340,29932,1,8,0:2:0:0:
72,204,30086,1,2,0:2:0:0:
12,136,30240,2,0,L|32:40,1,78,0|0,1:2|0:0,0:0:0:0:
100,16,30548,1,8,0:2:0:0:
148,100,30701,1,2,0:2:0:0:
216,32,30855,6,0,P|260:24|300:36,1,78,0|2,1:2|0:2,0:0:0:0:
376,72,31163,2,0,P|404:106|414:146,1,78,8|2,0:2|0:2,0:0:0:0:
367,255,31471,1,0,1:2:0:0:
367,255,31778,2,0,L|283:251,1,78,8|2,0:2|0:2,0:0:0:0:
200,200,32086,5,0,1:2:0:0:
200,328,32240,1,2,0:2:0:0:
124,264,32394,2,0,L|40:260,1,78,8|0,0:2|0:0,0:0:0:0:
0,184,32701,1,0,1:2:0:0:
0,184,32855,1,2,0:2:0:0:
92,168,33009,5,8,0:2:0:0:
91,141,33086,1,8,0:2:0:0:
77,116,33163,1,8,0:2:0:0:
53,100,33240,1,8,0:2:0:0:
25,95,33317,6,0,B|8:59|8:59|12:4,1,78,4|0,1:2|0:0,0:0:0:0:
157,26,33624,2,0,B|172:63|172:63|169:104,1,78,8|2,0:2|0:2,0:0:0:0:
232,180,33932,1,0,1:2:0:0:
340,150,34086,1,2,0:2:0:0:
340,150,34163,1,2,0:2:0:0:
340,150,34240,1,8,0:2:0:0:
268,80,34394,1,2,0:2:0:0:
402,56,34548,6,0,P|437:94|447:128,1,78,0|2,1:2|0:2,0:0:0:0:
414,206,34855,2,0,P|411:252|421:291,1,78,8|2,0:2|0:2,0:0:0:0:
486,356,35163,1,0,1:2:0:0:
470,268,35471,5,8,0:2:0:0:
443,269,35548,1,8,0:2:0:0:
418,283,35625,1,0,1:2:0:0:
402,307,35702,1,0,1:2:0:0:
397,335,35778,5,12,1:2:0:0:
312,344,35932,1,8,0:2:0:0:
227,353,36086,1,0,1:2:0:0:
142,362,36240,1,8,0:2:0:0:
56,372,36394,5,8,0:2:0:0:
56,372,36701,5,8,0:2:0:0:
96,288,36855,1,0,1:2:0:0:
0,296,37009,1,8,0:2:0:0:
40,212,37163,5,2,1:2:0:0:
40,212,37471,1,2,1:2:0:0:
40,212,37778,1,2,1:2:0:0:
72,104,37932,5,8,0:2:0:0:
100,100,38009,1,8,0:2:0:0:
128,96,38086,1,8,0:2:0:0:
156,92,38163,1,8,0:2:0:0:
184,88,38240,6,0,P|232:88|276:120,1,78,4|0,1:2|0:0,0:0:0:0:
240,232,38548,2,0,P|192:232|148:200,1,78,8|2,0:2|0:2,0:0:0:0:
312,172,38855,1,0,1:2:0:0:
408,124,39009,1,2,0:2:0:0:
408,124,39086,1,0,0:2:0:0:
408,124,39163,1,8,0:2:0:0:
408,228,39317,1,2,0:2:0:0:
378,323,39471,6,0,L|456:312,1,78,0|2,1:2|0:2,0:0:0:0:
485,216,39778,2,0,L|407:227,1,78,8|2,0:2|0:2,0:0:0:0:
292,312,40086,1,0,1:2:0:0:
292,312,40394,1,8,0:2:0:0:
200,360,40548,1,2,0:2:0:0:
200,360,40624,1,0,0:0:0:0:
200,360,40701,6,0,P|188:320|192:272,1,78,0|2,1:2|0:2,0:0:0:0:
52,284,41009,2,0,P|52:322|41:359,1,78,8|2,0:2|0:2,0:0:0:0:
120,216,41317,1,0,1:2:0:0:
120,216,41624,1,8,0:2:0:0:
120,128,41778,1,2,0:2:0:0:
120,128,41855,1,0,0:0:0:0:
120,128,41932,6,0,L|120:40,1,78,0|2,1:2|0:2,0:0:0:0:
24,84,42240,1,8,0:2:0:0:
24,84,42548,1,0,1:2:0:0:
120,50,42701,1,2,0:2:0:0:
216,88,42855,5,8,0:2:0:0:
244,92,42932,1,8,0:2:0:0:
272,96,43009,1,8,0:2:0:0:
300,100,43086,1,8,0:2:0:0:
328,104,43163,6,0,B|372:108|372:108|412:100,1,78,4|0,1:2|0:0,0:0:0:0:
412,0,43471,2,0,B|368:-4|368:-4|328:4,1,78,8|2,0:2|0:2,0:0:0:0:
488,52,43778,1,0,1:2:0:0:
496,148,43932,1,2,0:2:0:0:
496,148,44009,1,0,0:2:0:0:
496,148,44086,1,8,0:2:0:0:
405,101,44240,1,2,0:2:0:0:
408,200,44394,6,0,L|416:280,1,78,0|2,1:2|0:2,0:0:0:0:
272,280,44701,2,0,L|279:202,1,78,8|2,0:2|0:2,0:0:0:0:
348,352,45009,1,0,1:2:0:0:
348,352,45163,1,2,0:2:0:0:
272,280,45317,5,8,0:2:0:0:
276,292,45394,1,8,0:2:0:0:
280,304,45471,1,8,0:2:0:0:
192,352,45624,5,0,1:2:0:0:
192,352,45778,1,8,0:2:0:0:
192,352,45932,1,0,1:2:0:0:
192,352,46086,1,10,0:2:0:0:
196,232,46240,5,4,1:2:0:0:
112,296,46548,5,0,1:2:0:0:
112,296,46701,1,8,0:2:0:0:
112,296,46855,1,0,1:2:0:0:
112,296,47009,1,10,0:2:0:0:
196,232,47163,5,4,1:2:0:0:
92,204,47471,5,0,1:2:0:0:
92,204,47624,1,8,0:2:0:0:
92,204,47778,1,0,1:2:0:0:
92,204,47932,1,8,0:2:0:0:
196,232,48086,6,0,L|260:228,1,58.500002231598,4|0,1:2|0:0,0:0:0:0:
336,216,48394,1,0,1:2:0:0:
336,216,48548,2,0,P|348:168|348:152,1,58.500002231598,0|0,0:0|1:2,0:0:0:0:
352,76,48855,2,0,L|276:68,1,58.500002231598,0|0,0:0|1:2,0:0:0:0:
208,60,49163,1,0,0:0:0:0:
208,60,49317,2,0,P|144:68|96:92,2,117.000004463196,0|0|0,1:2|1:2|1:2,0:0:0:0:
293,69,50086,1,0,0:0:0:0:
293,69,50240,2,0,L|352:76,1,58.500002231598,0|0,1:2|0:0,0:0:0:0:
440,92,50548,6,0,P|448:124|448:152,1,58.500002231598,0|0,1:2|0:0,0:0:0:0:
424,236,50855,1,0,1:2:0:0:
424,236,51009,2,0,P|384:232|356:236,1,58.500002231598,0|0,0:0|1:2,0:0:0:0:
288,288,51317,1,0,0:0:0:0:
380,320,51471,1,0,1:2:0:0:
365,233,51624,1,0,0:0:0:0:
288,288,51778,2,0,B|232:289|232:289|168:312,3,117.000004463196,0|0|0|0,1:2|1:2|1:2|1:2,0:0:0:0:
104,364,53009,5,0,1:2:0:0:
104,364,53163,2,0,P|64:356|48:340,1,58.500002231598,0|0,0:0|1:2,0:0:0:0:
165,254,53471,2,0,P|178:292|172:314,1,58.500002231598,0|0,0:0|1:2,0:0:0:0:
40,256,53778,2,0,P|66:225|88:219,1,58.500002231598,0|0,0:0|1:2,0:0:0:0:
152,172,54086,1,0,0:0:0:0:
152,172,54240,2,0,P|160:120|144:56,2,117.000004463196,0|0|0,1:2|1:2|1:2,0:0:0:0:
68,120,55009,2,0,L|4:120,2,58.500002231598,0|0|0,0:0|1:2|0:0,0:0:0:0:
145,58,55471,6,0,P|217:50|269:66,1,117.000004463196,0|0,1:2|1:2,0:0:0:0:
336,116,55932,1,0,0:0:0:0:
366,30,56086,2,0,P|314:30|258:62,1,117.000004463196,0|0,1:2|1:2,0:0:0:0:
248,144,56548,1,0,0:0:0:0:
336,204,56701,2,0,L|400:208,1,58.500002231598,0|0,1:2|0:2,0:0:0:0:
408,292,57009,2,0,L|472:296,1,58.500002231598,0|2,1:2|0:2,0:0:0:0:
344,364,57317,1,0,1:2:0:0:
256,320,57471,1,10,0:2:0:0:
256,320,57548,1,8,0:2:0:0:
256,320,57624,1,10,0:2:0:0:
256,320,57701,1,0,0:2:0:0:
256,320,57778,1,10,0:2:0:0:
256,320,57855,1,0,0:2:0:0:
256,320,57932,6,0,P|212:304|168:304,1,78,6|0,1:2|1:2,0:0:0:0:
76,320,58240,1,10,0:2:0:0:
172,384,58394,2,0,B|184:304|184:304|164:224,1,156,0|0,1:2|1:2,0:0:0:0:
144,144,58855,1,10,0:2:0:0:
144,144,59009,2,0,P|96:136|60:140,1,78,0|2,0:2|0:2,0:0:0:0:
0,80,59317,5,0,1:2:0:0:
0,80,59471,2,0,L|16:-8,2,78,10|0|2,0:2|1:2|0:2,0:0:0:0:
67,138,59932,1,0,1:2:0:0:
136,64,60086,1,10,0:2:0:0:
236,144,60240,1,0,0:2:0:0:
227,66,60394,6,0,L|239:174,1,78,2|0,1:2|1:2,0:0:0:0:
332,192,60701,1,10,0:2:0:0:
332,192,60855,2,0,L|312:28,1,156,0|0,1:2|1:2,0:0:0:0:
408,28,61317,1,10,0:2:0:0:
488,84,61471,6,0,P|504:36|500:0,1,78,0|2,0:2|0:2,0:0:0:0:
408,136,61778,1,0,0:0:0:0:
500,248,61932,2,0,B|424:224|424:224|364:280,1,156,10|2,0:2|0:2,0:0:0:0:
276,360,62394,1,0,1:2:0:0:
276,360,62471,1,0,1:2:0:0:
276,360,62548,1,8,0:2:0:0:
276,360,62624,1,8,0:2:0:0:
276,360,62701,1,8,0:2:0:0:
276,360,62778,1,8,0:2:0:0:
276,360,62855,6,0,L|260:256,1,78,2|0,1:2|1:2,0:0:0:0:
116,228,63163,1,10,0:2:0:0:
196,368,63317,2,0,L|180:264,1,78,0|2,1:2|0:2,0:0:0:0:
28,232,63624,2,0,L|44:336,1,78,0|10,1:2|0:2,0:0:0:0:
204,180,63932,2,0,P|152:136|60:148,1,156,0|0,0:2|1:2,0:0:0:0:
116,228,64394,5,10,0:2:0:0:
204,180,64548,2,0,P|244:172|284:180,1,78,0|2,1:2|0:2,0:0:0:0:
347,241,64855,2,0,P|386:247|424:240,1,78,0|10,1:2|0:2,0:0:0:0:
488,172,65163,1,0,0:2:0:0:
488,172,65240,1,0,0:0:0:0:
488,172,65317,6,0,L|476:84,2,78,2|8|2,1:2|0:2|1:2,0:0:0:0:
380,160,65778,1,0,1:2:0:0:
380,160,65932,2,0,L|368:76,1,78,10|0,0:2|1:2,0:0:0:0:
292,32,66240,5,8,1:2:0:0:
264,28,66317,1,8,1:2:0:0:
236,24,66394,1,8,1:2:0:0:
208,20,66471,1,8,1:2:0:0:
180,16,66548,6,0,P|144:24|104:56,1,78,10|0,0:2|1:2,0:0:0:0:
64,120,66855,2,0,L|88:284,2,156,10|10|10,0:2|0:2|0:2,0:0:0:0:
160,120,67778,5,4,1:2:0:0:
372,192,72086,5,8,0:2:0:0:
372,192,72163,1,8,0:2:0:0:
372,192,72240,1,8,0:2:0:0:
372,192,72317,1,8,0:2:0:0:
372,192,72394,1,0,1:2:0:0:
372,192,72471,1,0,1:2:0:0:
372,192,72548,1,0,1:2:0:0:
372,192,72624,1,0,1:2:0:0:
372,192,72701,6,0,L|340:112,1,78,8|0,0:2|1:2,0:0:0:0:
288,8,73009,1,8,0:2:0:0:
208,104,73163,5,0,1:2:0:0:
208,104,73624,5,8,0:2:0:0:
124,88,73778,1,0,1:2:0:0:
40,72,73932,1,8,0:2:0:0:
148,4,74086,5,0,1:2:0:0:
148,4,74548,5,8,1:2:0:0:
124,88,74701,1,8,1:2:0:0:
104,168,74855,2,0,L|125:269,1,78,0|8,1:2|0:2,0:0:0:0:
280,274,75163,6,0,P|328:262|352:234,1,78,12|0,0:2|1:2,0:0:0:0:
372,166,75471,1,0,1:2:0:0:
325,32,75624,2,0,P|311:79|323:114,1,78,12|0,0:2|1:2,0:0:0:0:
372,166,75932,1,0,1:2:0:0:
512,193,76086,1,12,0:2:0:0:
512,193,76240,6,0,L|504:96,1,78,0|0,1:2|1:2,0:0:0:0:
406,96,76548,2,0,L|369:169,1,78,0|0,1:2|1:2,0:0:0:0:
280,274,76855,1,0,1:2:0:0:
424,296,77009,1,8,0:2:0:0:
424,296,77317,6,0,L|304:280,1,117,8|0,0:2|0:2,0:0:0:0:
256,272,77624,6,0,L|164:280,1,78,4|0,1:2|0:2,0:0:0:0:
116,152,77932,2,0,L|208:144,1,78,8|0,0:2|0:2,0:0:0:0:
178,278,78240,2,0,L|86:286,1,78,0|0,1:2|1:2,0:0:0:0:
38,158,78548,2,0,L|130:150,1,78,8|0,0:2|0:2,0:0:0:0:
212,132,78855,6,0,B|244:109|244:109|260:31|260:31|238:-5,1,156,0|8,1:2|0:2,0:0:0:0:
164,52,79317,1,0,0:2:0:0:
336,40,79471,2,0,L|320:124,1,78,0|0,1:2|1:2,0:0:0:0:
424,192,79778,2,0,L|409:115,1,78,8|0,0:2|0:2,0:0:0:0:
364,256,80086,6,0,P|440:276|500:232,1,156,0|8,1:2|0:2,0:0:0:0:
424,192,80548,1,0,0:2:0:0:
312,176,80701,2,0,P|284:208|272:248,1,78,0|0,1:2|1:2,0:0:0:0:
320,384,81009,2,0,P|293:355|280:318,1,78,8|0,0:2|0:2,0:0:0:0:
188,284,81317,6,0,L|100:284,1,78,0|0,1:2|0:2,0:0:0:0:
20,292,81624,1,8,0:2:0:0:
96,208,81778,1,0,0:2:0:0:
16,128,81932,2,0,L|104:128,1,78,0|0,1:2|1:2,0:0:0:0:
224,128,82240,5,8,1:2:0:0:
224,128,82317,1,8,1:2:0:0:
224,128,82394,1,8,1:2:0:0:
224,128,82471,1,8,1:2:0:0:
224,128,82548,6,0,P|232:88|216:36,1,78,12|0,0:2|1:2,0:0:0:0:
136,88,82855,1,10,0:2:0:0:
192,212,83009,1,0,1:2:0:0:
308,148,83163,2,0,B|328:84|304:28|304:28|332:52,1,156,10|10,0:2|0:2,0:0:0:0:
400,136,83624,1,0,1:2:0:0:
470,49,83778,6,0,B|496:28|496:28|472:84|492:148,1,156,0|10,1:2|0:2,0:0:0:0:
480,240,84240,1,0,1:2:0:0:
480,332,84394,2,0,P|436:324|404:300,1,78,10|0,0:2|1:2,0:0:0:0:
300,308,84701,2,0,P|267:328|229:334,1,78,0|0,0:2|1:2,0:0:0:0:
96,256,85009,5,8,0:2:0:0:
96,256,85086,1,8,0:2:0:0:
96,256,85163,1,8,0:2:0:0:
96,256,85240,1,8,0:2:0:0:
96,256,85317,1,0,1:2:0:0:
96,256,85394,1,0,1:2:0:0:
96,256,85471,2,0,P|96:304|124:348,1,78,0|8,1:2|0:2,0:0:0:0:
184,248,85778,2,0,P|192:200|188:168,1,78,0|0,1:2|0:0,0:0:0:0:
168,64,86086,6,0,B|232:64|232:64|272:32|328:40,1,156,4|0,1:2|1:2,0:0:0:0:
432,172,86548,2,0,P|422:123|409:94,1,78,10|0,0:2|0:2,0:0:0:0:
328,160,86855,1,2,1:2:0:0:
328,160,86932,1,0,1:2:0:0:
328,160,87009,1,0,1:2:0:0:
328,160,87086,1,0,1:2:0:0:
328,160,87163,1,8,0:2:0:0:
328,160,87240,1,8,0:2:0:0:
328,160,87317,1,8,0:2:0:0:
328,160,87394,1,8,0:2:0:0:
328,160,87471,6,0,L|336:248,1,78,4|0,1:2|0:2,0:0:0:0:
227,301,87778,2,0,L|220:224,1,78,10|0,0:2|0:2,0:0:0:0:
335,237,88086,2,0,L|343:325,1,78,0|0,1:2|1:2,0:0:0:0:
234,378,88394,2,0,L|226:300,1,78,10|0,0:2|0:2,0:0:0:0:
156,228,88701,6,0,B|88:196|88:196|12:228,1,156,0|10,1:2|0:2,0:0:0:0:
84,292,89163,1,0,0:2:0:0:
200,160,89317,2,0,L|128:124,1,78,0|0,1:2|1:2,0:0:0:0:
120,20,89624,2,0,L|192:56,1,78,10|0,0:2|0:2,0:0:0:0:
280,104,89932,6,0,B|312:120|312:120|356:112|356:112|400:120|400:120|436:108,1,156,0|10,1:2|0:2,0:0:0:0:
352,24,90394,1,0,0:2:0:0:
316,200,90548,2,0,B|356:192|356:192|392:200,1,78,0|0,1:2|1:2,0:0:0:0:
468,252,90855,1,10,0:2:0:0:
468,252,91009,1,0,0:2:0:0:
396,316,91163,6,0,B|360:324|360:324|320:316,1,78,0|0,1:2|0:2,0:0:0:0:
232,260,91471,1,10,0:2:0:0:
232,260,91624,1,0,0:2:0:0:
148,316,91778,2,0,L|48:324,1,78,0|0,1:2|1:2,0:0:0:0:
4,236,92086,5,10,1:2:0:0:
4,236,92163,1,8,1:2:0:0:
4,236,92240,1,8,1:2:0:0:
4,236,92317,1,8,1:2:0:0:
4,236,92394,6,0,L|24:80,1,156,4|10,1:2|0:2,0:0:0:0:
104,16,92855,1,0,0:2:0:0:
172,104,93009,2,0,L|152:258,1,156,0|10,1:2|0:2,0:0:0:0:
228,336,93471,1,0,0:2:0:0:
336,272,93624,5,0,1:2:0:0:
336,272,93778,2,0,L|328:184,1,78,8|0,0:2|1:2,0:0:0:0:
336,88,94086,1,8,0:2:0:0:
336,88,94163,1,8,0:2:0:0:
336,88,94240,1,0,1:2:0:0:
428,24,94394,2,0,P|445:61|448:99,2,78,8|8|8,0:3|0:3|0:3,0:0:0:0:
336,88,94855,5,4,1:2:0:0:
256,112,99778,6,0,P|261:86|272:64,5,39.000001487732,12|0|0|0|0|0,1:2|0:0|0:0|0:2|0:0|0:0,0:0:0:0:
184,160,100394,2,0,P|169:138|161:114,5,39.000001487732,12|0|0|0|0|0,1:2|0:0|0:0|0:2|0:0|0:0,0:0:0:0:
192,264,101009,6,0,L|184:320,2,39.000001487732,8|0|0,0:2|1:2|1:2,0:0:0:0:
276,288,101317,2,0,L|268:344,2,39.000001487732,8|0|0,0:2|1:2|1:2,0:0:0:0:
360,312,101624,6,0,L|352:368,3,29.250001115799,8|0|0|0,0:2|0:0|0:0|0:0,0:0:0:0:
444,336,101932,2,0,L|436:392,3,29.250001115799,0|0|0|0,1:2|0:0|0:0|0:0,0:0:0:0:
512,276,102240,5,4,1:2:0:0:
508,260,102394,1,8,0:2:0:0:
504,244,102548,1,0,1:2:0:0:
512,164,102855,5,8,0:2:0:0:
508,148,103009,1,8,0:2:0:0:
504,132,103163,1,0,1:2:0:0:
428,56,103317,1,8,0:2:0:0:
428,56,103394,1,8,0:2:0:0:
428,56,103471,5,0,1:2:0:0:
360,124,103624,2,0,L|284:124,1,58.500002231598,8|0,0:2|1:2,0:0:0:0:
232,52,103932,1,8,0:2:0:0:
176,136,104086,1,0,1:2:0:0:
104,48,104240,2,0,L|116:12,2,29.250001115799,8|0|0,0:2|0:2|1:2,0:0:0:0:
28,144,104548,1,8,0:2:0:0:
28,144,104624,1,0,0:2:0:0:
28,144,104701,6,0,L|36:228,1,78,4|0,1:2|0:2,0:0:0:0:
120,280,105009,1,2,1:2:0:0:
0,312,105163,1,8,0:2:0:0:
88,360,105317,2,0,P|132:364|168:352,1,78,2|0,1:2|0:2,0:0:0:0:
240,300,105624,2,0,P|284:296|320:308,1,78,2|8,1:2|0:2,0:0:0:0:
392,356,105932,5,2,1:2:0:0:
472,296,106086,1,0,0:2:0:0:
472,296,106163,1,8,0:2:0:0:
472,296,106240,2,0,P|472:248|460:204,1,78,2|8,1:2|0:2,0:0:0:0:
416,148,106548,2,0,P|352:116|268:152,1,156,2|2,1:2|1:2,0:0:0:0:
344,212,107009,1,8,0:2:0:0:
416,148,107163,6,0,L|424:56,1,78,2|8,1:2|0:2,0:0:0:0:
283,65,107471,2,0,L|276:142,1,78,2|8,1:2|0:2,0:0:0:0:
212,224,107778,1,2,1:2:0:0:
120,268,107932,1,8,0:2:0:0:
120,268,108009,1,0,0:0:0:0:
120,268,108086,2,0,P|112:224|120:184,1,78,2|8,1:2|0:2,0:0:0:0:
136,104,108394,5,2,1:2:0:0:
60,24,108548,1,8,0:2:0:0:
8,124,108701,2,0,L|96:108,1,78,2|8,1:2|0:2,0:0:0:0:
224,88,109009,2,0,P|288:88|356:152,1,156,2|2,1:2|1:2,0:0:0:0:
364,240,109471,1,8,0:2:0:0:
364,240,109625,5,6,1:2:0:0:
464,320,109778,1,0,0:2:0:0:
464,320,109855,1,8,0:2:0:0:
464,320,109932,2,0,L|452:232,1,78,2|8,1:2|0:2,0:0:0:0:
274,237,110240,1,2,1:2:0:0:
374,317,110393,1,0,0:2:0:0:
374,317,110470,1,8,0:2:0:0:
374,317,110547,2,0,L|362:229,1,78,2|8,1:2|0:2,0:0:0:0:
184,234,110855,5,2,1:2:0:0:
284,314,111008,1,0,0:2:0:0:
284,314,111085,1,8,0:2:0:0:
284,314,111163,2,0,L|272:226,1,78,2|8,1:2|0:2,0:0:0:0:
94,231,111471,1,2,1:2:0:0:
194,311,111624,1,0,0:2:0:0:
194,311,111701,1,8,0:2:0:0:
194,311,111778,2,0,L|182:223,1,78,2|8,1:2|0:2,0:0:0:0:
200,116,112086,6,0,P|216:84|256:64,1,78,2|0,1:2|0:2,0:0:0:0:
288,60,112317,1,0,0:2:0:0:
288,60,112394,2,0,L|368:56,1,78,2|0,0:2|0:2,0:0:0:0:
408,56,112624,5,2,0:2:0:0:
464,144,112778,2,0,P|412:152|376:152,1,78,2|0,0:2|0:2,0:0:0:0:
352,152,113009,6,0,L|368:240,1,78,2|0,0:2|0:2,0:0:0:0:
388,316,113317,1,8,0:2:0:0:
388,316,113471,1,8,0:2:0:0:
296,288,113624,2,0,P|252:296|216:320,1,78,0|0,1:2|0:2,0:0:0:0:
152,376,113932,1,0,1:2:0:0:
152,376,114086,1,8,0:2:0:0:
60,300,114240,5,0,1:2:0:0:
60,300,114317,1,0,0:2:0:0:
60,300,114394,1,8,0:2:0:0:
60,300,114471,1,8,0:2:0:0:
60,300,114548,6,0,P|48:252|56:220,1,78,4|8,1:2|0:2,0:0:0:0:
112,156,114778,1,0,0:0:0:0:
112,156,114855,2,0,L|204:168,1,78,2|8,1:2|0:2,0:0:0:0:
272,168,115086,1,0,0:2:0:0:
272,168,115163,2,0,L|364:156,1,78,2|0,1:2|0:2,0:0:0:0:
432,140,115394,1,8,0:2:0:0:
432,140,115471,2,0,P|440:92|424:56,1,78,2|8,1:2|0:2,0:0:0:0:
332,48,115778,6,0,P|336:20|344:8,3,39,2|0|0|8,1:2|0:2|0:2|0:2,0:0:0:0:
244,72,116086,2,0,P|233:45|234:31,3,39,2|0|8|0,1:2|0:2|0:2|0:2,0:0:0:0:
179,136,116394,2,0,P|156:118|150:105,3,39,2|0|0|8,1:2|0:2|0:2|0:2,0:0:0:0:
154,223,116701,2,0,P|126:218|114:211,3,39,2|0|8|0,1:2|0:2|0:2|0:2,0:0:0:0:
184,308,117009,6,0,L|272:300,1,78,2|0,1:2|0:2,0:0:0:0:
332,176,117240,1,8,0:2:0:0:
332,176,117317,2,0,L|244:184,1,78,2|8,1:2|0:2,0:0:0:0:
261,300,117624,2,0,L|349:292,1,78,2|0,1:2|0:2,0:0:0:0:
409,168,117855,1,8,0:2:0:0:
409,168,117932,2,0,L|321:176,1,78,2|8,1:2|0:2,0:0:0:0:
464,236,118240,6,0,P|492:188|452:88,1,156,2|2,1:2|1:2,0:0:0:0:
388,48,118701,2,0,L|304:60,1,78,8|0,0:2|1:2,0:0:0:0:
124,16,119009,2,0,L|208:4,1,78,8|0,0:2|1:2,0:0:0:0:
224,96,119317,1,8,0:2:0:0:
224,96,119471,5,6,1:2:0:0:
124,16,119624,1,0,0:2:0:0:
124,16,119701,1,8,0:2:0:0:
124,16,119778,2,0,L|136:104,1,78,2|8,1:2|0:2,0:0:0:0:
314,99,120086,1,2,1:2:0:0:
214,19,120239,1,0,0:2:0:0:
214,19,120316,1,8,0:2:0:0:
214,19,120394,2,0,L|226:107,1,78,2|8,1:2|0:2,0:0:0:0:
404,102,120701,5,2,1:2:0:0:
304,22,120854,1,0,0:2:0:0:
304,22,120931,1,8,0:2:0:0:
304,22,121009,2,0,L|316:110,1,78,2|8,1:2|0:2,0:0:0:0:
494,105,121317,1,2,1:2:0:0:
394,25,121470,1,0,0:2:0:0:
394,25,121547,1,8,0:2:0:0:
394,25,121624,2,0,L|406:113,1,78,2|8,1:2|0:2,0:0:0:0:
411,211,121932,5,4,1:2:0:0:
443,300,122086,2,0,P|453:326|463:337,2,39,8|8|0,0:2|0:2|1:2,0:0:0:0:
472,136,122394,2,0,P|490:113|494:99,2,39,8|8|0,0:2|0:2|1:2,0:0:0:0:
316,194,122701,2,0,P|287:189|273:192,2,39,8|0|8,0:2|0:0|1:2,0:0:0:0:
332,288,123009,2,0,L|168:316,2,156,8|2|2,0:2|1:2|1:2,0:0:0:0:
411,211,123778,5,8,1:2:0:0:
411,211,123932,1,8,0:3:0:0:
411,211,124086,1,8,0:3:0:0:
256,192,124394,5,6,1:2:0:0:
8,188,127778,6,0,B|0:96|0:96|20:116,1,117,12|0,0:2|0:2,0:0:0:0:
96,164,128086,1,0,1:2:0:0:
96,164,128163,1,0,0:0:0:0:
96,164,128240,1,8,0:2:0:0:
96,164,128317,1,8,0:2:0:0:
96,164,128394,1,8,0:2:0:0:
96,164,128471,1,8,0:2:0:0:
96,164,128548,1,8,0:2:0:0:
96,164,128624,1,8,0:2:0:0:
96,164,128701,2,0,P|152:171|178:166,1,78,0|8,1:2|0:2,0:0:0:0:
256,136,129009,2,0,P|294:133|332:143,1,78,2|8,1:2|0:2,0:0:0:0:
372,252,129317,6,0,P|333:254|295:244,1,78,14|0,0:2|1:2,0:0:0:0:
256,136,129624,1,10,0:2:0:0:
440,176,129778,1,0,1:2:0:0:
440,176,129932,2,0,B|468:248|468:248|444:328,1,156,10|10,0:2|0:2,0:0:0:0:
372,252,130394,1,0,1:2:0:0:
304,328,130548,6,0,B|276:256|276:256|300:176,1,156,10|10,0:2|0:2,0:0:0:0:
372,252,131009,1,0,1:2:0:0:
232,368,131163,2,0,L|200:288,1,78,10|0,0:2|1:2,0:0:0:0:
80,296,131471,2,0,L|48:376,1,78,10|0,0:2|1:2,0:0:0:0:
24,224,131778,5,10,0:2:0:0:
140,224,131932,1,0,1:2:0:0:
80,136,132086,5,14,0:2:0:0:
80,136,132855,6,0,L|176:128,1,78,0|0,1:2|0:0,0:0:0:0:
252,116,133163,1,0,1:2:0:0:
172,55,133317,2,0,P|156:95|160:139,1,78,10|0,0:2|1:2,0:0:0:0:
216,204,133624,1,10,0:2:0:0:
216,204,133778,1,0,1:2:0:0:
348,160,133932,5,10,1:2:0:0:
348,160,134009,1,8,1:2:0:0:
348,160,134086,1,8,1:2:0:0:
348,160,134163,1,8,1:2:0:0:
348,160,134240,6,0,L|456:164,1,78,4|8,1:2|0:2,0:0:0:0:
492,232,134548,1,0,1:2:0:0:
380,256,134701,1,0,1:2:0:0:
488,336,134855,6,0,L|376:344,1,93.5999971435548,14|0,0:2|1:2,0:0:0:0:
296,352,135317,1,8,1:2:0:0:
296,352,135394,1,8,1:2:0:0:
296,352,135471,6,0,P|272:320|228:288,1,78,8|8,1:2|0:2,0:0:0:0:
160,256,135778,1,2,1:2:0:0:
68,304,135932,1,0,1:2:0:0:
157,348,136086,6,0,P|165:296|157:248,1,93.5999971435548,12|0,0:2|1:2,0:0:0:0:
112,164,136548,1,8,1:2:0:0:
112,164,136624,1,8,1:2:0:0:
112,164,136701,6,0,L|200:152,1,78,0|8,1:2|0:2,0:0:0:0:
228,24,137009,1,2,1:2:0:0:
152,76,137163,1,0,1:2:0:0:
272,192,137317,6,0,P|280:152|268:96,1,93.5999971435548,12|0,0:2|1:2,0:0:0:0:
228,24,137778,1,8,0:2:0:0:
228,24,137855,1,0,0:0:0:0:
228,24,137932,6,0,B|288:24|288:24|328:48|328:48|384:48,1,156,0|8,1:2|0:2,0:0:0:0:
452,76,138394,1,0,1:2:0:0:
504,148,138548,2,0,P|512:192|508:232,1,78,8|0,0:2|1:2,0:0:0:0:
476,304,138855,1,8,1:2:0:0:
384,344,139009,1,8,1:2:0:0:
384,344,139086,1,8,1:2:0:0:
384,344,139163,6,0,L|304:336,1,78,0|0,1:2|0:2,0:0:0:0:
248,216,139471,2,0,L|328:224,1,78,10|0,0:2|0:2,0:0:0:0:
306,336,139778,2,0,L|226:328,1,78,2|0,1:2|1:2,0:0:0:0:
170,208,140086,1,10,0:2:0:0:
170,208,140240,1,0,0:2:0:0:
112,88,140394,6,0,L|192:96,1,78,2|0,1:2|0:2,0:0:0:0:
248,216,140702,2,0,L|168:208,1,78,10|0,0:2|0:0,0:0:0:0:
190,96,141009,2,0,L|270:104,1,78,2|0,1:2|1:2,0:0:0:0:
326,224,141317,1,8,1:2:0:0:
384,128,141471,1,8,1:2:0:0:
384,128,141548,1,8,1:2:0:0:
384,128,141624,5,4,1:2:0:0:
384,128,142855,6,0,L|296:116,1,78,12|0,0:2|1:2,0:0:0:0:
316,16,143163,2,0,L|404:28,1,78,8|0,0:2|1:2,0:0:0:0:
476,76,143471,1,0,1:2:0:0:
472,196,143624,1,0,1:2:0:0:
472,196,143701,1,0,1:2:0:0:
472,196,143778,1,0,1:2:0:0:
472,196,143855,1,0,1:2:0:0:
472,196,143932,1,0,1:2:0:0:
472,196,144009,1,0,1:2:0:0:
472,196,144086,6,0,P|468:244|448:276,1,78,4|0,1:2|0:0,0:0:0:0:
308,232,144394,2,0,P|351:211|389:212,1,78,8|2,0:2|0:2,0:0:0:0:
372,296,144701,2,0,L|348:388,1,78,0|2,1:2|0:2,0:0:0:0:
228,368,144932,1,0,0:2:0:0:
228,368,145009,2,0,L|204:276,1,78,8|2,0:2|0:2,0:0:0:0:
188,212,145317,5,0,1:2:0:0:
100,200,145471,1,2,0:2:0:0:
152,124,145624,1,8,0:2:0:0:
64,112,145778,1,2,0:2:0:0:
124,40,145932,2,0,L|212:32,1,78,0|0,1:2|0:0,0:0:0:0:
280,64,146240,1,8,0:2:0:0:
280,64,146394,1,2,0:2:0:0:
376,24,146548,6,0,P|380:72|368:108,1,78,0|2,1:2|0:2,0:0:0:0:
240,188,146855,2,0,P|279:160|316:152,1,78,8|2,0:2|0:2,0:0:0:0:
396,176,147163,1,0,1:2:0:0:
396,176,147471,1,8,0:2:0:0:
471,260,147624,1,2,0:2:0:0:
376,276,147778,6,0,B|336:272|336:272|288:284,1,78,0|2,1:2|0:2,0:0:0:0:
220,328,148086,2,0,B|180:332|180:332|132:320,1,78,8|0,0:2|0:0,0:0:0:0:
68,272,148394,1,0,1:2:0:0:
68,272,148548,1,2,0:2:0:0:
24,176,148701,5,8,1:2:0:0:
24,176,148778,1,8,1:2:0:0:
24,176,148855,1,8,1:2:0:0:
24,176,148932,1,8,1:2:0:0:
24,176,149009,6,0,P|72:168|116:180,1,78,4|0,1:2|0:0,0:0:0:0:
184,196,149317,2,0,P|232:204|276:192,1,78,8|2,0:2|0:2,0:0:0:0:
348,176,149624,1,0,1:2:0:0:
400,91,149778,1,2,0:2:0:0:
400,91,149855,1,0,0:0:0:0:
400,91,149932,1,8,0:2:0:0:
492,132,150086,1,2,0:2:0:0:
499,234,150240,6,0,B|503:274|503:274|495:314,1,78,0|2,1:2|0:2,0:0:0:0:
413,358,150548,2,0,B|373:362|373:362|333:354,1,78,8|2,0:2|0:2,0:0:0:0:
272,280,150855,1,0,1:2:0:0:
272,280,151163,5,8,0:2:0:0:
272,280,151240,1,8,0:2:0:0:
272,280,151317,1,8,0:2:0:0:
272,280,151394,1,8,0:2:0:0:
272,280,151471,5,8,1:2:0:0:
195,310,151624,1,8,0:2:0:0:
142,247,151778,1,0,1:2:0:0:
186,178,151932,1,8,0:2:0:0:
265,197,152086,5,8,0:2:0:0:
265,197,152394,5,8,0:2:0:0:
186,178,152548,1,0,1:2:0:0:
209,97,152701,1,8,0:2:0:0:
288,116,152855,5,2,1:2:0:0:
288,116,153163,1,2,1:2:0:0:
288,116,153471,1,2,1:2:0:0:
412,52,153624,5,8,1:2:0:0:
412,52,153701,1,8,1:2:0:0:
412,52,153778,1,8,1:2:0:0:
412,52,153855,1,8,1:2:0:0:
412,52,153932,6,0,L|420:144,1,78,4|0,1:2|0:0,0:0:0:0:
288,116,154240,2,0,L|281:38,1,78,8|2,0:2|0:2,0:0:0:0:
200,24,154548,2,0,P|152:16|112:24,1,78,0|2,1:2|0:2,0:0:0:0:
72,120,154778,1,0,0:2:0:0:
72,120,154855,2,0,P|120:128|160:120,1,78,8|2,0:2|0:2,0:0:0:0:
208,192,155163,6,0,B|216:240|216:240|204:284,1,78,0|2,1:2|0:2,0:0:0:0:
332,268,155471,2,0,B|324:220|324:220|336:176,1,78,8|2,0:2|0:2,0:0:0:0:
272,336,155778,1,0,1:2:0:0:
272,336,156086,1,8,0:2:0:0:
376,364,156240,1,2,0:2:0:0:
456,292,156394,6,0,P|464:240|456:196,1,78,0|2,1:2|0:2,0:0:0:0:
336,114,156701,2,0,P|328:152|331:191,1,78,8|2,0:2|0:2,0:0:0:0:
428,132,157009,1,0,1:2:0:0:
428,132,157317,1,8,0:2:0:0:
336,114,157471,1,2,0:2:0:0:
336,114,157548,1,0,0:0:0:0:
336,114,157624,6,0,L|248:122,1,78,0|2,1:2|0:2,0:0:0:0:
148,132,157932,1,8,0:2:0:0:
148,132,158240,1,0,1:2:0:0:
72,64,158394,1,2,0:2:0:0:
20,160,158548,5,8,1:2:0:0:
20,160,158624,1,8,1:2:0:0:
20,160,158701,1,8,1:2:0:0:
20,160,158778,1,8,1:2:0:0:
20,160,158855,6,0,L|28:244,1,78,4|0,1:2|0:0,0:0:0:0:
135,257,159163,2,0,L|128:180,1,78,8|2,0:2|0:2,0:0:0:0:
96,332,159471,2,0,P|140:344|176:332,1,78,0|2,1:2|0:2,0:0:0:0:
248,288,159701,1,0,0:2:0:0:
248,288,159778,2,0,P|292:276|328:288,1,78,8|2,0:2|0:2,0:0:0:0:
372,364,160086,5,0,1:2:0:0:
463,333,160240,1,2,0:2:0:0:
465,238,160394,1,8,0:2:0:0:
372,209,160548,1,2,0:2:0:0:
320,285,160702,5,0,1:2:0:0:
340,109,161009,5,8,0:2:0:0:
340,109,161086,1,8,0:2:0:0:
340,109,161163,1,0,1:2:0:0:
275,207,161317,5,0,1:2:0:0:
275,207,161471,1,8,0:2:0:0:
275,207,161625,1,0,1:2:0:0:
275,207,161779,1,10,0:2:0:0:
340,109,161933,5,4,1:2:0:0:
372,209,162241,5,0,1:2:0:0:
372,209,162394,1,8,0:2:0:0:
372,209,162548,1,0,1:2:0:0:
372,209,162702,1,10,0:2:0:0:
340,109,162856,5,4,1:2:0:0:
439,145,163164,5,0,1:2:0:0:
439,145,163317,1,8,0:2:0:0:
439,145,163471,1,0,1:2:0:0:
439,145,163625,1,8,0:2:0:0:
340,109,163778,5,4,1:3:0:0:
