osu file format v14

[General]
AudioFilename: audio.mp3
AudioLeadIn: 0
PreviewTime: 77624
Countdown: 0
SampleSet: Soft
StackLeniency: 0.5
Mode: 0
LetterboxInBreaks: 0
WidescreenStoryboard: 1

[Editor]
DistanceSpacing: 1
BeatDivisor: 4
GridSize: 32
TimelineZoom: 2.3

[Metadata]
Title:Soushi Sou Ai
TitleUnicode:相思創愛
Artist:Ito Kashitaro x Lon
ArtistUnicode:伊東歌詞太郎×ろん
Creator:Anishina Kodoku
Version:Djulus' Normal
Source:言ノ葉Project
Tags:第4弾 プロジェクト vocaloid utaite cover kalindraz loreley djulus kanor Lobelia [ Abhor ] nattu まらしぃ marasy
BeatmapID:1627240
BeatmapSetID:669776

[Difficulty]
HPDrainRate:4
CircleSize:3.2
OverallDifficulty:4
ApproachRate:5
SliderMultiplier:1.06
SliderTickRate:1

[Events]
//Background and Video events
Video,-27,"os.flv"
0,0,"okay im gay.jpg",0,0
//Break Periods
2,95055,98578
2,124594,126578
//Storyboard Layer 0 (Background)
//Storyboard Layer 1 (Fail)
//Storyboard Layer 2 (Pass)
//Storyboard Layer 3 (Foreground)
//Storyboard Sound Samples

[TimingPoints]
17946,307.692307692308,4,2,2,30,1,0
18548,307.692307692308,4,2,2,40,1,0
18548,-111.111111111111,4,2,2,40,0,0
25932,-111.111111111111,4,2,2,60,0,0
26855,-111.111111111111,4,2,2,40,0,0
28086,-111.111111111111,4,2,2,40,0,0
28394,-111.111111111111,4,2,2,70,0,0
48086,-111.111111111111,4,2,3,50,0,0
56701,-111.111111111111,4,2,2,50,0,0
57932,-111.111111111111,4,2,2,70,0,0
67778,-111.111111111111,4,2,3,50,0,0
72701,-111.111111111111,4,2,2,60,0,0
76240,-111.111111111111,4,2,2,70,0,0
77624,-111.111111111111,4,2,2,80,0,1
94855,-111.111111111111,4,2,2,50,0,0
99778,-111.111111111111,4,2,2,70,0,0
112086,-111.111111111111,4,2,2,40,0,0
113624,-111.111111111111,4,2,2,70,0,0
114548,-111.111111111111,4,2,2,70,0,0
123009,-111.111111111111,4,2,2,70,0,0
124394,-111.111111111111,4,2,2,40,0,0
127778,-111.111111111111,4,2,2,70,0,1
131778,-111.111111111111,4,2,2,70,0,0
132855,-111.111111111111,4,2,2,70,0,1
134240,-111.111111111111,4,2,2,70,0,1
137932,-111.111111111111,4,2,2,80,0,1
141624,-111.111111111111,4,2,2,60,0,0
163778,-111.111111111111,4,2,2,30,0,0

[Colours]
Combo1 : 173,188,187
Combo2 : 202,15,19
Combo3 : 149,38,74

[HitObjects]
48,83,18548,6,0,L|175:73,1,95.3999970886231,2|2,1:2|0:2,0:0:0:0:
182,47,19009,1,0,0:2:0:0:
182,47,19163,2,0,L|290:44,1,95.3999970886231,2|2,0:2|0:2,0:0:0:0:
368,71,19778,1,2,0:2:0:0:
375,166,20086,1,2,0:2:0:0:
302,228,20394,2,0,L|205:223,1,95.3999970886231,2|2,0:2|0:2,0:0:0:0:
115,251,21009,6,0,P|97:310|125:357,1,95.3999970886231,4|2,0:3|0:2,0:0:0:0:
153,356,21471,1,0,0:2:0:0:
153,356,21624,2,0,L|281:350,1,95.3999970886231,2|2,0:2|0:2,0:0:0:0:
293,335,22086,1,0,0:2:0:0:
293,335,22240,2,0,L|401:325,1,95.3999970886231,2|2,0:2|0:2,0:0:0:0:
458,261,22855,1,4,0:3:0:0:
449,165,23163,1,4,0:3:0:0:
369,112,23471,6,0,L|245:110,1,95.3999970886231,0|2,1:2|1:2,0:0:0:0:
196,166,24086,2,0,L|69:158,1,95.3999970886231,2|2,1:2|1:2,0:0:0:0:
92,255,24701,2,0,L|216:255,1,95.3999970886231,2|2,1:2|1:2,0:0:0:0:
223,287,25163,1,0,0:2:0:0:
223,287,25317,2,0,L|318:276,1,95.3999970886231,2|2,1:2|1:2,0:0:0:0:
391,214,25932,6,0,B|363:126|436:133|386:17,1,190.799994177246,8|0,1:2|1:2,0:0:0:0:
296,15,26855,1,8,0:2:0:0:
223,77,27163,1,10,0:2:0:0:
223,77,27317,2,0,L|122:66,2,95.3999970886231,2|2|2,1:2|1:2|1:2,0:0:0:0:
253,114,28086,1,8,0:2:0:0:
257,209,28394,6,0,L|254:311,1,95.3999970886231,4|8,1:2|0:2,0:0:0:0:
341,341,29009,2,0,L|404:328,1,47.6999985443116,0|2,1:2|0:2,0:0:0:0:
432,312,29317,1,8,0:2:0:0:
489,236,29624,2,0,L|488:126,1,95.3999970886231,0|8,1:2|0:2,0:0:0:0:
450,111,30086,1,2,0:2:0:0:
450,111,30240,2,0,L|347:112,1,95.3999970886231,0|8,1:2|0:2,0:0:0:0:
270,67,30855,6,0,L|163:63,1,95.3999970886231,0|8,1:2|0:2,0:0:0:0:
127,53,31317,1,2,0:2:0:0:
127,53,31471,2,0,L|148:161,1,95.3999970886231,0|8,1:2|0:2,0:0:0:0:
120,187,31932,1,2,0:2:0:0:
120,187,32086,2,0,L|140:292,1,95.3999970886231,0|8,1:2|0:2,0:0:0:0:
214,337,32701,2,0,L|205:398,2,47.6999985443116,0|2|8,1:2|0:2|0:2,0:0:0:0:
300,295,33317,6,0,L|399:297,1,95.3999970886231,4|8,1:2|0:2,0:0:0:0:
418,206,33932,2,0,L|334:200,1,47.6999985443116,0|2,1:2|0:2,0:0:0:0:
322,204,34240,1,8,0:2:0:0:
237,160,34548,2,0,P|225:113|260:55,1,95.3999970886231,0|8,1:2|0:2,0:0:0:0:
278,40,35009,1,2,0:2:0:0:
278,40,35163,2,0,L|396:37,1,95.3999970886231,0|8,1:2|0:2,0:0:0:0:
441,104,35778,6,0,L|514:97,2,47.6999985443116,12|8|0,1:2|0:2|1:2,0:0:0:0:
408,142,36240,1,8,0:2:0:0:
408,142,36394,2,0,L|399:248,1,95.3999970886231,8|8,0:2|0:2,0:0:0:0:
370,274,36855,1,0,1:2:0:0:
370,274,37009,2,0,L|280:275,1,47.6999985443116,8|2,0:2|1:2,0:0:0:0:
237,230,37471,2,0,L|135:230,1,95.3999970886231,2|2,1:2|1:2,0:0:0:0:
96,213,37932,1,8,0:2:0:0:
31,142,38240,6,0,P|36:56|65:39,1,95.3999970886231,4|8,1:2|0:2,0:0:0:0:
131,39,38855,2,0,L|202:39,1,47.6999985443116,0|2,1:2|0:2,0:0:0:0:
211,73,39163,1,8,0:2:0:0:
302,100,39471,2,0,P|291:181|287:218,1,95.3999970886231,0|8,1:2|0:2,0:0:0:0:
282,241,39932,1,2,0:2:0:0:
282,241,40086,2,0,P|350:247|392:253,1,95.3999970886231,0|8,1:2|0:2,0:0:0:0:
455,196,40701,6,0,P|464:144|440:97,1,95.3999970886231,0|8,1:2|0:2,0:0:0:0:
406,81,41163,1,2,0:2:0:0:
406,81,41317,2,0,L|278:72,1,95.3999970886231,0|8,1:2|0:2,0:0:0:0:
265,89,41778,1,2,0:2:0:0:
265,89,41932,2,0,L|148:91,1,95.3999970886231,0|8,1:2|0:2,0:0:0:0:
105,161,42548,2,0,L|27:164,2,47.6999985443116,0|2|8,1:2|0:2|0:2,0:0:0:0:
189,205,43163,6,0,P|173:269|178:311,1,95.3999970886231,4|8,1:2|0:2,0:0:0:0:
260,339,43778,2,0,L|318:327,1,47.6999985443116,0|2,1:2|0:2,0:0:0:0:
354,336,44086,1,8,0:2:0:0:
434,283,44394,2,0,L|426:168,1,95.3999970886231,0|8,1:2|0:2,0:0:0:0:
386,162,44855,1,2,0:2:0:0:
386,162,45009,2,0,L|280:160,1,95.3999970886231,0|8,1:2|0:2,0:0:0:0:
226,230,45624,6,0,L|234:311,2,47.6999985443116,0|8|0,1:2|0:2|1:2,0:0:0:0:
188,199,46086,1,10,0:2:0:0:
188,199,46240,1,4,1:2:0:0:
92,194,46548,2,0,L|43:222,2,47.6999985443116,0|8|0,1:2|0:2|1:2,0:0:0:0:
93,145,47010,1,10,0:2:0:0:
93,145,47164,1,4,1:2:0:0:
143,64,47471,2,0,L|136:-2,2,47.6999985443116,0|8|0,1:2|0:2|1:2,0:0:0:0:
188,77,47932,5,8,0:2:0:0:
188,77,48086,2,0,L|292:67,1,95.3999970886231,4|0,1:2|1:2,0:0:0:0:
375,89,48701,2,0,L|376:212,1,95.3999970886231,0|0,1:2|1:2,0:0:0:0:
306,251,49317,2,0,L|191:249,1,95.3999970886231,0|0,1:2|1:2,0:0:0:0:
133,192,49932,2,0,L|19:205,1,95.3999970886231,0|0,1:2|1:2,0:0:0:0:
22,245,50394,5,0,0:0:0:0:
22,245,50548,2,0,P|45:302|58:346,1,95.3999970886231,0|0,1:2|1:2,0:0:0:0:
149,346,51163,2,0,L|262:343,1,95.3999970886231,0|0,1:2|1:2,0:0:0:0:
337,322,51778,2,0,P|352:280|340:230,1,95.3999970886231,0|0,1:2|1:2,0:0:0:0:
265,172,52394,2,0,P|247:105|287:63,1,95.3999970886231,0|0,1:2|1:2,0:0:0:0:
338,35,53009,6,0,L|452:41,1,95.3999970886231,0|0,1:2|1:2,0:0:0:0:
510,95,53624,2,0,L|497:216,1,95.3999970886231,0|0,1:2|1:2,0:0:0:0:
418,240,54240,2,0,L|291:259,1,95.3999970886231,0|0,1:2|1:2,0:0:0:0:
237,295,54855,2,0,L|128:274,1,95.3999970886231,0|0,1:2|1:2,0:0:0:0:
95,272,55317,5,0,0:0:0:0:
95,272,55471,2,0,L|90:150,1,95.3999970886231,0|0,1:2|1:2,0:0:0:0:
140,94,56086,2,0,L|260:85,1,95.3999970886231,0|0,1:2|1:2,0:0:0:0:
330,92,56701,2,0,P|348:153|335:184,1,95.3999970886231,0|0,1:2|1:2,0:0:0:0:
300,211,57163,2,0,L|237:214,1,47.6999985443116,2|0,0:2|1:2,0:0:0:0:
204,217,57471,2,0,P|180:271|215:336,1,95.3999970886231,10|10,0:2|0:2,0:0:0:0:
219,339,57932,6,0,L|339:324,1,95.3999970886231,6|10,1:2|0:2,0:0:0:0:
361,329,58394,1,0,1:2:0:0:
433,267,58701,2,0,L|426:141,1,95.3999970886231,0|0,1:2|0:2,0:0:0:0:
397,134,59163,2,0,L|263:122,1,95.3999970886231,2|10,0:2|0:2,0:0:0:0:
263,97,59624,1,0,1:2:0:0:
171,69,59932,2,0,L|161:-6,2,47.6999985443116,0|10|0,1:2|0:2|0:2,0:0:0:0:
141,106,60394,6,0,L|155:215,1,95.3999970886231,2|10,1:2|0:2,0:0:0:0:
116,231,60855,2,0,L|139:338,1,95.3999970886231,0|0,1:2|1:2,0:0:0:0:
179,345,61317,1,10,0:2:0:0:
267,310,61624,2,0,L|398:293,1,95.3999970886231,2|10,0:2|0:2,0:0:0:0:
429,230,62240,2,0,P|443:178|416:127,1,95.3999970886231,2|8,0:2|0:2,0:0:0:0:
397,104,62701,5,8,0:2:0:0:
397,104,62855,2,0,L|261:117,1,95.3999970886231,2|10,1:2|0:2,0:0:0:0:
283,157,63317,2,0,L|168:151,1,95.3999970886231,0|0,1:2|1:2,0:0:0:0:
146,175,63778,1,10,0:2:0:0:
50,171,64086,2,0,P|43:96|75:66,1,95.3999970886231,0|10,0:0|0:2,0:0:0:0:
133,33,64701,2,0,L|255:34,1,95.3999970886231,2|10,0:2|0:2,0:0:0:0:
269,59,65163,5,0,0:2:0:0:
269,59,65317,2,0,L|381:62,1,95.3999970886231,2|2,1:2|1:2,0:0:0:0:
454,93,65932,1,10,0:2:0:0:
454,93,66086,2,0,P|436:144|433:207,1,95.3999970886231,0|8,1:2|1:2,0:0:0:0:
439,232,66548,1,10,0:2:0:0:
386,311,66855,1,10,0:2:0:0:
290,308,67163,1,10,0:2:0:0:
246,223,67471,1,10,0:2:0:0:
209,135,67778,6,0,P|128:120|52:205,1,190.799994177246,4|0,1:2|1:2,0:0:0:0:
37,284,68701,1,0,1:2:0:0:
114,339,69009,2,0,B|187:339|187:339|229:368|229:368|314:361,1,190.799994177246,0|0,1:2|1:2,0:0:0:0:
380,318,69932,1,0,1:2:0:0:
471,343,70240,6,0,B|487:247|414:271|456:151,1,190.799994177246,2|0,1:2|1:2,0:0:0:0:
507,80,71163,1,0,1:2:0:0:
418,44,71471,2,0,L|206:62,1,190.799994177246,2|8,1:2|0:2,0:0:0:0:
138,27,72394,5,0,1:2:0:0:
65,88,72701,6,0,L|-10:95,2,47.6999985443116,8|0|8,0:2|1:2|0:2,0:0:0:0:
103,116,73163,1,0,1:2:0:0:
231,178,73624,2,0,L|303:167,2,47.6999985443116,8|0|8,0:2|1:2|0:2,0:0:0:0:
194,209,74086,1,0,1:2:0:0:
75,289,74548,2,0,L|20:284,2,47.6999985443116,8|8|0,1:2|1:2|1:2,0:0:0:0:
152,345,75163,6,0,L|270:332,1,95.3999970886231,12|0,0:2|1:2,0:0:0:0:
284,304,75624,2,0,L|412:296,1,95.3999970886231,12|0,0:2|1:2,0:0:0:0:
416,209,76240,2,0,L|522:213,2,95.3999970886231,0|0|0,1:2|1:2|1:2,0:0:0:0:
386,171,77009,2,0,L|251:172,1,95.3999970886231,8|8,0:2|0:2,0:0:0:0:
210,119,77624,5,4,1:2:0:0:
122,156,77932,1,8,0:2:0:0:
111,250,78240,1,0,1:2:0:0:
188,306,78548,1,8,0:2:0:0:
280,285,78855,2,0,L|396:278,1,95.3999970886231,0|8,1:2|0:2,0:0:0:0:
447,216,79471,2,0,P|455:142|434:100,1,95.3999970886231,0|8,1:2|0:2,0:0:0:0:
389,49,80086,5,0,1:2:0:0:
294,62,80394,1,8,0:2:0:0:
258,150,80701,1,0,1:2:0:0:
303,233,81009,1,8,0:2:0:0:
250,312,81317,2,0,L|125:307,1,95.3999970886231,0|8,1:2|0:2,0:0:0:0:
113,283,81778,1,0,0:2:0:0:
113,283,81932,2,0,P|107:200|132:164,1,95.3999970886231,0|8,1:2|1:2,0:0:0:0:
149,103,82548,6,0,L|272:101,1,95.3999970886231,12|10,0:2|0:2,0:0:0:0:
339,103,83163,2,0,P|354:187|328:218,1,95.3999970886231,10|10,0:2|0:2,0:0:0:0:
335,236,83624,2,0,L|222:240,1,95.3999970886231,0|0,1:2|1:2,0:0:0:0:
191,244,84086,1,10,0:2:0:0:
166,336,84394,2,0,L|238:340,1,47.6999985443116,10|0,0:2|1:2,0:0:0:0:
255,360,84701,1,0,0:2:0:0:
347,338,85009,6,0,L|459:316,1,95.3999970886231,8|0,0:2|1:2,0:0:0:0:
493,239,85624,2,0,P|500:173|473:142,1,95.3999970886231,8|0,0:2|0:0,0:0:0:0:
442,129,86086,2,0,L|345:125,1,95.3999970886231,4|0,1:2|1:2,0:0:0:0:
306,98,86548,1,10,0:2:0:0:
217,61,86855,2,0,L|97:61,1,95.3999970886231,2|8,1:2|0:2,0:0:0:0:
45,119,87471,5,4,1:2:0:0:
41,214,87778,1,10,0:2:0:0:
109,280,88086,1,0,1:2:0:0:
203,266,88394,1,10,0:2:0:0:
259,189,88701,2,0,L|370:186,1,95.3999970886231,0|10,1:2|0:2,0:0:0:0:
437,234,89317,2,0,P|453:291|430:343,1,95.3999970886231,0|10,1:2|0:2,0:0:0:0:
354,359,89932,5,0,1:2:0:0:
264,324,90240,1,10,0:2:0:0:
261,228,90548,1,0,1:2:0:0:
325,158,90855,1,10,0:2:0:0:
278,74,91163,2,0,L|171:72,1,95.3999970886231,0|10,1:2|0:2,0:0:0:0:
136,84,91624,1,0,0:2:0:0:
136,84,91778,2,0,P|111:168|123:198,1,95.3999970886231,0|10,1:2|1:2,0:0:0:0:
163,252,92394,6,0,L|294:242,1,95.3999970886231,4|10,1:2|0:2,0:0:0:0:
332,184,93009,2,0,L|447:180,1,95.3999970886231,0|10,1:2|0:2,0:0:0:0:
468,205,93471,1,0,0:2:0:0:
468,205,93624,2,0,P|478:306|435:352,1,143.099995632935,0|8,1:2|0:2,0:0:0:0:
410,349,94240,2,0,L|282:346,1,95.3999970886231,0|8,1:2|0:3,0:0:0:0:
231,299,94855,1,4,1:2:0:0:
192,16,99778,6,0,B|158:116|222:101|190:214,1,190.799994177246,12|12,1:2|1:2,0:0:0:0:
140,325,101009,2,0,B|199:341|230:325|230:325|271:335|271:335|302:307|302:307|356:324|432:305,1,286.199991265869,8|0,0:2|1:2,0:0:0:0:
442,219,102240,6,0,P|346:201|252:165,1,190.799994177246,4|8,1:2|0:2,0:0:0:0:
210,86,103163,1,0,1:2:0:0:
117,109,103471,2,0,P|123:198|105:311,1,190.799994177246,0|0,1:2|1:2,0:0:0:0:
175,366,104394,1,0,1:2:0:0:
248,299,104701,6,0,L|356:295,1,95.3999970886231,4|2,1:2|1:2,0:0:0:0:
430,255,105317,2,0,L|432:184,1,47.6999985443116,2|0,1:2|0:2,0:0:0:0:
426,160,105624,1,2,1:2:0:0:
376,78,105932,2,0,L|239:68,1,95.3999970886231,2|2,1:2|1:2,0:0:0:0:
235,54,106394,1,8,0:2:0:0:
235,54,106548,2,0,L|130:68,1,95.3999970886231,2|2,1:2|1:2,0:0:0:0:
110,157,107163,6,0,L|215:178,1,95.3999970886231,2|2,1:2|1:2,0:0:0:0:
278,234,107778,2,0,L|343:223,2,47.6999985443116,2|8|2,1:2|0:2|1:2,0:0:0:0:
205,296,108394,2,0,L|107:303,1,95.3999970886231,2|2,1:2|1:2,0:0:0:0:
37,240,109009,1,2,1:2:0:0:
37,240,109163,2,0,P|33:145|54:125,1,95.3999970886231,8|8,0:2|0:2,0:0:0:0:
59,114,109624,6,0,L|48:41,2,47.6999985443116,6|0|2,1:2|0:2|1:2,0:0:0:0:
145,156,110240,2,0,L|137:209,2,47.6999985443116,2|0|2,1:2|0:2|1:2,0:0:0:0:
214,90,110855,6,0,L|205:28,2,47.6999985443116,2|0|2,1:2|0:2|1:2,0:0:0:0:
282,157,111471,2,0,L|271:210,2,47.6999985443116,2|0|2,1:2|0:2|1:2,0:0:0:0:
356,97,112086,5,2,1:2:0:0:
356,97,113317,6,0,L|438:102,1,47.6999985443116,8|8,0:2|0:2,0:0:0:0:
446,121,113624,2,0,P|458:196|431:238,1,95.3999970886231,0|0,1:2|1:2,0:0:0:0:
421,249,114086,1,8,0:2:0:0:
421,249,114240,2,0,L|338:250,1,47.6999985443116,0|8,1:2|0:2,0:0:0:0:
325,243,114548,6,0,P|240:220|193:256,1,143.099995632935,4|8,1:2|0:2,0:0:0:0:
178,290,115163,1,2,1:2:0:0:
85,334,115471,1,2,1:2:0:0:
16,267,115778,2,0,P|9:192|27:157,1,95.3999970886231,2|2,1:2|1:2,0:0:0:0:
33,80,116394,1,2,1:2:0:0:
117,36,116701,1,2,1:2:0:0:
205,80,117009,6,0,B|209:138|203:177,1,95.3999970886231,2|2,1:2|1:2,0:0:0:0:
139,246,117624,1,2,1:2:0:0:
176,341,117932,1,2,1:2:0:0:
273,340,118240,2,0,B|329:331|374:336|374:336,1,95.3999970886231,2|2,1:2|1:2,0:0:0:0:
415,333,118701,1,8,0:2:0:0:
464,251,119009,2,0,L|464:143,1,95.3999970886231,8|8,0:2|0:2,0:0:0:0:
436,116,119471,6,0,L|426:39,2,47.6999985443116,6|0|2,1:2|0:2|1:2,0:0:0:0:
348,154,120086,2,0,L|333:219,2,47.6999985443116,2|0|2,1:2|0:2|1:2,0:0:0:0:
261,114,120701,6,0,L|252:55,2,47.6999985443116,2|0|2,1:2|0:2|1:2,0:0:0:0:
192,181,121317,2,0,L|174:241,2,47.6999985443116,2|0|2,1:2|0:2|1:2,0:0:0:0:
104,143,121932,5,4,1:2:0:0:
104,143,123009,6,0,L|216:124,1,95.3999970886231,8|2,0:2|1:2,0:0:0:0:
279,77,123624,1,2,1:2:0:0:
279,77,123778,2,0,P|340:68|404:69,1,95.3999970886231,8|8,1:2|0:3,0:0:0:0:
462,102,124394,1,6,1:2:0:0:
444,98,127778,6,0,L|429:173,1,47.6999985443116,12|0,0:2|0:0,0:0:0:0:
431,192,128086,2,0,B|310:198|379:242|229:237,1,190.799994177246,0|0,1:2|1:2,0:0:0:0:
168,288,129009,1,2,1:2:0:0:
78,255,129317,6,0,L|69:129,1,95.3999970886231,14|10,0:2|0:2,0:0:0:0:
81,113,129778,1,0,1:2:0:0:
81,113,129932,2,0,P|126:123|202:95,1,95.3999970886231,10|10,0:2|0:2,0:0:0:0:
212,84,130394,2,0,P|296:71|326:88,1,95.3999970886231,0|0,1:2|0:0,0:0:0:0:
333,109,130855,1,10,0:2:0:0:
414,59,131163,2,0,P|411:32|415:-5,2,47.6999985443116,10|0|10,0:2|1:2|0:2,0:0:0:0:
503,91,131778,6,0,P|483:155|478:224,1,95.3999970886231,10|14,0:2|0:2,0:0:0:0:
500,348,132855,6,0,L|383:348,1,95.3999970886231,0|0,1:2|1:2,0:0:0:0:
367,317,133317,1,10,0:2:0:0:
272,326,133624,2,0,L|161:320,1,95.3999970886231,10|10,0:2|1:2,0:0:0:0:
85,292,134240,6,0,P|81:222|100:192,1,95.3999970886231,4|0,1:2|1:2,0:0:0:0:
141,119,134855,2,0,L|266:112,1,95.3999970886231,14|0,0:2|1:2,0:0:0:0:
326,81,135471,2,0,P|315:157|325:282,1,190.799994177246,8|12,1:2|0:2,0:0:0:0:
396,330,136394,1,0,1:2:0:0:
469,269,136701,6,0,L|479:167,1,95.3999970886231,0|2,1:2|1:2,0:0:0:0:
458,80,137317,2,0,L|335:70,1,95.3999970886231,12|0,0:2|1:2,0:0:0:0:
278,116,137932,2,0,L|168:115,1,95.3999970886231,0|8,1:2|0:2,0:0:0:0:
135,103,138394,1,0,1:2:0:0:
135,103,138548,2,0,P|110:168|126:210,1,95.3999970886231,8|8,0:2|1:2,0:0:0:0:
182,258,139163,6,0,L|302:252,1,95.3999970886231,0|10,1:2|0:2,0:0:0:0:
343,184,139778,2,0,L|455:182,1,95.3999970886231,2|10,1:2|0:2,0:0:0:0:
475,212,140240,1,0,0:2:0:0:
475,212,140394,2,0,P|490:278|455:322,1,95.3999970886231,2|10,1:2|0:2,0:0:0:0:
436,321,140855,1,0,0:2:0:0:
436,321,141009,2,0,L|313:319,1,95.3999970886231,2|8,1:2|1:2,0:0:0:0:
261,265,141624,6,0,B|145:261|201:325|51:312,1,190.799994177246,4|0,1:2|0:0,0:0:0:0:
24,236,142548,1,0,0:0:0:0:
70,153,142855,2,0,L|294:131,1,190.799994177246,12|0,0:2|1:2,0:0:0:0:
442,77,144086,6,0,L|431:193,1,95.3999970886231,4|8,1:2|0:2,0:0:0:0:
383,253,144701,2,0,L|300:260,1,47.6999985443116,0|2,1:2|0:2,0:0:0:0:
291,276,145009,1,8,0:2:0:0:
208,227,145317,2,0,P|206:166|204:105,1,95.3999970886231,0|8,1:2|0:2,0:0:0:0:
202,83,145778,1,2,0:2:0:0:
202,83,145932,2,0,P|130:81|100:113,1,95.3999970886231,0|8,1:2|0:2,0:0:0:0:
59,171,146548,6,0,L|53:275,1,95.3999970886231,0|8,1:2|0:2,0:0:0:0:
76,308,147009,1,2,0:2:0:0:
76,308,147163,2,0,L|184:294,1,95.3999970886231,0|8,1:2|0:2,0:0:0:0:
212,273,147624,1,2,0:2:0:0:
212,273,147778,2,0,L|349:252,1,95.3999970886231,0|8,1:2|0:2,0:0:0:0:
372,189,148394,2,0,L|452:201,2,47.6999985443116,0|2|8,1:2|0:2|1:2,0:0:0:0:
283,143,149009,6,0,L|168:148,1,95.3999970886231,4|8,1:2|0:2,0:0:0:0:
148,60,149624,2,0,L|200:48,1,47.6999985443116,0|2,1:2|0:2,0:0:0:0:
239,33,149932,1,8,0:2:0:0:
332,53,150240,2,0,P|399:55|438:61,1,95.3999970886231,0|8,1:2|0:2,0:0:0:0:
457,95,150701,1,2,0:2:0:0:
457,95,150855,2,0,L|439:201,1,95.3999970886231,0|8,1:2|0:2,0:0:0:0:
363,245,151471,6,0,L|377:307,2,47.6999985443116,8|8|0,1:2|0:2|1:2,0:0:0:0:
324,217,151932,1,8,0:2:0:0:
324,217,152086,2,0,L|205:222,1,95.3999970886231,8|8,0:2|0:2,0:0:0:0:
134,236,152701,1,8,0:2:0:0:
134,236,152855,2,0,P|135:307|142:350,2,95.3999970886231,2|2|2,1:2|1:2|1:2,0:0:0:0:
100,201,153624,2,0,L|103:124,1,47.6999985443116,8|8,1:2|1:2,0:0:0:0:
122,110,153932,6,0,L|247:97,1,95.3999970886231,4|8,1:2|0:2,0:0:0:0:
312,106,154548,2,0,L|310:178,1,47.6999985443116,0|2,1:2|0:2,0:0:0:0:
286,195,154855,1,8,0:2:0:0:
315,285,155163,2,0,L|421:272,1,95.3999970886231,0|8,1:2|0:2,0:0:0:0:
444,241,155624,1,2,0:2:0:0:
444,241,155778,2,0,P|454:163|438:138,1,95.3999970886231,0|8,1:2|0:2,0:0:0:0:
383,80,156394,6,0,L|261:78,1,95.3999970886231,0|8,1:2|0:2,0:0:0:0:
249,106,156855,1,2,0:2:0:0:
249,106,157009,2,0,L|137:107,1,95.3999970886231,0|8,1:2|0:2,0:0:0:0:
112,132,157471,1,2,0:2:0:0:
112,132,157624,2,0,P|91:195|111:239,1,95.3999970886231,0|8,1:2|0:2,0:0:0:0:
179,272,158240,2,0,L|167:341,2,47.6999985443116,0|2|8,1:2|0:2|1:2,0:0:0:0:
271,249,158855,6,0,P|275:163|279:126,1,95.3999970886231,4|8,1:2|0:2,0:0:0:0:
350,93,159471,2,0,L|417:92,1,47.6999985443116,0|2,1:2|0:2,0:0:0:0:
436,119,159778,1,8,0:2:0:0:
486,199,160086,2,0,P|487:288|462:314,1,95.3999970886231,0|8,1:2|0:2,0:0:0:0:
459,329,160548,1,2,0:2:0:0:
459,329,160701,2,0,L|335:319,1,95.3999970886231,0|8,1:2|0:2,0:0:0:0:
274,286,161317,6,0,P|261:339|262:368,2,47.6999985443116,0|8|0,1:2|0:2|1:2,0:0:0:0:
274,238,161778,1,10,0:2:0:0:
274,238,161932,1,4,1:2:0:0:
204,172,162240,2,0,P|217:119|216:90,2,47.6999985443116,0|8|0,1:2|0:2|1:2,0:0:0:0:
177,211,162701,1,10,0:2:0:0:
177,211,162855,1,4,1:2:0:0:
95,260,163163,6,0,L|101:321,2,47.6999985443116,0|8|0,1:2|0:2|1:2,0:0:0:0:
67,221,163624,1,8,0:2:0:0:
67,221,163778,1,4,1:3:0:0:
