osu file format v14

[General]
AudioFilename: audio.mp3
AudioLeadIn: 0
PreviewTime: 108788
Countdown: 0
SampleSet: Soft
StackLeniency: 0.2
Mode: 0
LetterboxInBreaks: 0
WidescreenStoryboard: 1

[Editor]
DistanceSpacing: 1.2
BeatDivisor: 4
GridSize: 4
TimelineZoom: 2.1

[Metadata]
Title:Yuudachi No Ribbon
TitleUnicode:Yuudachi No Ribbon
Artist:Ito Kashitaro
ArtistUnicode:Ito Kashitaro
Creator:PurpleSatanWeed
Version:Incredibly Hostile Thunderstorm
Source:
Tags:
BeatmapID:1967732
BeatmapSetID:879102

[Difficulty]
HPDrainRate:3
CircleSize:4
OverallDifficulty:9
ApproachRate:9.8
SliderMultiplier:1.6
SliderTickRate:1

[Events]
//Background and Video events
0,0,"rainy.jpg",0,0
//Break Periods
//Storyboard Layer 0 (Background)
//Storyboard Layer 1 (Fail)
//Storyboard Layer 2 (Pass)
//Storyboard Layer 3 (Foreground)
//Storyboard Sound Samples

[TimingPoints]
528,260.869565217391,4,2,0,100,1,0
1049,-200,4,2,0,100,0,0
5745,-133.333333333333,4,2,0,100,0,0
7571,260.869565217391,4,2,0,100,1,0
7571,-100,4,2,0,100,0,0
57657,-66.6666666666667,4,2,0,100,0,1
74353,-100,4,2,0,100,0,0
109831,-66.6666666666667,4,2,0,100,0,1
126527,-100,4,2,0,100,0,0
133049,260.869565217391,4,2,0,100,1,0
172179,-58.8235294117647,4,2,0,100,0,1
201918,-66.6666666666667,4,2,0,100,0,0

[HitObjects]
216,163,788,5,0,0:0:0:0:
104,236,919,1,0,0:0:0:0:
229,162,1049,6,0,L|278:162,1,40
335,225,1310,1,0,0:0:0:0:
229,288,1441,2,0,L|278:288,1,40
335,225,1702,1,0,0:0:0:0:
324,84,1832,2,0,P|348:47|384:32,1,80
398,104,2223,1,0,0:0:0:0:
86,105,2354,1,0,0:0:0:0:
86,105,2614,6,0,L|71:50,1,40
65,215,2875,1,0,0:0:0:0:
167,185,3006,2,0,L|152:130,1,40
146,295,3267,1,0,0:0:0:0:
291,324,3397,2,0,P|276:291|277:241,1,80
351,270,3788,1,0,0:0:0:0:
346,74,3919,1,0,0:0:0:0:
346,74,4180,6,0,L|386:88,1,40
237,143,4441,1,0,0:0:0:0:
109,84,4571,2,0,L|72:97,1,40
242,234,4832,1,0,0:0:0:0:
234,42,4962,2,0,B|240:89|240:89|233:136,1,80
168,91,5354,1,0,0:0:0:0:
100,303,5484,1,0,0:0:0:0:
100,303,5745,6,0,L|170:315,1,60
286,300,6006,1,0,0:0:0:0:
48,236,6136,2,0,P|92:225|116:228,1,60.0000022888184
286,300,6397,1,0,0:0:0:0:
303,59,6527,2,0,P|307:122|279:185,1,120.000004577637
138,118,7049,1,0,0:0:0:0:
138,118,7310,1,0,0:0:0:0:
138,118,7571,6,0,P|63:77|46:2,1,150.000005722046
240,27,7962,1,0,0:0:0:0:
479,98,8092,1,0,0:0:0:0:
453,341,8223,1,0,0:0:0:0:
206,256,8353,2,0,P|119:244|79:170,1,160
133,27,8744,1,0,0:0:0:0:
336,121,8874,1,0,0:0:0:0:
336,121,9136,5,0,0:0:0:0:
466,28,9266,1,0,0:0:0:0:
384,313,9397,1,0,0:0:0:0:
384,313,9462,1,0,0:0:0:0:
384,313,9527,1,0,0:0:0:0:
150,329,9657,6,0,P|133:285|150:246,1,80
221,148,9918,2,0,P|254:109|256:68,1,80
206,156,10179,1,0,0:0:0:0:
12,304,10310,1,0,0:0:0:0:
92,31,10440,2,0,P|91:82|102:112,1,80
312,384,10701,5,0,0:0:0:0:
285,0,10831,1,0,0:0:0:0:
303,159,10962,2,0,P|365:162|405:140,1,80
434,74,11223,1,0,0:0:0:0:
456,93,11288,1,0,0:0:0:0:
471,119,11353,1,0,0:0:0:0:
477,148,11418,1,0,0:0:0:0:
474,178,11483,1,0,0:0:0:0:
371,301,11614,1,0,0:0:0:0:
284,77,11744,6,0,L|201:55,1,80
61,163,12005,2,0,P|58:216|76:245,1,80
253,265,12266,1,0,0:0:0:0:
31,308,12397,1,0,0:0:0:0:
297,326,12527,2,0,P|325:283|319:237,1,80
265,49,12788,5,0,0:0:0:0:
325,256,12918,1,0,0:0:0:0:
23,70,13049,2,0,P|80:55|132:64,1,80
240,49,13310,1,0,0:0:0:0:
335,243,13440,1,0,0:0:0:0:
5,112,13571,2,0,P|58:87|111:87,1,80
294,138,13831,6,0,P|367:143|391:125,1,80
441,340,14092,2,0,L|436:251,1,80
421,45,14353,1,0,0:0:0:0:
469,273,14484,1,0,0:0:0:0:
266,43,14614,1,0,0:0:0:0:
81,198,14744,2,0,P|59:236|58:281,1,80
170,311,15005,1,0,0:0:0:0:
119,76,15136,2,0,P|161:97|208:94,1,80
269,29,15397,5,0,0:0:0:0:
303,26,15462,1,0,0:0:0:0:
335,38,15527,1,0,0:0:0:0:
358,64,15592,1,0,0:0:0:0:
367,98,15657,1,0,0:0:0:0:
360,132,15723,1,0,0:0:0:0:
338,159,15788,1,0,0:0:0:0:
306,173,15853,1,0,0:0:0:0:
272,172,15918,6,0,P|224:165|179:175,1,80
116,317,16179,1,0,0:0:0:0:
116,317,16310,1,0,0:0:0:0:
326,299,16440,1,0,0:0:0:0:
82,313,16570,1,0,0:0:0:0:
63,73,16701,2,0,P|53:128|55:157,1,80
328,137,16962,5,0,0:0:0:0:
140,122,17092,1,0,0:0:0:0:
26,365,17222,2,0,P|67:386|108:382,1,80
353,312,17484,1,0,0:0:0:0:
97,281,17614,1,0,0:0:0:0:
397,314,17744,1,0,0:0:0:0:
397,314,17810,1,0,0:0:0:0:
397,314,17875,1,0,0:0:0:0:
414,75,18005,6,0,P|384:97|320:102,1,80
158,90,18266,2,0,L|144:194,1,80
218,331,18527,1,0,0:0:0:0:
241,106,18657,1,0,0:0:0:0:
60,168,18788,2,0,P|80:226|107:246,1,80
297,272,19049,6,0,B|344:280|377:268|377:268,1,80
439,211,19310,1,0,0:0:0:0:
329,97,19440,1,0,0:0:0:0:
164,113,19570,2,0,P|103:101|67:72,1,80
242,49,19831,1,0,0:0:0:0:
242,78,19896,1,0,0:0:0:0:
242,108,19961,1,0,0:0:0:0:
243,138,20026,1,0,0:0:0:0:
243,168,20092,6,0,P|218:204|178:212,1,80
19,79,20353,2,0,L|22:168,1,80
80,357,20614,1,0,0:0:0:0:
45,235,20744,1,0,0:0:0:0:
313,352,20875,2,0,L|214:354,1,80
168,261,21136,5,0,0:0:0:0:
168,261,21266,1,0,0:0:0:0:
440,355,21397,2,0,P|452:310|445:265,1,80
427,66,21657,1,0,0:0:0:0:
331,230,21788,1,0,0:0:0:0:
213,83,21918,1,0,0:0:0:0:
184,74,21983,1,0,0:0:0:0:
154,69,22048,1,0,0:0:0:0:
124,68,22113,1,0,0:0:0:0:
95,71,22179,6,0,B|63:170|143:220|84:323|84:323|192:349|250:324|322:285|365:333|397:341|397:341|394:328,1,560
95,71,23223,5,0,0:0:0:0:
386,111,23353,1,0,0:0:0:0:
416,183,23614,1,0,0:0:0:0:
398,258,23875,1,0,0:0:0:0:
342,318,24136,1,0,0:0:0:0:
131,300,24266,6,0,P|112:258|112:219,1,80
171,101,24527,1,0,0:0:0:0:
398,121,24657,1,0,0:0:0:0:
398,311,24788,1,0,0:0:0:0:
46,322,24918,1,0,0:0:0:0:
28,327,25179,6,0,P|23:279|74:178,1,160
58,35,25570,2,0,P|111:66|149:62,1,80
283,58,25831,1,0,0:0:0:0:
36,116,25962,1,0,0:0:0:0:
213,28,26092,2,0,P|208:77|233:122,1,80
348,204,26353,5,0,0:0:0:0:
373,35,26484,1,0,0:0:0:0:
449,254,26614,2,0,L|435:347,1,80
181,318,26875,1,0,0:0:0:0:
244,113,27005,1,0,0:0:0:0:
456,52,27136,1,0,0:0:0:0:
136,296,27266,6,0,P|83:280|60:177,1,160
268,71,27657,2,0,L|266:158,1,80
148,66,27918,1,0,0:0:0:0:
399,103,28049,1,0,0:0:0:0:
136,216,28179,2,0,L|136:300,1,80
298,325,28440,6,0,P|360:333|393:320,1,80
444,94,28701,2,0,P|394:107|365:99,1,80
161,111,28962,1,0,0:0:0:0:
298,275,29092,1,0,0:0:0:0:
512,270,29223,1,0,0:0:0:0:
83,177,29353,2,0,B|23:141|40:63|40:63|50:113,1,160
69,263,29744,2,0,P|49:306|10:328,1,80
189,171,30005,1,0,0:0:0:0:
160,338,30136,1,0,0:0:0:0:
455,139,30266,1,0,0:0:0:0:
429,0,30397,1,0,0:0:0:0:
361,273,30527,6,0,P|379:213|362:173,1,80
224,60,30788,2,0,L|312:80,1,80
90,185,31049,1,0,0:0:0:0:
383,96,31179,1,0,0:0:0:0:
383,96,31244,1,0,0:0:0:0:
383,96,31310,1,0,0:0:0:0:
69,60,31440,6,0,L|51:225,1,160
105,335,31831,1,0,0:0:0:0:
161,151,31962,1,0,0:0:0:0:
353,283,32092,2,0,L|241:279,1,80
428,311,32353,2,0,P|397:346|356:354,1,80
321,97,32614,5,0,0:0:0:0:
399,90,32744,1,0,0:0:0:0:
406,168,32875,1,0,0:0:0:0:
328,175,33005,1,0,0:0:0:0:
89,130,33136,6,0,P|130:121|190:125,1,80
49,218,33397,1,0,0:0:0:0:
37,56,33527,1,0,0:0:0:0:
299,46,33657,2,0,P|245:64|197:49,1,80
136,37,33918,1,0,0:0:0:0:
462,156,34179,5,0,0:0:0:0:
218,178,34310,1,0,0:0:0:0:
48,359,34440,1,0,0:0:0:0:
48,359,34505,1,0,0:0:0:0:
48,359,34570,1,0,0:0:0:0:
253,109,34701,6,0,P|199:107|151:134,1,80
105,269,34962,1,0,0:0:0:0:
39,119,35092,1,0,0:0:0:0:
279,243,35223,1,0,0:0:0:0:
176,351,35353,1,0,0:0:0:0:
64,210,35484,1,0,0:0:0:0:
211,86,35614,1,0,0:0:0:0:
436,324,35744,6,0,P|463:278|459:222,1,80
189,111,36005,2,0,P|248:118|288:110,1,80
351,46,36266,1,0,0:0:0:0:
346,196,36396,1,0,0:0:0:0:
100,58,36526,2,0,P|81:104|82:138,1,80
149,327,36788,5,0,0:0:0:0:
177,116,36918,1,0,0:0:0:0:
31,224,37049,2,0,L|126:241,1,80
417,295,37310,2,0,P|368:306|328:296,1,80
357,58,37570,1,0,0:0:0:0:
457,342,37701,2,0,P|367:368|294:341,1,160
133,322,38092,2,0,P|106:269|110:230,1,80
168,66,38353,1,0,0:0:0:0:
186,257,38484,1,0,0:0:0:0:
22,38,38614,2,0,P|70:32|112:45,1,80
325,161,38875,6,0,P|370:175|428:169,2,80
224,63,39266,1,0,0:0:0:0:
129,154,39397,2,0,P|80:171|46:168,1,80
92,58,39657,1,0,0:0:0:0:
226,193,39788,1,0,0:0:0:0:
363,74,39918,5,0,0:0:0:0:
274,303,40049,1,0,0:0:0:0:
49,233,40179,5,0,0:0:0:0:
133,15,40310,1,0,0:0:0:0:
468,55,40440,5,0,0:0:0:0:
474,374,40570,1,0,0:0:0:0:
53,56,40701,5,0,0:0:0:0:
62,93,40766,1,0,0:0:0:0:
72,132,40831,1,0,0:0:0:0:
83,171,40896,1,0,0:0:0:0:
93,210,40961,1,0,0:0:0:0:
430,91,41223,6,0,L|414:187,1,80
324,321,41484,1,0,0:0:0:0:
266,101,41614,1,0,0:0:0:0:
504,0,41744,1,0,0:0:0:0:
141,301,41875,2,0,P|114:253|135:146,1,160
339,79,42266,2,0,P|335:137|310:172,1,80
211,217,42527,1,0,0:0:0:0:
89,61,42657,1,0,0:0:0:0:
33,261,42788,2,0,L|32:347,1,80
337,306,43049,5,0,0:0:0:0:
162,352,43179,1,0,0:0:0:0:
357,302,43310,2,0,P|411:303|442:317,1,80
434,110,43570,1,0,0:0:0:0:
177,235,43701,1,0,0:0:0:0:
4,33,43831,1,0,0:0:0:0:
497,69,43962,2,0,P|463:41|365:80,1,160
122,178,44353,2,0,P|104:133|125:92,1,80
202,328,44614,1,0,0:0:0:0:
29,236,44744,1,0,0:0:0:0:
266,34,44875,2,0,L|248:128,1,80
270,191,45070,1,0,0:0:0:0:
270,191,45136,6,0,L|364:199,1,80
124,259,45397,2,0,L|15:280,1,80
130,87,45657,1,0,0:0:0:0:
368,127,45788,1,0,0:0:0:0:
476,359,45918,1,0,0:0:0:0:
434,91,46049,2,0,P|441:144|429:180,2,80
276,38,46440,1,0,0:0:0:0:
293,272,46570,1,0,0:0:0:0:
511,238,46701,1,0,0:0:0:0:
494,6,46831,1,0,0:0:0:0:
38,329,46962,2,0,P|91:350|136:342,1,80
399,97,47223,5,0,0:0:0:0:
374,259,47353,1,0,0:0:0:0:
99,231,47484,5,0,0:0:0:0:
206,42,47614,1,0,0:0:0:0:
167,116,47744,2,0,P|134:78|132:21,1,80
235,234,48005,2,0,P|170:219|98:282,1,160
196,359,48397,1,0,0:0:0:0:
436,241,48527,2,0,L|441:150,1,80
430,53,48788,5,0,0:0:0:0:
196,256,48918,1,0,0:0:0:0:
0,134,49049,1,0,0:0:0:0:
0,134,49114,1,0,0:0:0:0:
0,134,49179,1,0,0:0:0:0:
165,29,49310,6,0,L|178:224,1,160
95,130,49701,1,0,0:0:0:0:
69,56,49831,2,0,P|28:86|14:124,1,80
170,323,50092,2,0,L|89:304,1,80
458,293,50353,2,0,P|412:326|294:316,1,160
285,110,50744,1,0,0:0:0:0:
382,211,50875,1,0,0:0:0:0:
167,216,51005,1,0,0:0:0:0:
428,166,51136,2,0,L|422:270,1,80
141,309,51397,6,0,L|142:146,1,160
277,99,51788,1,0,0:0:0:0:
324,309,51918,2,0,P|251:325|220:322,1,80
43,133,52179,2,0,L|42:226,1,80
348,127,52440,2,0,P|346:68|261:25,1,160
150,84,52831,1,0,0:0:0:0:
125,310,52962,5,0,0:0:0:0:
416,310,53092,1,0,0:0:0:0:
290,211,53223,2,0,P|233:213|187:199,1,80
35,153,53484,5,0,0:0:0:0:
38,234,53614,1,0,0:0:0:0:
224,328,53744,2,0,P|285:318|325:327,1,80
477,348,54005,1,0,0:0:0:0:
499,140,54136,2,0,L|495:232,1,80
469,12,54397,2,0,P|426:66|337:69,1,160
192,77,54788,5,0,0:0:0:0:
373,13,54918,1,0,0:0:0:0:
361,221,55049,1,0,0:0:0:0:
184,223,55179,5,0,0:0:0:0:
166,7,55310,1,0,0:0:0:0:
422,23,55440,1,0,0:0:0:0:
379,362,55570,5,0,0:0:0:0:
429,255,55701,1,0,0:0:0:0:
437,216,55766,1,0,0:0:0:0:
424,178,55831,1,0,0:0:0:0:
395,152,55896,1,0,0:0:0:0:
356,143,55961,1,0,0:0:0:0:
160,341,56092,5,0,0:0:0:0:
225,50,56222,1,0,0:0:0:0:
475,61,56353,5,0,0:0:0:0:
474,347,56484,1,0,0:0:0:0:
116,384,56614,5,0,0:0:0:0:
0,65,56744,1,0,0:0:0:0:
45,156,56875,1,0,0:0:0:0:
94,157,57136,1,0,0:0:0:0:
158,161,57397,1,0,0:0:0:0:
373,348,57657,6,0,B|409:285|385:218|422:148,1,200
432,160,57918,1,0,0:0:0:0:
241,39,58049,1,0,0:0:0:0:
36,264,58179,2,0,P|86:308|178:309,1,120.000004577637
337,103,58440,1,0,0:0:0:0:
58,117,58570,1,0,0:0:0:0:
150,384,58701,5,0,0:0:0:0:
424,333,58831,1,0,0:0:0:0:
436,36,58962,1,0,0:0:0:0:
193,142,59092,1,0,0:0:0:0:
12,48,59223,2,0,L|-2:195,1,120.000004577637
192,275,59484,1,0,0:0:0:0:
192,275,59549,1,0,0:0:0:0:
192,275,59614,1,0,0:0:0:0:
15,322,59744,6,0,P|97:338|138:328,1,120.000004577637
453,349,60005,1,0,0:0:0:0:
436,12,60136,1,0,0:0:0:0:
118,51,60266,2,0,L|94:174,1,120.000004577637
267,264,60527,1,0,0:0:0:0:
310,254,60592,1,0,0:0:0:0:
349,232,60657,1,0,0:0:0:0:
381,200,60722,1,0,0:0:0:0:
401,160,60788,6,0,P|411:80|451:34,1,120.000004577637
457,344,61049,2,0,L|324:347,1,120.000004577637
198,69,61310,1,0,0:0:0:0:
321,299,61440,1,0,0:0:0:0:
114,341,61570,2,0,L|97:209,1,120.000004577637
87,123,61766,1,0,0:0:0:0:
87,123,61831,6,0,P|148:93|207:94,1,120.000004577637
481,188,62092,1,0,0:0:0:0:
159,53,62223,1,0,0:0:0:0:
103,376,62353,1,0,0:0:0:0:
482,357,62484,1,0,0:0:0:0:
200,91,62614,2,0,L|201:213,1,120.000004577637
26,350,62875,6,0,P|66:286|65:231,1,120.000004577637
34,62,63136,1,0,0:0:0:0:
287,55,63266,1,0,0:0:0:0:
153,24,63397,2,0,L|124:169,1,120.000004577637
272,304,63657,2,0,P|213:328|154:313,1,120.000004577637
473,86,63918,5,0,0:0:0:0:
442,333,64049,1,0,0:0:0:0:
114,314,64179,1,0,0:0:0:0:
95,46,64310,1,0,0:0:0:0:
428,38,64440,1,0,0:0:0:0:
296,322,64570,1,0,0:0:0:0:
104,177,64701,2,0,P|58:125|60:58,2,120.000004577637
312,183,65092,1,0,0:0:0:0:
42,328,65223,2,0,L|185:328,1,120.000004577637
437,282,65484,5,0,0:0:0:0:
197,328,65614,1,0,0:0:0:0:
50,75,65744,5,0,0:0:0:0:
491,134,65875,1,0,0:0:0:0:
423,15,66005,6,0,L|405:148,1,120.000004577637
281,353,66266,1,0,0:0:0:0:
425,58,66397,1,0,0:0:0:0:
83,88,66527,1,0,0:0:0:0:
143,384,66657,1,0,0:0:0:0:
254,101,66788,2,0,P|193:75|125:75,1,120.000004577637
58,276,67049,5,0,0:0:0:0:
58,50,67179,1,0,0:0:0:0:
72,290,67310,2,0,P|128:321|187:308,1,120.000004577637
301,137,67570,1,0,0:0:0:0:
38,182,67701,1,0,0:0:0:0:
137,373,67831,1,0,0:0:0:0:
512,329,67962,1,0,0:0:0:0:
424,86,68092,5,0,0:0:0:0:
371,384,68223,1,0,0:0:0:0:
28,299,68354,5,0,0:0:0:0:
83,13,68484,1,0,0:0:0:0:
456,64,68614,5,0,0:0:0:0:
434,342,68744,1,0,0:0:0:0:
52,34,68875,2,0,L|44:223,1,180.000006866455
62,244,69136,1,0,0:0:0:0:
318,121,69266,1,0,0:0:0:0:
136,82,69397,2,0,L|128:214,1,120.000004577637
263,342,69657,5,0,0:0:0:0:
231,54,69788,1,0,0:0:0:0:
470,82,69918,5,0,0:0:0:0:
472,353,70049,1,0,0:0:0:0:
109,175,70179,6,0,L|269:184,1,120.000004577637
408,122,70440,5,0,0:0:0:0:
95,237,70570,1,0,0:0:0:0:
244,371,70701,5,0,0:0:0:0:
512,289,70831,1,0,0:0:0:0:
435,44,70962,5,0,0:0:0:0:
67,101,71092,1,0,0:0:0:0:
25,378,71223,5,0,0:0:0:0:
443,342,71353,1,0,0:0:0:0:
512,63,71484,5,0,0:0:0:0:
2,33,71614,1,0,0:0:0:0:
75,325,71744,5,0,0:0:0:0:
503,267,71875,1,0,0:0:0:0:
452,18,72005,5,0,0:0:0:0:
45,33,72136,1,0,0:0:0:0:
2,384,72266,5,0,0:0:0:0:
42,2,72397,1,0,0:0:0:0:
512,31,72527,5,0,0:0:0:0:
470,345,72657,1,0,0:0:0:0:
29,384,72788,5,0,0:0:0:0:
85,0,72918,1,0,0:0:0:0:
496,52,73049,5,0,0:0:0:0:
459,376,73179,1,0,0:0:0:0:
211,3,73310,5,0,0:0:0:0:
60,259,73440,1,0,0:0:0:0:
60,259,73505,1,0,0:0:0:0:
60,259,73570,1,0,0:0:0:0:
451,221,73701,5,0,0:0:0:0:
451,221,73766,1,0,0:0:0:0:
451,221,73831,1,0,0:0:0:0:
175,32,73962,5,0,0:0:0:0:
175,32,74027,1,0,0:0:0:0:
175,32,74092,1,0,0:0:0:0:
225,340,74223,5,0,0:0:0:0:
225,340,74288,1,0,0:0:0:0:
225,340,74353,2,0,P|217:273|269:186,1,120.000004577637
380,128,74744,1,0,0:0:0:0:
357,274,74875,1,0,0:0:0:0:
59,338,75005,1,0,0:0:0:0:
152,128,75136,1,0,0:0:0:0:
76,83,75266,6,0,P|68:157|139:220,1,160
265,282,75657,1,0,0:0:0:0:
151,139,75788,1,0,0:0:0:0:
24,344,75918,2,0,L|117:343,1,80
333,237,76179,2,0,L|236:241,1,80
399,347,76440,5,0,0:0:0:0:
187,216,76570,1,0,0:0:0:0:
456,71,76701,2,0,L|349:86,1,80
122,303,76962,1,0,0:0:0:0:
121,99,77092,1,0,0:0:0:0:
394,14,77223,1,0,0:0:0:0:
75,359,77353,2,0,L|75:189,1,160
207,61,77744,1,0,0:0:0:0:
207,61,77810,1,0,0:0:0:0:
207,61,77875,1,0,0:0:0:0:
37,88,78005,2,0,P|91:122|133:121,1,80
304,103,78266,2,0,P|359:113|394:130,1,80
442,301,78527,6,0,L|346:329,1,80
165,181,78788,1,0,0:0:0:0:
451,203,78918,1,0,0:0:0:0:
67,235,79049,2,0,L|57:331,1,80
262,352,79310,1,0,0:0:0:0:
470,350,79440,2,0,L|480:182,1,160
296,226,79831,5,0,0:0:0:0:
464,47,79962,1,0,0:0:0:0:
140,114,80092,2,0,P|108:153|62:154,1,80
165,314,80353,2,0,P|106:304|74:278,1,80
356,32,80614,5,0,0:0:0:0:
424,247,80744,1,0,0:0:0:0:
153,352,80875,5,0,0:0:0:0:
196,47,81005,1,0,0:0:0:0:
121,147,81136,2,0,P|172:125|213:129,1,80
89,33,81397,2,0,P|62:73|84:150,1,120
91,156,81657,1,0,0:0:0:0:
75,276,81788,1,0,0:0:0:0:
357,324,81918,2,0,L|250:340,1,80
220,190,82179,1,0,0:0:0:0:
159,350,82310,1,0,0:0:0:0:
421,355,82440,2,0,P|426:310|400:271,1,80
272,108,82701,5,0,0:0:0:0:
474,186,82831,1,0,0:0:0:0:
345,323,82962,1,0,0:0:0:0:
74,279,83092,1,0,0:0:0:0:
93,87,83223,6,0,L|100:192,1,80
222,341,83484,2,0,L|234:233,1,80
416,46,83744,2,0,L|405:224,1,160
354,310,84136,1,0,0:0:0:0:
100,331,84266,2,0,P|80:284|86:230,1,80
165,69,84527,2,0,P|122:83|85:78,1,80
268,334,84788,5,0,0:0:0:0:
292,114,84918,1,0,0:0:0:0:
80,253,85049,2,0,L|169:255,1,80
423,111,85310,2,0,L|315:111,1,80
180,193,85570,1,0,0:0:0:0:
124,64,85701,1,0,0:0:0:0:
28,301,85831,2,0,L|208:304,1,160
378,248,86223,1,0,0:0:0:0:
193,120,86353,1,0,0:0:0:0:
82,211,86484,1,0,0:0:0:0:
272,72,86614,5,0,0:0:0:0:
270,101,86679,1,0,0:0:0:0:
269,131,86744,1,0,0:0:0:0:
267,161,86809,1,0,0:0:0:0:
266,191,86874,1,0,0:0:0:0:
63,118,87005,2,0,L|63:69,1,40
32,276,87136,2,0,P|79:292|123:286,1,80
418,237,87397,1,0,0:0:0:0:
172,354,87527,2,0,L|187:246,1,80
375,44,87788,6,0,P|391:109|354:216,1,160
156,141,88179,1,0,0:0:0:0:
294,102,88310,1,0,0:0:0:0:
351,272,88440,1,0,0:0:0:0:
89,344,88570,1,0,0:0:0:0:
269,273,88701,2,0,L|171:315,1,80
389,349,88962,6,0,P|433:287|514:244,1,160
310,189,89353,1,0,0:0:0:0:
181,37,89484,1,0,0:0:0:0:
0,116,89614,1,0,0:0:0:0:
175,312,89744,2,0,L|168:220,1,80
106,75,90005,5,0,0:0:0:0:
335,79,90136,1,0,0:0:0:0:
371,230,90266,5,0,0:0:0:0:
68,148,90397,1,0,0:0:0:0:
49,235,90527,5,0,0:0:0:0:
58,268,90592,1,0,0:0:0:0:
77,297,90657,1,0,0:0:0:0:
103,320,90722,1,0,0:0:0:0:
135,334,90787,1,0,0:0:0:0:
170,339,90853,1,0,0:0:0:0:
204,333,90918,1,0,0:0:0:0:
235,318,90983,1,0,0:0:0:0:
261,294,91049,6,0,P|344:263|445:294,1,160
416,107,91440,1,0,0:0:0:0:
352,361,91570,1,0,0:0:0:0:
89,321,91701,1,0,0:0:0:0:
163,223,91831,2,0,L|132:45,2,160
269,254,92484,1,0,0:0:0:0:
326,177,92614,2,0,L|314:86,1,80
49,161,92875,2,0,L|64:264,1,80
170,342,93136,5,0,0:0:0:0:
448,270,93266,2,0,L|261:273,2,160
92,186,93918,1,0,0:0:0:0:
453,113,94049,2,0,P|394:147|304:157,2,160
143,124,94701,5,0,0:0:0:0:
342,64,94831,1,0,0:0:0:0:
61,100,94962,2,0,P|59:151|77:186,1,80
158,325,95223,5,0,0:0:0:0:
213,63,95353,2,0,L|208:245,2,160
306,330,96005,1,0,0:0:0:0:
403,59,96136,2,0,P|371:158|327:197,2,160
101,203,96788,5,0,0:0:0:0:
87,82,96918,1,0,0:0:0:0:
404,67,97049,5,0,0:0:0:0:
446,210,97179,1,0,0:0:0:0:
256,51,97310,5,0,0:0:0:0:
115,278,97440,2,0,P|54:264|31:173,2,160
326,136,98092,1,0,0:0:0:0:
57,355,98223,2,0,L|223:351,2,160
377,244,98875,5,0,0:0:0:0:
236,280,99005,1,0,0:0:0:0:
224,69,99136,5,0,0:0:0:0:
415,76,99266,1,0,0:0:0:0:
132,213,99397,6,0,P|78:208|40:182,1,80
125,72,99657,1,0,0:0:0:0:
40,356,99788,2,0,L|26:265,1,80
37,45,100049,1,0,0:0:0:0:
266,58,100179,2,0,P|315:61|260:87,1,160
156,130,100570,1,0,0:0:0:0:
169,156,100636,1,0,0:0:0:0:
191,172,100701,2,0,P|233:190|249:225,1,80
195,308,100962,2,0,P|248:322|293:308,1,80
399,135,101223,1,0,0:0:0:0:
409,327,101353,1,0,0:0:0:0:
435,93,101484,6,0,L|261:123,1,160
153,228,101875,1,0,0:0:0:0:
233,54,102005,1,0,0:0:0:0:
304,285,102136,1,0,0:0:0:0:
102,221,102266,2,0,L|85:168,1,40
42,353,102397,5,0,0:0:0:0:
38,125,102527,1,0,0:0:0:0:
252,8,102657,1,0,0:0:0:0:
71,77,102788,2,0,P|133:62|169:68,1,80
336,119,103049,1,0,0:0:0:0:
127,147,103179,1,0,0:0:0:0:
154,325,103310,1,0,0:0:0:0:
354,298,103440,1,0,0:0:0:0:
452,47,103570,6,0,L|441:159,1,80
239,165,103831,1,0,0:0:0:0:
190,384,103962,1,0,0:0:0:0:
313,298,104092,2,0,L|405:306,1,80
471,114,104353,1,0,0:0:0:0:
164,132,104484,2,0,P|163:191|258:244,1,160
376,59,104875,5,0,0:0:0:0:
377,229,105005,1,0,0:0:0:0:
208,58,105136,2,0,P|141:56|113:73,1,80
74,268,105397,2,0,L|59:173,1,80
150,303,105657,5,0,0:0:0:0:
281,171,105788,1,0,0:0:0:0:
407,20,105918,1,0,0:0:0:0:
172,337,106049,5,0,0:0:0:0:
319,160,106179,1,0,0:0:0:0:
321,0,106310,1,0,0:0:0:0:
116,59,106440,5,0,0:0:0:0:
87,334,106570,1,0,0:0:0:0:
150,108,106701,6,0,L|236:134,1,80
61,280,106962,1,0,0:0:0:0:
430,133,107092,2,0,L|346:155,1,80
93,279,107353,1,0,0:0:0:0:
295,48,107484,1,0,0:0:0:0:
286,359,107614,1,0,0:0:0:0:
70,82,107744,5,0,0:0:0:0:
70,82,107810,1,0,0:0:0:0:
70,82,107875,1,0,0:0:0:0:
192,112,108005,5,0,0:0:0:0:
164,325,108136,1,0,0:0:0:0:
482,234,108266,5,0,0:0:0:0:
383,38,108397,1,0,0:0:0:0:
7,59,108527,5,0,0:0:0:0:
133,350,108657,1,0,0:0:0:0:
474,322,108788,5,0,0:0:0:0:
406,35,108918,1,0,0:0:0:0:
291,334,109049,2,0,P|245:340|177:313,1,120
165,170,109310,2,0,L|162:308,1,120
30,335,109570,2,0,P|76:341|144:314,1,120
276,250,109831,6,0,P|310:147|292:60,1,200
285,48,110092,1,0,0:0:0:0:
58,180,110223,1,0,0:0:0:0:
391,178,110353,2,0,P|456:200|504:267,1,120.000004577637
270,348,110614,1,0,0:0:0:0:
159,104,110744,1,0,0:0:0:0:
464,97,110875,5,0,0:0:0:0:
464,97,110940,1,0,0:0:0:0:
464,97,111005,1,0,0:0:0:0:
128,180,111136,2,0,P|77:136|71:76,1,120.000004577637
427,32,111397,1,0,0:0:0:0:
159,104,111527,1,0,0:0:0:0:
160,362,111657,1,0,0:0:0:0:
509,245,111788,1,0,0:0:0:0:
37,309,111918,6,0,P|101:326|170:298,1,120.000004577637
86,66,112179,1,0,0:0:0:0:
280,0,112310,1,0,0:0:0:0:
434,64,112440,2,0,L|431:203,1,120.000004577637
289,348,112701,1,0,0:0:0:0:
265,309,112766,1,0,0:0:0:0:
248,268,112831,1,0,0:0:0:0:
239,223,112896,1,0,0:0:0:0:
239,179,112962,6,0,P|247:116|240:59,1,120.000004577637
120,330,113223,1,0,0:0:0:0:
91,113,113353,1,0,0:0:0:0:
430,335,113484,2,0,P|430:251|411:183,1,120.000004577637
395,57,113744,1,0,0:0:0:0:
47,223,113875,1,0,0:0:0:0:
47,223,113940,1,0,0:0:0:0:
47,223,114005,6,0,P|113:235|200:207,1,120.000004577637
350,130,114266,1,0,0:0:0:0:
320,333,114397,1,0,0:0:0:0:
119,29,114527,2,0,L|98:154,1,120.000004577637
105,329,114788,2,0,L|37:349,1,60.0000022888184
190,339,114918,1,0,0:0:0:0:
190,339,114984,1,0,0:0:0:0:
190,339,115049,6,0,P|228:278|299:255,1,120.000004577637
443,322,115310,1,0,0:0:0:0:
360,99,115440,1,0,0:0:0:0:
79,168,115570,2,0,L|220:162,2,120.000004577637
166,65,115962,1,0,0:0:0:0:
450,142,116092,5,0,0:0:0:0:
150,207,116223,1,0,0:0:0:0:
65,46,116353,5,0,0:0:0:0:
438,10,116484,1,0,0:0:0:0:
500,340,116614,5,0,0:0:0:0:
10,302,116744,1,0,0:0:0:0:
451,187,116875,5,0,0:0:0:0:
96,144,117005,2,0,P|230:134|347:58,1,240.000009155274
172,257,117397,1,0,0:0:0:0:
399,73,117527,1,0,0:0:0:0:
40,233,117657,2,0,P|49:318|84:355,1,120.000004577637
348,294,117918,1,0,0:0:0:0:
223,146,118049,1,0,0:0:0:0:
168,356,118179,5,0,0:0:0:0:
223,70,118310,1,0,0:0:0:0:
468,65,118440,5,0,0:0:0:0:
455,373,118570,1,0,0:0:0:0:
13,347,118701,5,0,0:0:0:0:
47,40,118831,1,0,0:0:0:0:
55,221,118962,6,0,P|117:251|183:235,2,120.000004577637
106,53,119353,1,0,0:0:0:0:
286,234,119484,1,0,0:0:0:0:
60,333,119614,1,0,0:0:0:0:
329,161,119744,2,0,P|402:163|453:192,1,120.000004577637
214,294,120005,2,0,P|150:292|98:255,1,120.000004577637
415,277,120266,5,0,0:0:0:0:
245,78,120397,1,0,0:0:0:0:
0,108,120527,1,0,0:0:0:0:
452,239,120657,5,0,0:0:0:0:
240,39,120788,1,0,0:0:0:0:
0,157,120918,1,0,0:0:0:0:
428,66,121049,6,0,L|407:251,1,180.000006866455
386,285,121310,1,0,0:0:0:0:
182,193,121440,1,0,0:0:0:0:
37,304,121570,2,0,P|110:313|157:293,1,120.000004577637
260,33,121831,2,0,P|238:107|251:153,1,120.000004577637
294,320,122092,1,0,0:0:0:0:
90,92,122223,1,0,0:0:0:0:
309,323,122353,6,0,P|381:332|446:317,1,120.000004577637
359,16,122614,5,0,0:0:0:0:
469,344,122744,1,0,0:0:0:0:
68,313,122875,5,0,0:0:0:0:
64,46,123005,1,0,0:0:0:0:
512,35,123136,5,0,0:0:0:0:
340,357,123266,1,0,0:0:0:0:
68,358,123397,5,0,0:0:0:0:
73,48,123527,1,0,0:0:0:0:
456,27,123657,5,0,0:0:0:0:
478,374,123788,1,0,0:0:0:0:
3,372,123918,5,0,0:0:0:0:
99,12,124049,1,0,0:0:0:0:
477,0,124179,5,0,0:0:0:0:
463,349,124310,1,0,0:0:0:0:
0,337,124440,5,0,0:0:0:0:
503,337,124570,1,0,0:0:0:0:
477,0,124701,5,0,0:0:0:0:
27,27,124831,1,0,0:0:0:0:
3,384,124962,5,0,0:0:0:0:
475,269,125092,1,0,0:0:0:0:
488,14,125223,5,0,0:0:0:0:
1,72,125353,1,0,0:0:0:0:
24,384,125484,5,0,0:0:0:0:
42,240,125614,5,0,0:0:0:0:
58,241,125679,1,0,0:0:0:0:
79,238,125744,1,0,0:0:0:0:
380,25,125875,5,0,0:0:0:0:
374,43,125940,1,0,0:0:0:0:
373,62,126005,1,0,0:0:0:0:
395,342,126136,5,0,0:0:0:0:
382,330,126201,1,0,0:0:0:0:
362,325,126266,1,0,0:0:0:0:
37,84,126397,5,0,0:0:0:0:
56,79,126462,1,0,0:0:0:0:
75,72,126527,6,0,P|128:70|182:81,1,60.0000022888184
240,257,126788,1,0,0:0:0:0:
446,92,126918,2,0,P|386:93|348:102,1,80
131,289,127179,1,0,0:0:0:0:
302,318,127310,2,0,P|323:276|269:177,1,160
127,184,127701,1,0,0:0:0:0:
326,77,127831,1,0,0:0:0:0:
512,119,127962,1,0,0:0:0:0:
54,294,128092,6,0,P|106:313|152:315,1,80
397,220,128353,1,0,0:0:0:0:
160,305,128484,2,0,P|208:294|250:300,1,80
426,232,128744,1,0,0:0:0:0:
298,354,128875,2,0,P|314:282|232:214,1,160
74,154,129266,1,0,0:0:0:0:
118,84,129397,1,0,0:0:0:0:
191,57,129527,1,0,0:0:0:0:
454,47,129657,6,0,L|435:143,1,80
378,263,129918,1,0,0:0:0:0:
247,46,130049,2,0,L|254:145,1,80
393,281,130310,1,0,0:0:0:0:
121,316,130440,2,0,P|155:266|144:155,1,160
46,76,130831,1,0,0:0:0:0:
141,45,130962,1,0,0:0:0:0:
46,76,131092,1,0,0:0:0:0:
276,203,131223,6,0,L|186:234,1,80
67,162,131484,1,0,0:0:0:0:
331,292,131614,2,0,L|428:318,1,80
371,101,131875,1,0,0:0:0:0:
135,354,132005,2,0,L|123:167,3,160
273,117,133049,6,0,P|322:127|384:108,1,80
450,55,133309,2,0,P|430:135|445:229,1,160
431,325,133701,1,0,0:0:0:0:
232,286,133831,2,0,L|149:269,1,80
61,347,134092,5,0,0:0:0:0:
232,206,134222,1,0,0:0:0:0:
307,9,134353,1,0,0:0:0:0:
334,78,134483,2,0,L|252:116,1,80
129,196,134744,1,0,0:0:0:0:
405,55,134875,2,0,P|405:106|386:133,1,80
233,236,135135,6,0,L|324:243,1,80
80,311,135396,2,0,P|142:239|150:143,1,160
107,70,135788,1,0,0:0:0:0:
48,178,135918,1,0,0:0:0:0:
109,368,136049,1,0,0:0:0:0:
295,167,136179,2,0,P|356:195|406:200,2,80
138,263,136570,1,0,0:0:0:0:
373,118,136701,2,0,L|419:30,2,80
335,328,137092,1,0,0:0:0:0:
75,317,137222,6,0,P|57:275|64:239,1,80
63,61,137483,2,0,P|96:130|181:150,1,160
154,65,137875,1,0,0:0:0:0:
319,65,138005,2,0,L|406:89,1,80
400,314,138266,5,0,0:0:0:0:
444,170,138396,1,0,0:0:0:0:
256,271,138527,1,0,0:0:0:0:
77,155,138657,2,0,L|164:143,1,80
206,323,138918,1,0,0:0:0:0:
110,102,139049,2,0,L|201:88,1,80
427,128,139309,6,0,L|329:104,1,80
184,235,139570,2,0,P|250:291|335:280,1,160
397,250,139962,1,0,0:0:0:0:
158,141,140092,1,0,0:0:0:0:
31,331,140222,1,0,0:0:0:0:
266,196,140353,6,0,P|280:135|270:101,1,80
59,63,140614,2,0,L|67:155,1,80
301,315,140875,5,0,0:0:0:0:
137,253,141005,1,0,0:0:0:0:
393,338,141135,1,0,0:0:0:0:
393,308,141200,1,0,0:0:0:0:
393,278,141265,1,0,0:0:0:0:
393,248,141330,1,0,0:0:0:0:
393,218,141396,6,0,P|391:162|410:107,1,80
445,42,141657,2,0,P|391:53|268:26,1,160
186,65,142049,1,0,0:0:0:0:
196,205,142179,1,0,0:0:0:0:
296,362,142309,1,0,0:0:0:0:
64,162,142440,6,0,P|57:221|70:256,1,80
237,295,142701,1,0,0:0:0:0:
80,333,142831,1,0,0:0:0:0:
261,286,142962,2,0,P|307:287|348:304,1,80
474,264,143222,2,0,P|429:297|382:287,1,80
183,209,143483,5,0,0:0:0:0:
254,76,143614,1,0,0:0:0:0:
102,221,143744,2,0,P|150:287|229:275,1,160
351,201,144135,1,0,0:0:0:0:
183,209,144266,2,0,P|166:131|176:107,1,80
71,69,144527,1,0,0:0:0:0:
373,36,144657,1,0,0:0:0:0:
183,209,144788,2,0,P|227:196|275:197,1,80
451,295,145049,5,0,0:0:0:0:
381,122,145179,1,0,0:0:0:0:
217,310,145309,2,0,P|158:317|111:290,1,80
39,76,145570,6,0,L|29:169,1,80
158,258,145831,1,0,0:0:0:0:
287,71,145962,2,0,P|229:53|188:60,2,80
351,226,146353,2,0,L|368:145,1,80
420,66,146614,1,0,0:0:0:0:
446,219,146744,1,0,0:0:0:0:
245,306,146875,6,0,P|197:296|155:306,1,80
58,344,147135,1,0,0:0:0:0:
146,225,147266,1,0,0:0:0:0:
49,126,147396,1,0,0:0:0:0:
81,102,147461,1,0,0:0:0:0:
118,87,147526,1,0,0:0:0:0:
157,81,147591,1,0,0:0:0:0:
197,85,147657,6,0,P|242:99|282:88,1,80
351,67,147918,5,0,0:0:0:0:
347,212,148048,1,0,0:0:0:0:
220,250,148179,5,0,0:0:0:0:
197,27,148309,1,0,0:0:0:0:
441,18,148440,5,0,0:0:0:0:
430,274,148570,1,0,0:0:0:0:
430,274,148635,1,0,0:0:0:0:
430,274,148701,5,0,0:0:0:0:
176,153,148831,1,0,0:0:0:0:
442,126,148962,1,0,0:0:0:0:
279,82,149222,5,0,0:0:0:0:
342,322,149353,1,0,0:0:0:0:
70,253,149483,1,0,0:0:0:0:
362,183,149614,1,0,0:0:0:0:
76,96,149744,6,0,P|123:109|160:135,1,80
149,287,150005,1,0,0:0:0:0:
53,156,150135,1,0,0:0:0:0:
246,109,150266,1,0,0:0:0:0:
278,287,150396,1,0,0:0:0:0:
39,313,150527,1,0,0:0:0:0:
84,67,150657,1,0,0:0:0:0:
422,60,150788,5,0,0:0:0:0:
56,107,150918,1,0,0:0:0:0:
73,322,151048,1,0,0:0:0:0:
449,291,151179,1,0,0:0:0:0:
405,50,151309,5,0,0:0:0:0:
41,56,151440,1,0,0:0:0:0:
29,369,151570,5,0,0:0:0:0:
461,339,151701,1,0,0:0:0:0:
442,183,151831,6,0,P|453:131|438:77,1,80
263,64,152092,5,0,0:0:0:0:
416,74,152222,1,0,0:0:0:0:
387,250,152353,5,0,0:0:0:0:
151,298,152483,1,0,0:0:0:0:
33,57,152614,5,0,0:0:0:0:
440,67,152744,1,0,0:0:0:0:
482,339,152875,5,0,0:0:0:0:
60,336,153005,1,0,0:0:0:0:
81,50,153135,1,0,0:0:0:0:
81,50,153201,1,0,0:0:0:0:
81,50,153266,1,0,0:0:0:0:
436,54,153396,5,0,0:0:0:0:
479,350,153527,1,0,0:0:0:0:
100,334,153657,1,0,0:0:0:0:
100,334,153722,1,0,0:0:0:0:
100,334,153788,1,0,0:0:0:0:
442,57,153918,6,0,P|387:46|337:48,1,80
124,144,154179,1,0,0:0:0:0:
233,271,154309,1,0,0:0:0:0:
473,193,154440,1,0,0:0:0:0:
76,190,154570,1,0,0:0:0:0:
275,296,154700,1,0,0:0:0:0:
467,154,154831,1,0,0:0:0:0:
116,34,154962,5,0,0:0:0:0:
92,343,155092,1,0,0:0:0:0:
450,286,155222,5,0,0:0:0:0:
414,18,155353,1,0,0:0:0:0:
31,122,155483,5,0,0:0:0:0:
157,356,155614,1,0,0:0:0:0:
469,296,155744,5,0,0:0:0:0:
354,13,155875,1,0,0:0:0:0:
68,55,156005,5,0,0:0:0:0:
359,29,156135,1,0,0:0:0:0:
438,318,156266,5,0,0:0:0:0:
29,339,156396,1,0,0:0:0:0:
25,44,156527,5,0,0:0:0:0:
426,81,156657,1,0,0:0:0:0:
377,344,156788,5,0,0:0:0:0:
15,258,156918,1,0,0:0:0:0:
100,24,157048,5,0,0:0:0:0:
473,135,157179,1,0,0:0:0:0:
443,362,157309,5,0,0:0:0:0:
20,290,157440,1,0,0:0:0:0:
135,34,157570,5,0,0:0:0:0:
234,267,157701,1,0,0:0:0:0:
389,99,157831,1,0,0:0:0:0:
383,158,157896,1,0,0:0:0:0:
378,218,157961,1,0,0:0:0:0:
372,278,158026,1,0,0:0:0:0:
367,338,158092,6,0,P|296:355|205:329,1,160
205,150,158483,1,0,0:0:0:0:
67,352,158614,2,0,L|58:262,1,80
263,105,158875,2,0,P|274:177|261:198,1,80
51,150,159135,5,0,0:0:0:0:
192,258,159266,1,0,0:0:0:0:
357,227,159396,2,0,P|407:232|452:257,1,80
133,313,159657,2,0,P|115:269|118:231,1,80
390,120,159918,1,0,0:0:0:0:
358,354,160048,1,0,0:0:0:0:
101,98,160179,6,0,P|152:122|190:113,1,80
362,45,160440,2,0,P|322:75|310:120,1,80
253,339,160701,1,0,0:0:0:0:
282,154,160831,1,0,0:0:0:0:
479,150,160962,1,0,0:0:0:0:
462,360,161092,1,0,0:0:0:0:
32,259,161222,6,0,L|226:271,1,160
111,55,161614,1,0,0:0:0:0:
155,226,161744,1,0,0:0:0:0:
329,163,161875,1,0,0:0:0:0:
85,90,162005,2,0,L|68:191,1,80
374,336,162266,6,0,P|410:304|421:258,1,80
364,60,162527,1,0,0:0:0:0:
364,60,162592,1,0,0:0:0:0:
364,60,162657,1,0,0:0:0:0:
213,253,162788,1,0,0:0:0:0:
466,124,162918,1,0,0:0:0:0:
187,264,163048,1,0,0:0:0:0:
492,108,163179,2,0,L|318:103,1,160
167,191,163570,1,0,0:0:0:0:
325,265,163701,1,0,0:0:0:0:
116,72,163831,5,0,0:0:0:0:
100,308,163962,1,0,0:0:0:0:
367,287,164092,1,0,0:0:0:0:
413,29,164222,1,0,0:0:0:0:
370,346,164353,5,0,0:0:0:0:
308,71,164483,1,0,0:0:0:0:
308,71,164614,1,0,0:0:0:0:
206,370,164744,5,0,0:0:0:0:
211,44,164875,1,0,0:0:0:0:
211,44,165005,1,0,0:0:0:0:
426,198,165135,5,0,0:0:0:0:
94,227,165266,1,0,0:0:0:0:
421,50,165396,5,0,0:0:0:0:
187,308,165527,1,0,0:0:0:0:
187,308,165657,1,0,0:0:0:0:
80,67,165788,5,0,0:0:0:0:
374,320,165918,1,0,0:0:0:0:
374,320,166048,1,0,0:0:0:0:
257,27,166179,5,0,0:0:0:0:
253,366,166309,1,0,0:0:0:0:
253,366,166375,1,0,0:0:0:0:
253,366,166440,5,0,0:0:0:0:
126,107,166570,1,0,0:0:0:0:
440,109,166701,5,0,0:0:0:0:
500,341,166831,1,0,0:0:0:0:
112,329,166962,5,0,0:0:0:0:
188,17,167092,1,0,0:0:0:0:
50,47,167222,5,0,0:0:0:0:
52,116,167287,1,0,0:0:0:0:
55,186,167352,1,0,0:0:0:0:
57,256,167417,1,0,0:0:0:0:
60,326,167482,1,0,0:0:0:0:
251,36,167614,1,0,0:0:0:0:
75,330,167744,6,0,P|128:341|202:315,1,120
437,323,168005,2,0,P|376:328|299:310,1,120
251,106,168266,2,0,L|251:300,1,160
109,63,172179,5,0,0:0:0:0:
130,112,172244,1,0,0:0:0:0:
174,142,172309,1,0,0:0:0:0:
229,140,172375,1,0,0:0:0:0:
273,109,172440,1,0,0:0:0:0:
353,121,172505,1,0,0:0:0:0:
399,187,172570,1,0,0:0:0:0:
390,267,172635,1,0,0:0:0:0:
323,315,172701,6,0,P|256:301|158:307,1,136.000002593994
55,344,172962,1,0,0:0:0:0:
289,191,173092,1,0,0:0:0:0:
36,56,173222,2,0,P|119:44|178:53,1,136.000002593994
368,73,173483,1,0,0:0:0:0:
424,368,173614,1,0,0:0:0:0:
409,42,173744,6,0,L|398:209,1,136.000002593994
223,338,174005,1,0,0:0:0:0:
301,119,174135,1,0,0:0:0:0:
512,176,174266,1,0,0:0:0:0:
505,360,174396,1,0,0:0:0:0:
235,50,174527,2,0,P|318:32|375:56,1,136.000002593994
478,152,174788,5,0,0:0:0:0:
111,303,174918,1,0,0:0:0:0:
35,40,175048,5,0,0:0:0:0:
484,56,175179,1,0,0:0:0:0:
512,327,175309,5,0,0:0:0:0:
6,107,175440,1,0,0:0:0:0:
64,310,175570,2,0,P|156:345|266:306,1,204.000003890991
415,326,175831,1,0,0:0:0:0:
161,206,175962,1,0,0:0:0:0:
384,22,176092,1,0,0:0:0:0:
384,22,176353,5,0,0:0:0:0:
321,333,176483,1,0,0:0:0:0:
10,350,176614,1,0,0:0:0:0:
20,17,176744,1,0,0:0:0:0:
136,261,176875,6,0,P|57:247|-17:256,1,136.000002593994
357,157,177135,1,0,0:0:0:0:
48,327,177266,1,0,0:0:0:0:
382,154,177396,2,0,P|457:143|515:164,1,136.000002593994
86,185,177657,2,0,P|32:124|114:172,1,272.000005187988
200,352,178048,1,0,0:0:0:0:
312,172,178179,1,0,0:0:0:0:
512,47,178309,1,0,0:0:0:0:
103,76,178440,5,0,0:0:0:0:
426,110,178570,1,0,0:0:0:0:
457,296,178701,5,0,0:0:0:0:
62,331,178831,1,0,0:0:0:0:
28,60,178962,6,0,P|39:146|74:238,1,136.000002593994
424,288,179222,1,0,0:0:0:0:
140,93,179353,1,0,0:0:0:0:
145,345,179483,2,0,P|230:350|290:333,1,136.000002593994
454,33,179744,6,0,P|353:92|298:194,1,204.000003890991
297,220,180005,1,0,0:0:0:0:
85,27,180135,1,0,0:0:0:0:
69,343,180266,2,0,L|212:345,1,136.000002593994
448,140,180527,2,0,P|403:211|341:237,1,136.000002593994
69,245,180788,1,0,0:0:0:0:
121,202,180853,1,0,0:0:0:0:
155,143,180918,1,0,0:0:0:0:
167,77,180983,1,0,0:0:0:0:
155,10,181048,5,0,0:0:0:0:
430,113,181179,1,0,0:0:0:0:
449,312,181309,5,0,0:0:0:0:
4,231,181440,1,0,0:0:0:0:
403,20,181570,5,0,0:0:0:0:
372,384,181701,1,0,0:0:0:0:
118,378,181831,5,0,0:0:0:0:
72,6,181962,1,0,0:0:0:0:
507,82,182092,5,0,0:0:0:0:
0,99,182222,1,0,0:0:0:0:
17,357,182353,5,0,0:0:0:0:
512,319,182483,1,0,0:0:0:0:
512,12,182614,5,0,0:0:0:0:
0,15,182744,1,0,0:0:0:0:
0,384,182875,5,0,0:0:0:0:
512,384,183005,1,0,0:0:0:0:
512,0,183135,5,0,0:0:0:0:
0,332,183266,1,0,0:0:0:0:
0,332,183331,1,0,0:0:0:0:
0,332,183396,1,0,0:0:0:0:
512,282,183527,1,0,0:0:0:0:
512,1,183657,5,0,0:0:0:0:
0,41,183788,1,0,0:0:0:0:
0,384,183918,5,0,0:0:0:0:
512,357,184048,1,0,0:0:0:0:
484,13,184179,5,0,0:0:0:0:
512,357,184309,1,0,0:0:0:0:
0,383,184440,5,0,0:0:0:0:
6,0,184570,1,0,0:0:0:0:
473,0,184701,5,0,0:0:0:0:
512,372,184831,1,0,0:0:0:0:
233,348,184962,1,0,0:0:0:0:
318,292,185027,1,0,0:0:0:0:
381,213,185092,1,0,0:0:0:0:
418,118,185157,1,0,0:0:0:0:
423,17,185222,6,0,P|343:46|230:38,1,136.000002593994
111,50,185483,1,0,0:0:0:0:
122,325,185614,1,0,0:0:0:0:
455,242,185744,2,0,P|443:165|379:132,1,136.000002593994
33,173,186005,1,0,0:0:0:0:
373,217,186135,1,0,0:0:0:0:
92,38,186266,2,0,L|82:213,1,136.000002593994
64,353,186527,1,0,0:0:0:0:
261,76,186657,1,0,0:0:0:0:
512,138,186788,5,0,0:0:0:0:
406,377,186918,1,0,0:0:0:0:
52,294,187048,1,0,0:0:0:0:
7,14,187179,1,0,0:0:0:0:
67,123,187309,6,0,L|231:135,1,136.000002593994
494,353,187570,1,0,0:0:0:0:
348,94,187701,1,0,0:0:0:0:
348,94,187766,1,0,0:0:0:0:
348,94,187831,1,0,0:0:0:0:
86,29,187962,1,0,0:0:0:0:
48,350,188092,2,0,L|199:356,1,136.000002593994
393,43,188353,6,0,P|371:126|480:280,1,272.000005187988
0,139,188744,1,0,0:0:0:0:
459,153,188875,1,0,0:0:0:0:
52,300,189005,1,0,0:0:0:0:
343,348,189135,1,0,0:0:0:0:
341,297,189200,1,0,0:0:0:0:
340,246,189265,1,0,0:0:0:0:
338,195,189330,1,0,0:0:0:0:
337,144,189396,6,0,P|346:47|378:8,1,136.000002593994
443,275,189657,1,0,0:0:0:0:
92,50,189788,1,0,0:0:0:0:
46,317,189918,2,0,P|120:336|196:327,1,136.000002593994
436,99,190179,1,0,0:0:0:0:
385,91,190244,1,0,0:0:0:0:
334,87,190309,1,0,0:0:0:0:
283,87,190374,1,0,0:0:0:0:
232,90,190440,6,0,P|144:104|69:88,1,136.000002593994
251,259,190701,1,0,0:0:0:0:
0,29,190831,1,0,0:0:0:0:
275,266,190962,2,0,P|359:278|432:266,1,136.000002593994
413,34,191222,1,0,0:0:0:0:
406,351,191353,1,0,0:0:0:0:
193,54,191483,5,0,0:0:0:0:
466,189,191614,1,0,0:0:0:0:
261,362,191744,5,0,0:0:0:0:
0,207,191875,1,0,0:0:0:0:
433,43,192005,5,0,0:0:0:0:
406,336,192135,1,0,0:0:0:0:
458,43,192266,2,0,L|436:325,1,272.000005187988
0,113,192657,1,0,0:0:0:0:
333,350,192788,2,0,L|362:50,1,272.000005187988
234,20,193179,1,0,0:0:0:0:
210,233,193309,1,0,0:0:0:0:
0,358,193440,1,0,0:0:0:0:
500,166,193570,5,0,0:0:0:0:
220,370,193701,1,0,0:0:0:0:
54,108,193831,1,0,0:0:0:0:
295,0,193962,1,0,0:0:0:0:
59,295,194092,2,0,P|30:220|54:163,1,136.000002593994
463,63,194353,2,0,P|378:138|203:143,1,272.000005187988
101,40,194744,5,0,0:0:0:0:
477,351,194875,2,0,L|304:305,1,136.000002593994
272,36,195135,1,0,0:0:0:0:
464,252,195266,1,0,0:0:0:0:
32,348,195396,2,0,L|82:189,1,136.000002593994
400,75,195657,5,0,0:0:0:0:
142,328,195788,1,0,0:0:0:0:
64,55,195918,5,0,0:0:0:0:
450,23,196048,1,0,0:0:0:0:
512,342,196179,5,0,0:0:0:0:
31,361,196309,1,0,0:0:0:0:
17,248,196440,2,0,P|88:264|283:222,1,272.000005187988
453,66,196831,1,0,0:0:0:0:
115,142,196962,2,0,P|111:239|205:389,1,272.000005187988
479,296,197353,1,0,0:0:0:0:
215,71,197483,1,0,0:0:0:0:
28,348,197614,1,0,0:0:0:0:
470,184,197744,6,0,L|280:213,1,136.000002593994
0,144,198005,5,0,0:0:0:0:
488,266,198135,1,0,0:0:0:0:
493,28,198266,5,0,0:0:0:0:
0,70,198396,1,0,0:0:0:0:
0,316,198527,5,0,0:0:0:0:
512,306,198657,1,0,0:0:0:0:
472,0,198788,5,0,0:0:0:0:
0,31,198918,1,0,0:0:0:0:
0,384,199048,5,0,0:0:0:0:
512,348,199179,1,0,0:0:0:0:
512,2,199309,5,0,0:0:0:0:
0,61,199440,1,0,0:0:0:0:
0,370,199570,5,0,0:0:0:0:
512,380,199701,1,0,0:0:0:0:
512,18,199831,5,0,0:0:0:0:
507,384,199962,1,0,0:0:0:0:
0,384,200092,5,0,0:0:0:0:
0,0,200222,1,0,0:0:0:0:
512,0,200353,5,0,0:0:0:0:
512,384,200483,1,0,0:0:0:0:
0,384,200614,5,0,0:0:0:0:
0,0,200744,1,0,0:0:0:0:
512,0,200875,5,0,0:0:0:0:
88,269,201005,1,0,0:0:0:0:
58,281,201070,1,0,0:0:0:0:
18,289,201135,1,0,0:0:0:0:
289,30,201266,5,0,0:0:0:0:
301,57,201331,1,0,0:0:0:0:
304,88,201396,1,0,0:0:0:0:
415,347,201527,5,0,0:0:0:0:
438,347,201592,1,0,0:0:0:0:
472,339,201657,1,0,0:0:0:0:
81,38,201788,5,0,0:0:0:0:
76,74,201853,1,0,0:0:0:0:
73,108,201918,2,0,P|64:165|69:229,1,68.0000012969971
302,0,202179,1,0,0:0:0:0:
105,141,202309,1,0,0:0:0:0:
50,338,202440,1,0,0:0:0:0:
321,355,202570,1,0,0:0:0:0:
469,193,202701,2,0,P|447:129|453:60,1,120.000004577637
384,54,202962,6,0,P|314:91|274:85,1,120.000004577637
74,68,203222,2,0,P|74:170|180:259,1,240.000009155274
52,320,203614,1,0,0:0:0:0:
237,223,203744,2,0,P|338:215|401:240,1,120.000004577637
218,345,204005,5,0,0:0:0:0:
446,323,204135,1,0,0:0:0:0:
430,13,204266,1,0,0:0:0:0:
435,164,204396,2,0,L|452:40,1,120.000004577637
164,106,204657,1,0,0:0:0:0:
367,226,204788,2,0,L|389:351,1,120.000004577637
94,322,205048,5,0,0:0:0:0:
226,94,205179,1,0,0:0:0:0:
29,38,205309,1,0,0:0:0:0:
125,333,205440,2,0,L|253:338,1,120.000004577637
170,108,205701,1,0,0:0:0:0:
487,50,205831,2,0,P|454:115|403:137,1,120.000004577637
63,104,206092,6,0,P|138:211|145:344,1,240.000009155274
398,337,206483,1,0,0:0:0:0:
250,110,206614,2,0,P|166:215|151:337,1,240.000009155274
398,337,207005,1,0,0:0:0:0:
382,95,207135,6,0,P|317:49|247:42,1,120.000004577637
33,232,207396,2,0,L|179:232,1,120.000004577637
387,207,207657,1,0,0:0:0:0:
49,329,207788,1,0,0:0:0:0:
133,0,207918,1,0,0:0:0:0:
495,4,208048,1,0,0:0:0:0:
41,63,208179,6,0,P|123:69|209:48,1,120.000004577637
486,88,208440,1,0,0:0:0:0:
414,377,208570,1,0,0:0:0:0:
0,253,208701,1,0,0:0:0:0:
40,25,208831,1,0,0:0:0:0:
457,11,208962,1,0,0:0:0:0:
57,50,209092,2,0,L|55:296,1,240.000009155274
187,359,209483,1,0,0:0:0:0:
363,91,209614,1,0,0:0:0:0:
96,152,209744,5,0,0:0:0:0:
417,191,209875,1,0,0:0:0:0:
477,357,210005,5,0,0:0:0:0:
252,290,210135,1,0,0:0:0:0:
481,130,210266,6,0,P|429:106|327:146,1,120.000004577637
75,226,210527,2,0,L|72:357,1,120.000004577637
335,189,210788,1,0,0:0:0:0:
65,80,210918,1,0,0:0:0:0:
321,296,211048,2,0,L|458:326,2,120.000004577637
52,323,211440,1,0,0:0:0:0:
418,219,211570,2,0,P|431:143|431:71,1,120.000004577637
211,50,211831,1,0,0:0:0:0:
460,82,211962,1,0,0:0:0:0:
147,109,212092,2,0,P|72:108|21:90,1,120.000004577637
14,290,212353,5,0,0:0:0:0:
234,181,212483,1,0,0:0:0:0:
500,324,212614,2,0,P|421:299|359:301,1,120.000004577637
148,124,212875,1,0,0:0:0:0:
85,365,213005,1,0,0:0:0:0:
370,163,213135,1,0,0:0:0:0:
50,40,213266,6,0,L|49:186,1,120.000004577637
268,328,213527,1,0,0:0:0:0:
431,224,213657,1,0,0:0:0:0:
271,104,213788,1,0,0:0:0:0:
40,200,213918,2,0,P|118:221|181:216,1,120.000004577637
406,58,214179,1,0,0:0:0:0:
406,58,214244,1,0,0:0:0:0:
406,58,214309,1,0,0:0:0:0:
325,275,214440,6,0,P|246:296|201:333,1,120.000004577637
78,68,214701,2,0,P|142:118|213:125,1,120.000004577637
51,357,214962,1,0,0:0:0:0:
17,155,215092,1,0,0:0:0:0:
400,359,215222,2,0,L|394:191,2,120.000004577637
205,357,215614,1,0,0:0:0:0:
459,194,215744,1,0,0:0:0:0:
475,0,215875,1,0,0:0:0:0:
107,0,216005,5,0,0:0:0:0:
115,237,216135,1,0,0:0:0:0:
343,54,216266,1,0,0:0:0:0:
338,113,216331,1,0,0:0:0:0:
333,173,216396,1,0,0:0:0:0:
329,233,216461,1,0,0:0:0:0:
324,292,216527,6,0,B|230:247|184:275|174:353|69:346|36:329|36:329|102:247|60:192|21:95|64:33|64:33|134:58|189:33|189:33|204:94|176:166,1,840.000032043458
258,359,217570,5,0,0:0:0:0:
324,93,217701,1,0,0:0:0:0:
115,120,217962,1,0,0:0:0:0:
329,113,218222,1,0,0:0:0:0:
98,146,218483,1,0,0:0:0:0:
341,125,218614,6,0,P|344:210|212:317,1,240.000009155274
89,92,219005,2,0,L|95:346,1,240.000009155274
464,169,219396,2,0,P|439:84|301:23,1,240.000009155274
112,120,219788,1,0,0:0:0:0:
434,265,219918,1,0,0:0:0:0:
421,272,220179,6,0,L|171:318,1,240.000009155274
40,154,220570,2,0,L|297:182,1,240.000009155274
430,51,220962,2,0,L|139:83,1,240.000009155274
113,352,221353,1,0,0:0:0:0:
89,221,221483,1,0,0:0:0:0:
64,44,221614,1,0,0:0:0:0:
404,169,221744,6,0,L|287:210,2,120.000004577637
81,123,222135,2,0,L|213:134,2,120.000004577637
170,355,222527,2,0,P|154:261|205:98,1,240.000009155274
323,284,222918,1,0,0:0:0:0:
39,233,223048,1,0,0:0:0:0:
13,0,223179,1,0,0:0:0:0:
373,56,223309,6,0,P|314:102|249:105,1,120.000004577637
135,58,223570,1,0,0:0:0:0:
126,367,223701,2,0,L|115:221,1,120.000004577637
47,82,223962,1,0,0:0:0:0:
476,262,224092,5,0,0:0:0:0:
