osu file format v14

[General]
AudioFilename: audio.mp3
AudioLeadIn: 0
PreviewTime: 56869
Countdown: 1
SampleSet: Normal
StackLeniency: 0.7
Mode: 0
LetterboxInBreaks: 0
WidescreenStoryboard: 0

[Editor]
Bookmarks: 21651,24260
DistanceSpacing: 0.9
BeatDivisor: 4
GridSize: 32
TimelineZoom: 2.300005

[Metadata]
Title:Yuudachi No Ribbon
TitleUnicode:Yuudachi No Ribbon
Artist:Ito Kashitaro
ArtistUnicode:Ito Kashitaro
Creator:-ilay
Version:Rain
Source:
Tags:
BeatmapID:2047459
BeatmapSetID:978366

[Difficulty]
HPDrainRate:6.6
CircleSize:4
OverallDifficulty:9
ApproachRate:10
SliderMultiplier:1.4
SliderTickRate:1

[Events]
//Background and Video events
0,0,"74546196_p0.jpg",0,0
//Break Periods
//Storyboard Layer 0 (Background)
//Storyboard Layer 1 (Fail)
//Storyboard Layer 2 (Pass)
//Storyboard Layer 3 (Foreground)
//Storyboard Sound Samples

[TimingPoints]
782,260.869565217391,4,1,0,100,1,0
782,-80,4,1,0,100,0,0
1042,-80,4,1,0,100,0,1
1303,-80,4,1,0,100,0,0
1434,-80,4,1,0,100,0,1
1695,-80,4,1,0,100,0,0
1825,-80,4,1,0,100,0,1
2151,-80,4,1,0,100,0,0
2608,-80,4,1,0,100,0,1
2868,-80,4,1,0,100,0,0
2999,-80,4,1,0,100,0,1
3260,-80,4,1,0,100,0,0
3390,-80,4,1,0,100,0,1
3716,-80,4,1,0,100,0,0
4173,-80,4,1,0,100,0,1
4434,-80,4,1,0,100,0,0
4564,-80,4,1,0,100,0,1
4825,-80,4,1,0,100,0,0
4955,-80,4,1,0,100,0,1
5281,-80,4,1,0,100,0,0
5738,-80,4,1,0,100,0,1
5999,-80,4,1,0,100,0,0
6129,-80,4,1,0,100,0,1
6390,-80,4,1,0,100,0,0
7564,-100,4,1,0,100,0,0

[HitObjects]
150,80,782,6,0,L|119:126,3,43.75
126,116,1042,2,0,L|288:158,1,131.25
103,208,1434,2,0,P|165:237|243:247,1,131.25
65,291,1825,2,0,B|146:353|236:328,1,175
399,223,2216,5,0,0:1:0:0:
316,321,2347,1,0,0:1:0:0:
439,340,2477,1,0,0:1:0:0:
460,261,2608,6,0,L|333:299,1,131.25
443,169,2999,2,0,P|384:175|312:206,1,131.25
434,72,3390,2,0,B|332:58|267:125,1,175
272,119,3781,5,0,0:1:0:0:
370,202,3912,1,0,0:1:0:0:
389,79,4042,1,0,0:1:0:0:
306,45,4173,6,0,L|272:187,1,131.25
210,32,4564,2,0,P|185:91|182:157,1,131.25
104,23,4955,2,0,P|67:108|96:202,1,175
181,320,5347,5,0,0:1:0:0:
264,222,5478,1,0,0:1:0:0:
141,203,5608,1,0,0:1:0:0:
181,320,5738,6,0,L|217:157,1,131.25
285,330,6129,2,0,P|316:272|307:201,1,131.25
256,192,6521,12,0,7434,0:0:0:0:
242,58,7564,6,0,P|151:56|122:86,1,105
72,151,7825,2,0,L|102:282,1,105
118,319,8086,5,0,0:0:0:0:
256,173,8216,1,0,0:0:0:0:
241,278,8347,1,0,0:0:0:0:
143,112,8477,2,0,B|240:80|197:134|320:107,1,175
405,98,8868,5,0,0:0:0:0:
296,310,8999,1,0,0:0:0:0:
339,145,9129,2,0,P|394:183|319:241,1,175
223,254,9521,2,0,B|161:138|217:191|162:80,1,175
98,38,9912,6,0,P|88:63|100:145,1,105
126,207,10173,1,0,0:0:0:0:
91,326,10303,1,0,0:0:0:0:
223,130,10434,1,0,0:0:0:0:
215,298,10564,6,0,B|273:184,1,105
354,98,10825,1,0,0:0:0:0:
372,107,10955,2,0,P|366:166|343:222,1,105
324,328,11216,5,0,0:0:0:0:
204,86,11347,1,0,0:0:0:0:
405,248,11477,5,0,0:0:0:0:
99,194,11608,1,0,0:0:0:0:
372,152,11738,6,0,L|261:217,1,105
169,256,11999,2,0,P|154:313|206:340,1,105
296,333,12260,5,0,0:0:0:0:
410,139,12390,1,0,0:0:0:0:
177,173,12521,5,0,0:0:0:0:
429,288,12651,2,0,P|461:219|425:122,1,175
271,63,13042,2,0,B|277:138|292:94|305:192,1,105
321,234,13303,5,0,0:0:0:0:
229,346,13434,1,0,0:0:0:0:
431,128,13564,2,0,P|390:76|332:89,1,105
210,126,13825,6,0,L|187:255,1,105
287,298,14086,2,0,L|308:176,1,105
291,130,14347,5,0,0:0:0:0:
142,221,14477,1,0,0:0:0:0:
322,176,14608,5,0,0:0:0:0:
101,167,14738,2,0,P|68:222|93:271,1,105
214,325,14999,1,0,0:0:0:0:
239,330,15129,2,0,L|211:210,1,105
171,94,15390,5,0,0:0:0:0:
112,281,15521,1,0,0:0:0:0:
121,63,15651,5,0,0:0:0:0:
152,315,15781,1,0,0:0:0:0:
247,56,15912,6,0,B|278:123|241:93|288:186,1,105
356,305,16173,2,0,L|377:162,1,140
383,76,16564,5,0,0:0:0:0:
183,210,16695,1,0,0:0:0:0:
445,132,16825,2,0,L|317:183,1,105
280,169,17086,5,0,0:0:0:0:
194,296,17216,1,0,0:0:0:0:
214,120,17347,5,0,0:0:0:0:
250,334,17477,1,0,0:0:0:0:
280,90,17608,5,0,0:0:0:0:
190,343,17738,2,0,L|158:219,1,105
166,73,17999,6,0,L|269:103,1,105
275,208,18260,2,0,L|147:166,1,105
94,135,18521,5,0,0:0:0:0:
322,341,18651,1,0,0:0:0:0:
131,50,18781,1,0,0:0:0:0:
241,348,18912,2,0,L|275:243,1,105
293,63,19173,5,0,0:0:0:0:
279,61,19303,2,0,P|231:98|204:149,1,105
164,232,19564,5,0,0:0:0:0:
346,161,19695,1,0,0:0:0:0:
112,112,19825,2,0,P|89:165|96:212,1,105
168,316,20086,6,0,L|200:186,1,105
298,113,20347,2,0,L|265:242,1,105
259,308,20608,5,0,0:0:0:0:
120,108,20738,1,0,0:0:0:0:
187,346,20868,5,0,0:0:0:0:
176,48,20999,2,0,P|226:45|283:72,1,105
339,73,21260,5,0,0:0:0:0:
334,313,21390,1,0,0:0:0:0:
270,101,21521,1,0,0:0:0:0:
404,339,21651,6,0,P|410:286|406:274,1,35
339,73,21781,2,0,P|333:126|337:138,1,35
210,310,21912,2,0,P|216:257|212:245,1,35
143,108,22042,2,0,P|137:161|141:173,1,35
356,303,23216,6,0,B|345:202|377:268|355:133,1,140
338,53,23608,2,0,P|263:42|214:59,1,105
162,125,23868,2,0,B|213:157|273:135,1,105
334,137,24129,6,0,L|314:192,1,35
399,245,24260,6,0,P|324:284|295:283,1,105
204,265,24521,2,0,L|269:360,1,105
346,340,24781,5,0,0:0:0:0:
454,232,24912,1,0,0:0:0:0:
437,212,25042,1,0,0:0:0:0:
414,188,25173,2,0,P|397:145|388:48,1,140
247,57,25564,6,0,P|243:117|252:165,1,105
143,346,25825,1,0,0:0:0:0:
172,323,25955,1,0,0:0:0:0:
211,300,26086,2,0,P|267:276|323:270,1,105
422,272,26347,6,0,P|439:220|397:229,1,105
313,223,26608,2,0,P|296:274|275:311,1,70
256,334,26803,5,0,0:0:0:0:
139,244,26999,2,0,P|129:207|140:132,1,105
129,88,27260,2,0,P|89:159|63:183,1,105
61,289,27521,5,0,0:0:0:0:
86,313,27651,2,0,P|179:272|87:254,1,245
60,255,28173,2,0,P|52:192|65:124,1,105
134,83,28434,6,0,P|184:70|168:117,1,105
166,219,28695,6,0,P|198:265|238:300,1,105
447,256,28955,1,0,0:0:0:0:
426,219,29086,1,0,0:0:0:0:
398,182,29216,1,0,0:0:0:0:
372,149,29347,2,0,P|319:90|291:73,1,105
161,157,29608,5,0,0:0:0:0:
171,187,29738,2,0,P|186:227|224:192,1,105
242,98,29999,6,0,P|161:55|139:53,1,105
296,161,30260,2,0,P|290:237|303:297,1,105
296,161,30521,2,0,P|330:67|240:122,1,245
