osu file format v14

[General]
AudioFilename: audio.mp3
AudioLeadIn: 0
PreviewTime:51878
Countdown: 0
SampleSet: Soft
StackLeniency: 0.7
Mode: 0
LetterboxInBreaks: 0
WidescreenStoryboard: 1

[Editor]
Bookmarks: 5203,14523,33164,42630,51951,70591,89087
DistanceSpacing: 1.1
BeatDivisor: 16
GridSize: 32
TimelineZoom: 1.9

[Metadata]
Title:Silent Minority (TV Size)
TitleUnicode:Silent Minority (TV Size)
Artist:Ito Kashitaro
ArtistUnicode:伊東歌詞太郎
Creator:Sotarks
Version:Mayu's Expert
Source:乙女ゲー世界はモブに厳しい世界です
Tags:Otome Game Sekai wa Mob ni Kibishii desu Trapped in a Dating Sim: The World of Games is Tough for Mobs op opening male vocals vocalist light novel mecha anime akitoshi corinn -laura- pepekcz koldnoodl shikibe mayu shizuku- kazato asa japanese jrock j-rock j rock akkin kadokawa
BeatmapID:3628961
BeatmapSetID:1771982

[Difficulty]
HPDrainRate:6
CircleSize:4
OverallDifficulty:8.7
ApproachRate:9.2
SliderMultiplier:1.72
SliderTickRate:1

[Events]
//Background and Video events
0,0,"bg.jpg",0,0
Video,0,"video.mp4"
//Break Periods
//Storyboard Layer 0 (Background)
//Storyboard Layer 1 (Fail)
//Storyboard Layer 2 (Pass)
//Storyboard Layer 3 (Foreground)
//Storyboard Layer 4 (Overlay)
//Storyboard Sound Samples

[TimingPoints]
689,291.26213592233,4,2,22,72,1,0
5203,-98.0392156862744,4,2,22,72,0,0
14523,-121.951219512195,4,2,22,62,0,0
19184,-108.695652173913,4,2,22,62,0,0
23844,-121.951219512195,4,2,22,62,0,0
28504,-108.695652173913,4,2,22,62,0,0
33164,-138.888888888889,4,2,22,52,0,0
42630,-108.695652173913,4,2,22,62,0,0
47290,-108.695652173913,4,2,22,72,0,0
49621,-89.2857142857143,4,2,22,72,0,0
51659,-108.695652173913,4,2,22,72,0,0
51951,-98.0392156862745,4,2,22,82,0,0
84572,-98.0392156862745,4,2,22,92,0,0

[Colours]
Combo1 : 153,198,234
Combo2 : 255,235,164

[HitObjects]
256,192,689,12,0,4475,0:0:0:0:
405,43,4621,5,0,1:2:0:0:
405,43,4693,1,0,1:2:0:0:
405,43,4766,1,8,0:2:0:0:
455,210,4912,1,4,1:3:0:0:
455,210,5203,6,0,P|381:166|293:185,1,175.440001070801,6|2,1:2|1:2,0:2:0:0:
184,94,5640,2,0,P|174:135|165:185,1,87.7200005354004,10|0,0:2|1:2,0:0:0:0:
76,126,5931,1,10,0:2:0:0:
231,262,6077,2,0,P|184:273|137:290,1,87.7200005354004,2|0,1:2|0:2,0:2:0:0:
278,346,6368,6,0,P|326:281|283:172,1,175.440001070801,10|0,0:2|1:2,0:2:0:0:
425,13,6805,2,0,P|411:56|401:99,1,87.7200005354004,10|2,0:2|1:2,0:0:0:0:
442,215,7096,1,8,0:2:0:0:
294,80,7242,5,10,0:2:0:0:
262,86,7314,1,8,0:2:0:0:
231,93,7387,1,10,0:2:0:0:
201,100,7460,1,8,0:2:0:0:
169,108,7533,2,0,B|128:145|128:145|3:118,1,175.440001070801,6|2,1:2|1:2,0:2:0:0:
123,282,7970,2,0,P|82:292|34:310,1,87.7200005354004,10|0,0:2|1:2,0:2:0:0:
56,213,8261,1,10,0:2:0:0:
200,348,8407,2,0,P|209:302|223:261,1,87.7200005354004,2|0,1:2|0:2,0:2:0:0:
322,125,8698,6,0,P|412:132|477:68,1,175.440001070801,10|2,0:2|1:2,0:2:0:0:
440,221,9135,2,0,P|456:255|469:305,1,87.7200005354004,10|0,0:2|1:2,0:2:0:0:
353,377,9426,2,0,P|342:334|324:294,1,87.7200005354004,10|8,0:2|0:2,0:0:0:0:
324,294,9645,1,8,0:2:0:0:
324,294,9718,1,10,0:2:0:0:
428,116,9863,6,0,P|346:127|268:67,1,175.440001070801,6|2,1:2|1:2,0:2:0:0:
104,5,10300,2,0,P|116:48|125:99,1,87.7200005354004,8|0,0:2|1:2,0:0:0:0:
193,229,10591,1,10,0:2:0:0:
26,204,10737,2,0,P|69:195|114:178,1,87.7200005354004,2|0,1:2|0:2,0:2:0:0:
296,344,11028,6,0,P|219:332|195:226,1,175.440001070801,10|2,0:2|1:2,0:2:0:0:
317,144,11465,2,0,P|303:184|293:237,1,87.7200005354004,8|0,0:2|1:2,0:0:0:0:
405,339,11756,1,10,0:2:0:0:
504,189,11902,1,8,0:2:0:0:
483,161,11974,1,8,0:2:0:0:
477,126,12047,1,8,0:2:0:0:
488,94,12120,1,8,0:2:0:0:
509,66,12193,6,0,B|476:72|446:93|446:93|392:88|352:43,1,175.440001070801,6|0,1:2|1:2,0:2:0:0:
208,0,12630,2,0,P|198:43|189:85,1,87.7200005354004,10|0,0:2|1:2,0:0:0:0:
228,228,12922,1,10,0:2:0:0:
58,194,13067,2,0,P|105:185|142:169,1,87.7200005354004,2|0,1:2|0:2,0:2:0:0:
325,252,13358,1,10,0:2:0:0:
200,325,13504,6,0,P|207:278|222:236,1,87.7200005354004,2|0,0:2|1:2,0:0:0:0:
382,74,13795,2,0,P|367:115|361:158,1,87.7200005354004,10|0,0:2|1:2,0:0:0:0:
512,237,14087,1,10,0:2:0:0:
420,361,14232,1,8,0:2:0:0:
399,318,14305,1,8,0:2:0:0:
355,298,14378,1,10,0:2:0:0:
308,303,14451,1,8,0:2:0:0:
269,330,14523,6,0,P|209:349|127:369,1,141.0400021521,6|0,1:2|1:2,0:2:0:0:
17,285,14960,1,10,0:2:0:0:
17,285,15252,1,2,1:2:0:0:
120,209,15397,1,2,1:2:0:0:
15,128,15543,2,0,P|19:166|35:204,1,70.5200010760498,10|0,0:2|1:2,0:2:0:0:
201,157,15834,5,2,0:2:0:0:
262,252,15980,1,2,1:2:0:0:
377,203,16125,1,8,0:2:0:0:
377,203,16417,5,0,0:0:0:0:
442,298,16562,2,0,P|406:306|362:323,1,70.5200010760498,0|8,1:2|0:2,0:0:0:0:
473,206,16854,6,0,P|512:153|490:68,1,141.0400021521,6|0,1:2|1:2,0:2:0:0:
424,26,17290,1,10,0:2:0:0:
424,26,17582,1,2,1:2:0:0:
368,105,17727,1,2,1:2:0:0:
275,48,17873,1,10,0:2:0:0:
213,137,18019,6,0,P|227:194|246:279,1,141.0400021521,2|2,1:2|1:2,0:2:0:0:
340,327,18455,2,0,P|347:291|360:256,1,70.5200010760498,10|2,0:2|0:2,0:0:0:0:
331,106,18747,2,0,P|319:139|312:173,1,70.5200010760498,0|0,1:0|1:2,0:0:0:0:
358,259,19038,1,8,0:2:0:0:
201,365,19184,6,0,B|157:381|125:344|130:341|102:313|50:332,1,158.239994687988,6|0,1:2|1:2,0:2:0:0:
141,149,19621,2,0,P|152:189|159:226,1,79.1199973439942,10|0,0:2|0:2,0:2:0:0:
312,173,19912,1,2,1:2:0:0:
271,320,20057,1,2,1:2:0:0:
435,274,20203,2,0,P|394:269|355:257,1,79.1199973439942,10|0,0:2|0:2,0:2:0:0:
225,112,20494,6,0,P|296:114|369:23,1,158.239994687988,2|10,1:2|0:2,0:2:0:0:
498,179,20931,1,8,0:2:0:0:
467,22,21077,2,0,P|454:62|446:101,1,79.1199973439942,2|0,1:2|1:2,0:2:0:0:
357,258,21368,2,0,P|344:218|336:179,1,79.1199973439942,10|0,0:2|1:2,0:0:0:0:
266,20,21659,6,0,P|201:53|117:77,1,158.239994687988,2|10,1:2|0:2,0:2:0:0:
193,231,22096,1,2,0:2:0:0:
50,202,22242,2,0,P|86:188|126:178,1,79.1199973439942,0|0,1:2|1:2,0:0:0:0:
320,306,22533,2,0,P|375:311|426:267,1,118.679996015991,10|0,0:2|0:0,0:2:0:0:
453,281,22824,6,0,P|436:219|418:117,1,158.239994687988,0|8,1:2|0:2,0:2:0:0:
458,31,23261,1,8,0:2:0:0:
341,187,23407,1,0,1:2:0:0:
294,18,23553,1,8,0:2:0:0:
419,126,23698,1,8,0:2:0:0:
228,83,23844,6,0,B|180:94|180:94|151:120|151:120|74:136,1,141.0400021521,6|0,1:2|1:2,0:2:0:0:
220,229,24281,1,10,0:2:0:0:
220,229,24572,1,10,0:2:0:0:
160,301,24718,1,0,1:2:0:0:
77,262,24863,1,2,0:2:0:0:
186,384,25009,6,0,P|254:360|333:345,1,141.0400021521,10|0,0:2|1:2,0:0:0:0:
432,308,25446,2,0,P|420:339|413:387,1,70.5200010760498,10|2,0:2|0:2,0:0:0:0:
352,265,25737,5,0,1:2:0:0:
435,218,25883,1,0,1:2:0:0:
464,133,26028,1,8,0:2:0:0:
420,51,26174,6,0,P|363:72|285:93,1,141.0400021521,2|0,1:2|1:2,0:2:0:0:
200,40,26611,1,10,0:2:0:0:
200,40,26902,2,0,P|189:78|180:118,1,70.5200010760498,10|0,0:2|1:2,0:2:0:0:
90,267,27193,1,2,0:2:0:0:
6,236,27339,2,0,P|75:219|140:193,1,141.0400021521,10|8,0:2|0:2,0:0:0:0:
294,297,27776,6,0,P|282:334|273:377,1,70.5200010760498,10|2,0:2|1:2,0:0:0:0:
199,269,28067,1,8,0:2:0:0:
340,181,28213,1,0,1:2:0:0:
187,277,28358,1,8,0:2:0:0:
361,345,28504,6,0,B|410:328|440:347|432:352|472:380|514:363,1,158.239994687988,6|0,1:2|1:2,0:2:0:0:
491,144,28941,2,0,P|475:188|468:224,1,79.1199973439942,10|0,0:2|0:2,0:2:0:0:
328,103,29232,1,2,1:2:0:0:
372,253,29378,1,2,1:2:0:0:
229,216,29523,2,0,P|270:205|307:188,1,79.1199973439942,10|0,0:2|0:2,0:2:0:0:
224,384,29815,6,0,P|180:348|99:357,1,118.679996015991,2|0,1:2|0:0,0:0:0:0:
87,362,30106,2,0,P|48:355|5:340,1,79.1199973439942,10|8,0:2|0:2,0:0:0:0:
180,209,30397,1,2,1:2:0:0:
26,149,30543,1,0,1:2:0:0:
72,268,30688,1,10,0:2:0:0:
144,91,30834,1,0,0:2:0:0:
303,189,30980,6,0,P|387:174|457:148,1,158.239994687988,6|8,1:2|0:2,0:2:0:0:
358,332,31417,1,2,1:2:0:0:
490,286,31562,2,0,P|451:265|414:260,1,79.1199973439942,0|0,0:0|1:2,0:0:0:0:
266,302,31854,2,0,P|251:345|246:384,1,79.1199973439942,10|0,0:2|0:2,0:0:0:0:
303,189,32145,6,0,P|338:129|318:41,1,158.239994687988,0|8,1:2|0:2,0:2:0:0:
213,123,32582,1,8,0:2:0:0:
145,13,32727,2,0,P|185:24|232:33,1,79.1199973439942,0|8,1:2|0:2,0:0:0:0:
117,263,33019,1,8,0:2:0:0:
43,218,33164,6,0,P|97:182|168:190,1,123.840003023438,6|0,1:2|0:2,0:2:0:0:
234,134,33601,1,2,1:2:0:0:
234,134,33747,2,0,P|240:175|250:205,1,61.9200015117188,2|0,0:2|1:2,0:2:0:0:
202,283,34038,1,2,0:2:0:0:
273,355,34184,2,0,P|316:322|398:330,1,123.840003023438,2|0,1:2|1:2,0:2:0:0:
383,322,34766,6,0,P|412:331|444:338,1,61.9200015117188,2|0,1:2|0:2,0:0:0:0:
430,250,35057,2,0,P|458:238|487:223,1,61.9200015117188,2|0,1:2|0:2,0:2:0:0:
419,164,35349,2,0,P|432:137|445:106,1,61.9200015117188,2|0,1:2|3:2,0:2:0:0:
350,103,35640,6,0,P|306:109|233:68,1,123.840003023438,2|0,1:2|1:2,0:2:0:0:
127,18,36077,1,2,0:2:0:0:
127,18,36222,2,0,P|134:49|141:85,1,61.9200015117188,0|0,1:2|0:2,0:0:0:0:
41,172,36514,6,0,P|113:186|172:204,1,123.840003023438,2|0,1:2|1:2,0:2:0:0:
247,157,36951,1,2,0:2:0:0:
147,290,37096,2,0,P|181:278|213:270,1,61.9200015117188,0|0,1:2|0:2,0:2:0:0:
247,157,37388,6,0,P|257:92|276:18,1,123.840003023438,2|0,1:2|1:2,0:2:0:0:
384,109,37824,1,0,3:2:0:0:
384,109,37897,1,0,3:2:0:0:
384,109,37970,1,2,1:2:0:0:
465,82,38116,1,0,0:2:0:0:
402,20,38261,1,2,1:2:0:0:
451,167,38407,6,0,P|431:232|438:299,1,123.840003023438,2|2,0:2|0:2,0:2:0:0:
484,353,38844,2,0,P|420:332|336:321,1,123.840003023438,2|0,1:2|1:2,0:2:0:0:
105,208,39426,6,0,P|115:241|125:280,1,61.9200015117188,0|0,1:2|0:0,0:0:0:0:
106,373,39718,2,0,P|144:348|199:354,1,92.8800022675782,2|0,1:2|0:0,0:2:0:0:
213,368,40009,2,0,P|249:359|285:347,1,61.9200015117188,2|0,1:2|0:2,0:2:0:0:
252,224,40300,2,0,P|278:163|262:104,1,123.840003023438,2|0,1:2|1:2,0:2:0:0:
207,35,40737,1,2,0:2:0:0:
160,144,40883,2,0,P|128:157|92:170,1,61.9200015117188,0|0,1:2|0:2,0:2:0:0:
0,28,41174,2,0,P|55:60|122:47,1,123.840003023438,2|0,1:2|1:2,0:2:0:0:
397,18,41756,6,0,P|387:53|380:79,1,61.9200015117188,2|0,1:2|0:2,0:2:0:0:
327,147,42048,2,0,P|382:132|456:122,1,123.840003023438,2|0,1:2|1:2,0:2:0:0:
382,233,42485,5,0,3:2:0:0:
382,233,42557,1,0,3:2:0:0:
382,233,42630,2,0,P|321:193|236:214,1,158.239994687988,4|4,1:2|0:3,0:2:0:0:
123,139,43067,1,0,0:2:0:0:
221,48,43213,2,0,P|219:89|205:124,1,79.1199973439942,4|4,1:3|0:3,0:0:0:0:
138,258,43504,1,4,1:3:0:0:
204,124,43650,1,4,0:3:0:0:
64,300,43795,6,0,P|90:337|185:337,1,118.679996015991,4|0,1:3|0:0,0:0:0:0:
190,368,44087,2,0,P|226:355|268:345,1,79.1199973439942,4|4,1:3|0:3,0:0:0:0:
434,177,44378,1,12,1:3:0:0:
282,241,44523,1,12,0:3:0:0:
434,276,44669,1,12,1:3:0:0:
337,157,44815,1,12,0:3:0:0:
345,306,44960,6,0,P|339:355|331:390,1,79.1199973439942,4|4,1:3|0:3,0:0:0:0:
434,276,45252,1,4,1:3:0:0:
282,241,45397,1,4,0:3:0:0:
434,177,45543,2,0,P|395:192|358:201,1,79.1199973439942,4|4,1:3|0:3,0:0:0:0:
173,157,45834,1,4,1:3:0:0:
337,64,45980,1,4,0:3:0:0:
214,0,46125,6,0,P|222:52|232:86,1,79.1199973439942,12|12,1:3|0:3,0:0:0:0:
76,299,46417,1,12,1:3:0:0:
37,110,46562,1,8,1:3:0:0:
37,110,46635,1,8,1:3:0:0:
37,110,46708,1,8,1:2:0:0:
203,148,46854,1,4,0:3:0:0:
12,209,46999,1,8,1:3:0:0:
174,249,47145,1,4,0:3:0:0:
322,77,47290,6,0,P|304:134|292:192,1,118.679996015991,14|0,0:2|0:0,0:0:0:0:
315,219,47582,2,0,P|347:208|391:199,1,79.1199973439942,8|0,0:2|1:2,0:0:0:0:
485,139,47873,1,10,0:2:0:0:
369,296,48019,1,0,1:2:0:0:
501,319,48164,2,0,P|488:279|472:244,1,79.1199973439942,8|0,0:2|1:2,0:0:0:0:
472,245,48383,1,0,1:0:0:0:
472,245,48455,1,10,0:2:0:0:
406,111,48601,1,0,1:2:0:0:
369,296,48747,1,8,0:0:0:0:
254,120,48892,5,0,1:0:0:0:
254,120,48965,1,0,1:0:0:0:
254,120,49038,1,10,0:2:0:0:
230,306,49184,1,0,1:2:0:0:
71,174,49329,1,8,0:2:0:0:
137,360,49475,1,0,1:2:0:0:
313,190,49621,6,0,P|386:176|466:166,1,144.480001763672,14|0,0:2|0:0,0:2:0:0:
456,167,49912,1,4,1:3:0:0:
272,101,50057,1,4,1:3:0:0:
272,101,50130,1,4,1:3:0:0:
272,101,50203,1,8,1:3:0:0:
418,18,50349,1,8,1:3:0:0:
389,255,50494,1,8,1:2:0:0:
140,122,50640,5,0,1:0:0:0:
140,122,50713,1,0,1:2:0:0:
140,122,50786,2,0,P|93:137|48:147,1,96.3200011757813,14|8,1:2|0:2,0:0:0:0:
12,155,51004,1,8,0:2:0:0:
12,155,51077,1,8,0:2:0:0:
228,218,51222,1,8,0:2:0:0:
58,351,51368,1,8,0:2:0:0:
96,236,51514,1,8,0:3:0:0:
200,377,51659,2,0,P|246:341|318:347,1,118.679996015991,4|0,0:3|0:0,0:2:0:0:
334,358,51951,5,6,1:2:0:0:
500,244,52096,2,0,B|477:251|452:271|452:271|395:280|335:240,1,175.440001070801,0|0,1:2|1:2,0:2:0:0:
437,97,52533,2,0,P|423:137|415:183,1,87.7200005354004,8|0,0:2|1:2,0:0:0:0:
227,273,52824,6,0,P|190:224|205:148,1,131.580000803101,2|0,0:2|0:0,0:0:0:0:
210,140,53116,1,2,1:2:0:0:
342,15,53261,2,0,P|330:59|320:102,1,87.7200005354004,0|0,1:2|0:0,0:2:0:0:
291,196,53553,1,0,1:2:0:0:
169,34,53698,6,0,P|109:64|37:79,1,131.580000803101,8|0,0:2|0:0,0:0:0:0:
23,95,53989,1,2,0:2:0:0:
151,231,54135,1,8,0:2:0:0:
0,196,54281,6,0,P|44:186|87:169,1,87.7200005354004,2|0,1:2|1:2,0:0:0:0:
236,279,54572,1,2,0:2:0:0:
161,147,54718,1,0,1:2:0:0:
286,26,54863,6,0,P|299:105|237:187,1,175.440001070801,10|2,0:2|0:2,0:0:0:0:
410,279,55300,1,8,0:2:0:0:
410,279,55373,1,8,0:2:0:0:
410,279,55446,1,2,1:2:0:0:
465,143,55591,2,0,P|417:163|370:175,1,87.7200005354004,0|2,1:2|0:2,0:2:0:0:
233,377,55883,5,0,1:2:0:0:
185,309,56028,2,0,P|247:296|307:334,1,131.580000803101,10|0,0:2|0:0,0:0:0:0:
325,359,56320,2,0,P|362:349|413:332,1,87.7200005354004,2|8,0:2|0:2,0:0:0:0:
261,184,56611,5,2,1:2:0:0:
110,382,56756,2,0,B|101:353|84:321|84:321|98:285|98:285|78:258|66:221,1,175.440001070801,0|0,1:2|1:2,0:2:0:0:
175,105,57193,2,0,P|165:158|153:198,1,87.7200005354004,8|0,0:2|1:2,0:0:0:0:
290,291,57485,1,2,0:2:0:0:
259,152,57630,1,8,0:2:0:0:
259,152,57703,1,8,0:0:0:0:
259,152,57776,1,2,1:2:0:0:
420,193,57922,2,0,P|369:202|332:213,1,87.7200005354004,0|0,1:2|0:0,0:2:0:0:
241,49,58213,1,0,1:2:0:0:
464,10,58358,6,0,P|405:78|304:73,1,175.440001070801,8|2,0:2|0:2,0:0:0:0:
165,16,58795,1,8,0:2:0:0:
165,16,58868,1,8,0:2:0:0:
165,16,58941,1,2,1:2:0:0:
223,157,59087,2,0,P|231:113|247:62,1,87.7200005354004,0|2,1:2|0:2,0:0:0:0:
95,195,59378,1,0,1:2:0:0:
0,168,59523,2,0,P|48:114|156:115,1,175.440001070801,10|2,0:2|0:2,0:0:0:0:
233,248,59960,1,8,0:2:0:0:
306,129,60106,6,0,P|263:145|210:160,1,87.7200005354004,2|0,1:2|1:2,0:0:0:0:
381,344,60397,2,0,P|338:328|285:313,1,87.7200005354004,2|0,0:2|1:2,0:0:0:0:
485,170,60688,5,10,0:2:0:0:
328,235,60834,1,0,1:2:0:0:
475,294,60980,1,2,0:2:0:0:
385,148,61125,1,8,0:2:0:0:
455,53,61271,5,2,1:2:0:0:
455,53,61417,2,0,P|423:91|287:92,1,175.440001070801,0|0,1:2|1:2,0:2:0:0:
117,70,61854,5,10,0:2:0:0:
188,2,61999,2,0,B|219:47|219:99|219:99|186:121|172:154,1,175.440001070801,0|8,1:2|0:2,0:2:0:0:
161,186,62363,1,8,0:0:0:0:
161,186,62436,2,0,P|172:232|180:272,1,87.7200005354004,2|0,1:2|1:2,0:0:0:0:
252,206,62727,1,0,0:0:0:0:
86,248,62873,1,0,1:2:0:0:
193,373,63019,6,0,P|242:335|313:339,1,131.580000803101,10|0,0:2|0:0,0:0:0:0:
343,353,63310,1,0,1:0:0:0:
457,195,63455,1,8,0:2:0:0:
507,363,63601,5,2,1:2:0:0:
401,271,63747,2,0,B|369:224|369:224|380:161|400:78,1,175.440001070801,0|0,1:2|1:2,0:2:0:0:
459,6,64184,2,0,P|402:59|301:56,1,175.440001070801,10|0,0:2|0:0,0:0:0:0:
201,5,64621,1,8,0:2:0:0:
151,190,64766,6,0,P|108:197|66:208,1,87.7200005354004,2|0,1:2|1:2,0:0:0:0:
199,110,65057,1,4,0:3:0:0:
162,280,65203,1,4,0:3:0:0:
162,280,65276,1,4,0:3:0:0:
162,280,65349,1,10,0:2:0:0:
327,178,65494,6,0,P|285:193|243:204,1,87.7200005354004,0|0,1:2|0:0,0:2:0:0:
458,300,65786,1,8,0:2:0:0:
431,384,65931,5,2,1:2:0:0:
431,384,66077,2,0,P|375:321|396:240,1,175.440001070801,0|0,1:2|1:2,0:2:0:0:
472,50,66514,2,0,P|432:65|385:77,1,87.7200005354004,8|0,0:2|1:2,0:0:0:0:
269,165,66805,1,2,0:2:0:0:
331,14,66951,1,8,0:2:0:0:
171,28,67096,6,0,P|106:52|38:68,1,131.580000803101,2|0,1:2|0:0,0:0:0:0:
26,73,67388,2,0,B|10:112|1:156,1,87.7200005354004,2|0,0:2|1:2,0:0:0:0:
162,276,67679,1,10,0:2:0:0:
113,152,67824,1,0,1:2:0:0:
8,261,67970,2,0,P|50:249|91:231,1,87.7200005354004,2|8,0:2|0:2,0:2:0:0:
254,355,68261,5,2,1:2:0:0:
254,355,68407,2,0,P|204:285|222:201,1,175.440001070801,0|0,1:2|1:2,0:2:0:0:
456,237,68844,2,0,B|426:242|392:258|392:258|351:246|351:246|322:258|288:266,1,175.440001070801,10|0,0:2|0:0,0:0:0:0:
135,172,69281,1,8,0:2:0:0:
205,102,69426,6,0,P|218:146|225:187,1,87.7200005354004,2|0,1:2|0:2,0:2:0:0:
124,343,69718,2,0,P|116:299|103:257,1,87.7200005354004,10|0,0:2|1:2,0:0:0:0:
312,149,70009,5,10,0:2:0:0:
200,282,70155,1,0,1:2:0:0:
333,384,70300,1,10,0:2:0:0:
350,353,70373,1,8,0:2:0:0:
384,336,70446,1,8,0:2:0:0:
422,332,70519,1,8,0:2:0:0:
457,346,70591,6,0,P|486:288|476:224,1,131.580000803101,6|0,1:2|0:2,0:2:0:0:
439,200,70883,2,0,P|397:219|343:237,1,87.7200005354004,8|0,0:2|3:0,0:0:0:0:
213,157,71174,1,0,1:2:0:0:
357,73,71320,1,0,3:2:0:0:
252,7,71465,2,0,P|259:54|277:98,1,87.7200005354004,10|0,0:2|3:2,0:2:0:0:
167,263,71756,6,0,P|88:270|20:198,1,175.440001070801,2|8,1:2|0:2,0:2:0:0:
94,99,72193,1,0,3:2:0:0:
94,99,72266,1,0,3:0:0:0:
94,99,72339,2,0,P|106:140|115:186,1,87.7200005354004,0|0,1:2|3:2,0:0:0:0:
264,290,72630,2,0,P|255:246|243:204,1,87.7200005354004,10|0,0:2|3:2,0:2:0:0:
372,47,72922,6,0,P|431:39|485:81,1,131.580000803101,2|0,1:2|0:2,0:2:0:0:
494,117,73213,2,0,P|481:155|471:201,1,87.7200005354004,10|0,0:2|3:2,0:0:0:0:
345,141,73504,1,2,1:2:0:0:
387,300,73650,1,0,3:2:0:0:
239,250,73795,2,0,P|193:269|146:281,1,87.7200005354004,10|0,0:2|0:2,0:2:0:0:
0,109,74087,6,0,P|46:143|127:132,1,131.580000803101,2|0,1:2|0:2,0:2:0:0:
148,160,74378,2,0,P|186:145|230:132,1,87.7200005354004,10|0,0:2|3:2,0:0:0:0:
407,194,74669,1,2,1:2:0:0:
245,124,74815,1,0,3:2:0:0:
372,40,74960,1,10,0:2:0:0:
304,219,75106,5,8,3:2:0:0:
304,219,75179,1,8,0:0:0:0:
304,219,75252,2,0,B|278:297|278:297|295:314|304:341,1,131.580000803101,6|0,1:2|0:2,0:2:0:0:
310,359,75543,2,0,P|351:347|396:334,1,87.7200005354004,8|0,0:2|3:2,0:0:0:0:
486,205,75834,2,0,P|445:217|400:230,1,87.7200005354004,0|0,1:2|3:2,0:0:0:0:
202,108,76125,1,10,0:2:0:0:
260,283,76271,1,0,0:2:0:0:
34,243,76417,6,0,B|78:205|135:199|135:199|156:224|192:224,1,175.440001070801,2|8,1:2|0:2,0:2:0:0:
332,158,76854,1,0,3:2:0:0:
332,158,76926,1,0,3:2:0:0:
332,158,76999,1,0,1:2:0:0:
407,290,77145,1,0,3:0:0:0:
262,372,77290,2,0,P|271:327|287:287,1,87.7200005354004,10|0,0:2|0:2,0:2:0:0:
453,181,77582,6,0,P|487:142|481:61,1,131.580000803101,2|0,1:2|0:2,0:2:0:0:
459,44,77873,2,0,P|419:58|367:74,1,87.7200005354004,10|0,0:2|3:2,0:0:0:0:
259,11,78164,1,2,1:2:0:0:
320,177,78310,1,0,3:2:0:0:
192,91,78455,2,0,P|152:77|100:61,1,87.7200005354004,10|0,0:2|0:2,0:2:0:0:
39,251,78747,6,0,B|86:250|132:271|132:271|152:261|184:255,1,131.580000803101,2|0,1:2|0:0,0:2:0:0:
205,269,79038,2,0,P|212:225|228:183,1,87.7200005354004,10|0,0:2|0:2,0:2:0:0:
386,70,79329,2,0,P|370:111|363:154,1,87.7200005354004,2|0,1:2|0:0,0:2:0:0:
464,292,79621,5,8,0:2:0:0:
430,277,79693,1,8,0:2:0:0:
395,279,79766,1,8,0:2:0:0:
359,296,79839,1,8,0:2:0:0:
336,332,79912,2,0,P|276:346|203:367,1,131.580000803101,4|0,1:2|0:2,0:2:0:0:
173,379,80203,2,0,P|148:343|156:290,1,87.7200005354004,10|0,0:2|3:2,0:0:0:0:
179,114,80494,1,2,1:2:0:0:
69,261,80640,1,0,0:2:0:0:
7,139,80786,2,0,P|50:149|91:166,1,87.7200005354004,10|0,0:2|0:0,0:2:0:0:
253,57,81077,6,0,B|287:51|314:39|314:39|366:49|366:49|396:36|437:27,1,175.440001070801,2|8,1:2|0:2,0:0:0:0:
318,141,81514,1,0,0:0:0:0:
497,284,81659,2,0,P|522:229|486:156,1,131.580000803101,2|0,1:2|0:0,0:2:0:0:
475,154,81951,2,0,P|432:172|385:187,1,87.7200005354004,10|0,0:2|3:2,0:0:0:0:
220,245,82242,6,0,B|224:213|235:184|235:184|219:141|219:141|230:112|229:75,1,175.440001070801,2|10,1:2|0:2,0:2:0:0:
88,16,82679,1,0,3:2:0:0:
88,16,82752,1,0,3:0:0:0:
88,16,82824,1,0,1:2:0:0:
144,189,82970,1,0,3:2:0:0:
14,135,83116,2,0,P|56:123|99:106,1,87.7200005354004,10|0,0:2|0:2,0:2:0:0:
336,17,83407,6,0,B|315:93|315:93|336:117|342:144,1,131.580000803101,2|0,1:2|0:0,0:2:0:0:
349,163,83698,2,0,P|391:155|438:137,1,87.7200005354004,10|8,0:2|0:2,0:0:0:0:
433,139,83917,1,8,0:2:0:0:
433,139,83989,1,10,0:2:0:0:
351,295,84135,1,8,0:3:0:0:
212,168,84281,1,6,0:3:0:0:
268,373,84426,1,4,0:3:0:0:
99,309,84572,6,0,P|145:297|192:280,1,87.7200005354004,14|0,0:2|1:2,0:0:0:0:
328,105,84863,2,0,P|315:150|306:200,1,87.7200005354004,8|0,0:2|1:2,0:0:0:0:
381,379,85155,1,8,0:2:0:0:
268,274,85300,1,0,1:2:0:0:
268,274,85373,1,0,1:0:0:0:
268,274,85446,1,8,0:2:0:0:
406,139,85591,1,0,1:2:0:0:
268,274,85737,6,0,P|227:262|179:253,1,87.7200005354004,14|0,0:2|1:2,0:0:0:0:
43,63,86028,1,8,0:2:0:0:
252,130,86174,1,0,1:2:0:0:
40,214,86320,1,8,0:2:0:0:
167,36,86465,5,0,1:2:0:0:
167,36,86538,1,0,1:0:0:0:
167,36,86611,2,0,P|152:79|144:121,1,87.7200005354004,8|0,0:2|1:2,0:0:0:0:
224,362,86902,6,0,B|273:328|331:312|331:312|354:331|387:336,1,175.440001070801,14|8,0:2|0:2,0:0:0:0:
320,199,87339,1,0,1:2:0:0:
442,84,87485,1,8,0:2:0:0:
512,232,87630,1,0,1:2:0:0:
512,232,87703,1,0,1:0:0:0:
512,232,87776,2,0,P|469:242|424:256,1,87.7200005354004,8|0,0:2|1:2,0:0:0:0:
269,114,88067,5,14,0:2:0:0:
341,353,88213,1,0,1:2:0:0:
110,325,88358,1,12,0:2:0:0:
371,178,88504,5,0,1:2:0:0:
371,178,88577,1,0,1:2:0:0:
371,178,88650,1,10,0:2:0:0:
219,384,88795,1,8,0:2:0:0:
139,150,88941,1,8,0:2:0:0:
341,353,89087,5,14,0:2:0:0:
