osu file format v14

[General]
AudioFilename: audio.mp3
AudioLeadIn: 0
PreviewTime:51878
Countdown: 0
SampleSet: Soft
StackLeniency: 0.7
Mode: 0
LetterboxInBreaks: 0
WidescreenStoryboard: 1

[Editor]
Bookmarks: 5203,14523,33164,42630,51951,89087
DistanceSpacing: 1.1
BeatDivisor: 4
GridSize: 4
TimelineZoom: 2.2

[Metadata]
Title:Silent Minority (TV Size)
TitleUnicode:Silent Minority (TV Size)
Artist:Ito Kashitaro
ArtistUnicode:伊東歌詞太郎
Creator:Sotarks
Version:KoldNoodl's Insane
Source:乙女ゲー世界はモブに厳しい世界です
Tags:Otome Game Sekai wa Mob ni Kibishii desu Trapped in a Dating Sim: The World of Games is Tough for Mobs op opening male vocals vocalist light novel mecha anime akitoshi corinn -laura- pepekcz koldnoodl shikibe mayu shizuku- kazato asa japanese jrock j-rock j rock akkin kadokawa
BeatmapID:3632860
BeatmapSetID:1771982

[Difficulty]
HPDrainRate:5
CircleSize:4
OverallDifficulty:8
ApproachRate:9
SliderMultiplier:1.6
SliderTickRate:1

[Events]
//Background and Video events
0,0,"bg.jpg",0,0
Video,0,"video.mp4"
//Break Periods
//Storyboard Layer 0 (Background)
//Storyboard Layer 1 (Fail)
//Storyboard Layer 2 (Pass)
//Storyboard Layer 3 (Foreground)
//Storyboard Layer 4 (Overlay)
//Storyboard Sound Samples

[TimingPoints]
689,291.26213592233,4,2,22,72,1,0
5203,-100,4,2,22,72,0,0
14523,-111.111111111111,4,2,22,62,0,0
33164,-111.111111111111,4,2,22,52,0,0
33601,-125,4,2,22,52,0,0
42630,-111.111111111111,4,2,22,62,0,0
47290,-100,4,2,22,72,0,0
51951,-100,4,2,22,82,0,0
84572,-100,4,2,22,92,0,0

[Colours]
Combo1 : 153,198,234
Combo2 : 255,235,164

[HitObjects]
256,192,689,12,0,4329,0:2:0:0:
416,136,4621,6,0,P|425:100|433:70,2,40,0|0|8,1:2|1:2|0:2,0:0:0:0:
467,302,4912,1,4,1:3:0:0:
467,302,5203,6,0,B|379:294|398:347|308:331,1,160,6|2,1:2|1:2,0:0:0:0:
322,150,5640,2,0,P|329:206|342:255,1,80,10|0,0:2|1:2,0:0:0:0:
223,368,5931,1,10,0:2:0:0:
139,225,6077,2,0,P|135:264|128:304,1,80,2|0,1:2|0:2,0:0:0:0:
221,171,6368,6,0,P|161:129|68:151,1,160,10|0,0:2|1:2,0:0:0:0:
127,304,6805,1,10,0:2:0:0:
285,352,6951,1,2,1:2:0:0:
219,269,7096,2,0,P|270:255|310:250,1,80,8|10,0:2|0:2,0:0:0:0:
307,257,7315,1,8,0:2:0:0:
316,262,7388,1,10,0:2:0:0:
412,375,7533,6,0,P|415:305|441:198,1,160,6|2,1:2|1:2,0:0:0:0:
392,2,7970,2,0,P|353:38|331:84,1,80,10|0,0:2|1:2,0:0:0:0:
507,60,8261,1,10,0:2:0:0:
395,140,8407,2,0,P|355:147|317:157,1,80,2|0,1:2|0:2,0:0:0:0:
197,76,8698,6,0,P|151:125|195:227,1,160,10|2,0:2|1:2,0:0:0:0:
317,359,9135,2,0,P|329:314|335:265,1,80,10|0,0:2|1:2,0:0:0:0:
169,209,9426,1,10,0:2:0:0:
242,290,9572,1,8,0:2:0:0:
242,290,9645,1,8,0:2:0:0:
242,290,9718,1,10,0:2:0:0:
51,353,9863,6,0,P|38:279|41:182,1,160,6|2,1:2|1:2,0:0:0:0:
143,42,10300,2,0,P|129:88|124:140,1,80,8|0,0:2|1:2,0:0:0:0:
271,202,10591,1,10,0:2:0:0:
338,118,10737,2,0,P|331:78|319:40,1,80,2|0,1:2|0:2,0:0:0:0:
187,250,11028,6,0,P|236:288|341:270,1,160,10|2,0:2|1:2,0:0:0:0:
469,156,11465,2,0,P|419:176|376:204,1,80,8|0,0:2|1:2,0:0:0:0:
372,358,11756,1,10,0:2:0:0:
463,248,11902,1,8,0:2:0:0:
463,248,11975,1,8,0:2:0:0:
463,248,12048,1,8,0:2:0:0:
271,203,12193,6,0,P|231:130|267:50,1,160,6|0,1:2|1:2,0:0:0:0:
434,77,12630,1,10,0:2:0:0:
318,126,12776,1,0,1:2:0:0:
463,248,12922,2,0,P|475:205|476:144,1,80,10|2,0:2|1:2,0:0:0:0:
376,195,13213,1,0,0:2:0:0:
434,358,13358,6,0,P|474:350|512:338,1,80,10|2,0:2|0:2,0:0:0:0:
374,279,13650,1,0,1:2:0:0:
214,383,13795,2,0,P|206:345|207:287,1,80,10|0,0:2|1:2,0:0:0:0:
140,216,14087,1,10,0:2:0:0:
300,334,14232,1,8,0:2:0:0:
300,334,14305,1,8,0:2:0:0:
300,334,14378,1,10,0:2:0:0:
78,302,14523,6,0,P|38:242|61:157,1,143.999995605469,6|0,1:2|1:2,0:0:0:0:
216,116,14960,1,10,0:2:0:0:
216,116,15252,2,0,P|226:67|226:22,1,71.9999978027344,2|2,1:2|1:2,0:0:0:0:
122,102,15543,1,10,0:2:0:0:
187,204,15688,1,0,1:2:0:0:
301,150,15834,1,2,0:2:0:0:
372,249,15980,2,0,P|415:239|457:239,1,71.9999978027344,2|8,1:2|0:2,0:0:0:0:
470,127,16271,2,0,P|415:138|311:143,1,143.999995605469,2|0,0:2|1:2,0:0:0:0:
397,58,16708,1,8,0:2:0:0:
264,226,16854,6,0,B|252:262|252:262|259:290|259:290|240:328|250:385,1,143.999995605469,6|0,1:2|1:2,0:0:0:0:
396,357,17290,2,0,P|351:343|311:343,1,71.9999978027344,10|0,0:2|0:2,0:0:0:0:
176,232,17582,2,0,P|140:235|106:247,1,71.9999978027344,2|2,1:2|1:2,0:0:0:0:
162,320,17873,1,10,0:2:0:0:
263,227,18019,6,0,P|278:169|236:96,1,143.999995605469,2|2,1:2|1:2,0:0:0:0:
23,82,18455,2,0,P|59:95|110:101,1,71.9999978027344,10|2,0:2|0:2,0:0:0:0:
206,33,18747,1,0,0:0:0:0:
158,155,18892,2,0,P|151:190|150:226,1,71.9999978027344,0|8,1:2|0:2,0:0:0:0:
58,350,19184,6,0,P|127:339|184:380,1,143.999995605469,6|0,1:2|1:2,0:0:0:0:
356,352,19621,2,0,P|314:344|273:330,1,71.9999978027344,10|0,0:2|0:2,0:0:0:0:
459,267,19912,1,2,1:2:0:0:
459,267,20057,1,2,1:2:0:0:
318,184,20203,2,0,P|329:238|338:273,1,71.9999978027344,10|0,0:2|0:2,0:0:0:0:
425,161,20494,6,0,B|451:131|451:131|460:71|422:23,1,143.999995605469,2|10,1:2|0:2,0:0:0:0:
324,0,20931,1,8,0:2:0:0:
258,115,21077,2,0,P|222:109|187:101,1,71.9999978027344,2|0,1:2|1:2,0:0:0:0:
83,12,21368,2,0,P|91:47|97:82,1,71.9999978027344,10|0,0:2|1:2,0:0:0:0:
58,269,21659,6,0,P|15:215|29:147,1,143.999995605469,2|10,1:2|0:2,0:0:0:0:
177,216,22096,2,0,P|136:209|87:189,1,71.9999978027344,2|0,0:2|1:2,0:0:0:0:
204,130,22388,1,0,1:2:0:0:
141,314,22533,2,0,B|175:300|175:300|203:308|203:308|248:287|302:295,1,143.999995605469,10|0,0:2|1:2,0:0:0:0:
438,241,22970,5,0,1:2:0:0:
325,184,23116,1,8,0:2:0:0:
380,350,23261,1,8,0:2:0:0:
445,230,23407,2,0,P|441:181|433:147,1,71.9999978027344,0|8,1:2|0:2,0:0:0:0:
363,62,23698,1,8,0:2:0:0:
252,230,23844,6,0,P|183:243|122:209,1,143.999995605469,6|0,1:2|1:2,0:0:0:0:
175,59,24281,2,0,P|196:112|205:159,1,71.9999978027344,10|0,0:2|1:2,0:0:0:0:
179,270,24572,1,10,0:2:0:0:
55,123,24718,2,0,P|40:193|36:275,1,143.999995605469,0|10,1:2|0:2,0:0:0:0:
237,321,25155,2,0,P|177:302|138:302,1,71.9999978027344,2|0,0:2|1:2,0:0:0:0:
0,384,25446,2,0,P|35:377|68:364,1,71.9999978027344,10|2,0:2|0:2,0:0:0:0:
176,206,25737,1,0,1:2:0:0:
72,271,25883,1,0,1:2:0:0:
152,384,26028,1,8,0:2:0:0:
264,232,26174,6,0,P|329:219|406:265,1,143.999995605469,2|0,1:2|1:2,0:0:0:0:
334,384,26611,2,0,P|328:341|326:298,1,71.9999978027344,10|0,0:2|1:2,0:0:0:0:
465,208,26902,2,0,P|471:165|473:122,1,71.9999978027344,10|0,0:2|1:2,0:0:0:0:
313,70,27193,1,2,0:2:0:0:
389,156,27339,1,10,0:2:0:0:
264,232,27485,6,0,P|218:218|184:212,1,71.9999978027344,2|8,1:2|0:2,0:0:0:0:
196,46,27776,2,0,P|210:98|226:137,1,71.9999978027344,10|2,0:2|1:2,0:0:0:0:
78,256,28067,1,8,0:2:0:0:
140,149,28213,1,0,1:2:0:0:
23,108,28358,1,8,0:2:0:0:
176,242,28504,6,0,P|171:311|151:398,1,143.999995605469,6|0,1:2|1:2,0:0:0:0:
356,250,28941,2,0,P|340:214|327:157,1,71.9999978027344,10|0,0:2|0:2,0:0:0:0:
267,320,29232,1,2,1:2:0:0:
267,320,29378,1,2,1:2:0:0:
422,342,29523,2,0,P|467:326|497:309,1,71.9999978027344,10|0,0:2|0:2,0:0:0:0:
406,129,29815,6,0,P|364:100|264:118,1,143.999995605469,2|10,1:2|0:2,0:0:0:0:
239,187,30252,1,8,0:2:0:0:
83,125,30397,2,0,P|67:85|55:31,1,71.9999978027344,2|0,1:2|1:2,0:0:0:0:
178,96,30688,2,0,P|163:147|142:251,1,143.999995605469,10|6,0:2|1:2,0:0:0:0:
192,346,31125,5,0,0:0:0:0:
44,272,31271,1,8,0:2:0:0:
192,346,31417,2,0,B|274:341|236:304|331:299,1,143.999995605469,2|0,1:2|1:2,0:0:0:0:
443,198,31854,2,0,P|434:247|424:284,1,71.9999978027344,10|0,0:2|0:2,0:0:0:0:
245,218,32145,1,0,1:2:0:0:
245,218,32290,1,0,1:2:0:0:
344,368,32436,2,0,P|335:319|325:282,1,71.9999978027344,8|8,0:2|0:2,0:0:0:0:
352,181,32727,1,0,1:2:0:0:
231,312,32873,2,0,P|184:301|148:299,1,71.9999978027344,8|8,0:2|0:2,0:0:0:0:
70,137,33164,5,6,1:2:0:0:
70,137,33601,2,0,P|114:120|154:114,1,64,2|2,1:2|0:2,0:0:0:0:
195,65,33892,2,0,P|239:82|279:88,1,64,0|2,1:2|0:2,0:0:0:0:
353,48,34184,2,0,P|335:95|333:176,1,128,2|0,1:2|1:2,0:0:0:0:
454,341,34766,6,0,P|453:277|433:217,1,128,2|2,1:2|1:2,0:0:0:0:
367,287,35203,1,0,0:2:0:0:
367,287,35349,2,0,P|323:297|285:298,1,64,2|0,1:2|3:2,0:0:0:0:
224,361,35640,6,0,P|179:358|126:274,1,128,2|0,1:2|1:2,0:0:0:0:
213,163,36077,2,0,P|232:203|186:291,1,128,2|0,0:2|0:2,0:0:0:0:
48,272,36514,2,0,P|73:234|172:230,1,128,2|0,1:2|1:2,0:0:0:0:
292,311,36951,1,2,0:2:0:0:
292,311,37096,2,0,P|338:301|362:298,1,64,0|0,1:2|0:2,0:0:0:0:
305,188,37388,2,0,P|294:142|285:55,1,128,2|0,1:2|1:2,0:0:0:0:
489,23,37970,6,0,P|453:73|371:68,1,128,2|2,1:2|1:2,0:0:0:0:
325,120,38407,2,0,P|262:113|175:105,1,128,2|2,0:2|0:2,0:0:0:0:
121,62,38844,2,0,P|156:96|139:195,1,128,2|0,1:2|1:2,0:0:0:0:
28,338,39426,2,0,P|35:297|41:258,1,64,0|0,1:2|0:0,0:0:0:0:
38,274,39718,6,0,B|116:283|82:311|172:325,1,128,2|2,1:2|1:2,0:0:0:0:
416,209,40300,2,0,B|338:217|372:245|282:259,1,128,2|0,1:2|1:2,0:0:0:0:
241,316,40737,2,0,P|252:256|255:165,1,128,2|0,0:2|0:2,0:0:0:0:
326,127,41174,5,2,1:2:0:0:
205,76,41320,1,0,0:0:0:0:
326,127,41465,1,0,1:2:0:0:
205,76,41611,1,0,3:2:0:0:
358,1,41756,2,0,P|372:42|375:83,1,64,2|0,1:2|0:2,0:0:0:0:
255,189,42048,2,0,P|305:149|382:170,1,128,2|0,1:2|1:2,0:0:0:0:
474,320,42485,5,0,3:2:0:0:
474,320,42557,1,0,3:2:0:0:
474,320,42630,2,0,P|408:308|322:299,1,143.999995605469,4|4,1:2|0:3,0:0:0:0:
178,237,43067,1,0,0:2:0:0:
178,237,43213,2,0,P|216:297|199:365,1,143.999995605469,4|4,1:3|1:3,0:0:0:0:
25,272,43650,1,4,0:3:0:0:
91,192,43795,6,0,P|99:142|102:102,1,71.9999978027344,4|4,1:3|0:3,0:0:0:0:
231,28,44087,2,0,P|223:78|220:118,1,71.9999978027344,4|4,1:3|0:3,0:0:0:0:
307,237,44378,2,0,P|315:187|318:147,1,71.9999978027344,12|12,1:3|0:3,0:0:0:0:
449,73,44670,2,0,P|441:123|438:163,1,71.9999978027344,12|12,1:3|0:3,0:0:0:0:
469,268,44960,6,0,P|434:255|376:243,1,71.9999978027344,4|4,1:3|0:3,0:0:0:0:
231,201,45252,1,4,1:3:0:0:
209,347,45397,2,0,P|245:340|302:322,1,71.9999978027344,4|4,0:3|1:3,0:0:0:0:
316,165,45689,1,4,0:3:0:0:
151,276,45834,2,0,P|114:269|57:251,1,71.9999978027344,4|4,1:3|0:3,0:0:0:0:
125,75,46125,5,12,1:3:0:0:
176,190,46271,1,12,0:3:0:0:
1,252,46417,1,12,1:3:0:0:
82,155,46562,1,8,1:3:0:0:
82,155,46635,1,8,1:3:0:0:
82,155,46708,2,0,P|118:161|175:179,1,71.9999978027344,8|4,1:2|0:3,0:0:0:0:
292,60,46999,2,0,P|291:114|284:148,1,71.9999978027344,8|4,1:3|0:3,0:0:0:0:
180,316,47290,5,14,0:2:0:0:
356,227,47436,1,0,1:2:0:0:
291,335,47582,1,8,0:2:0:0:
487,384,47727,1,0,1:2:0:0:
403,306,47873,6,0,P|394:264|389:218,1,80,10|0,0:2|1:2,0:0:0:0:
512,103,48164,2,0,P|507:142|498:181,1,80,8|0,0:2|1:2,0:0:0:0:
359,95,48455,1,10,0:2:0:0:
412,228,48601,1,0,1:2:0:0:
269,174,48747,2,0,P|229:164|183:158,1,80,8|0,0:2|1:2,0:0:0:0:
40,183,49038,1,10,0:2:0:0:
205,78,49184,1,0,1:2:0:0:
113,10,49329,2,0,P|101:62|95:146,1,120,8|0,0:2|0:0,0:0:0:0:
40,183,49621,6,0,P|116:173|102:265,1,160,14|4,0:2|1:3,0:0:0:0:
44,292,50057,1,4,1:3:0:0:
197,374,50203,2,0,P|245:361|290:356,1,80,8|8,1:3|1:3,0:0:0:0:
366,248,50494,2,0,B|324:231|324:231|287:246|241:239,1,120,8|0,1:2|1:2,0:0:0:0:
231,228,50786,6,0,P|241:182|245:132,1,80,14|8,1:2|0:2,0:0:0:0:
244,149,51004,1,8,0:2:0:0:
244,149,51077,1,8,0:2:0:0:
418,44,51222,1,8,0:2:0:0:
306,0,51368,2,0,P|310:39|319:78,1,80,8|8,0:2|0:3,0:0:0:0:
419,149,51659,2,0,P|467:136|505:132,1,80,4|4,0:3|0:3,0:0:0:0:
426,322,51951,5,6,1:2:0:0:
356,253,52096,2,0,P|273:243|217:314,1,160,0|0,1:2|1:2,0:0:0:0:
37,252,52533,2,0,P|78:243|134:225,1,80,8|0,0:2|1:2,0:0:0:0:
215,140,52824,2,0,P|174:131|118:113,1,80,2|8,0:2|0:2,0:0:0:0:
75,48,53116,5,2,1:2:0:0:
255,221,53261,2,0,P|294:170|272:63,1,160,0|0,1:2|1:2,0:0:0:0:
406,22,53698,1,8,0:2:0:0:
285,79,53844,1,0,1:2:0:0:
512,177,53989,2,0,P|462:188|406:205,1,80,2|8,0:2|0:2,0:0:0:0:
378,115,54281,5,2,1:2:0:0:
480,304,54426,2,0,P|415:287|315:273,1,160,0|0,1:2|1:2,0:0:0:0:
413,384,54863,1,10,0:2:0:0:
250,317,55009,2,0,P|240:262|242:216,1,80,0|2,1:2|0:2,0:0:0:0:
334,358,55300,5,8,0:2:0:0:
84,296,55446,2,0,P|125:290|185:269,1,80,2|0,1:2|1:2,0:0:0:0:
385,199,55737,2,0,P|344:193|284:172,1,80,2|0,0:2|1:2,0:0:0:0:
135,58,56028,1,10,0:2:0:0:
218,119,56174,2,0,B|305:116|274:77|382:72,1,160,0|8,1:2|0:2,0:0:0:0:
473,207,56611,5,2,1:2:0:0:
438,20,56756,2,0,P|404:58|388:165,1,160,0|0,1:2|1:2,0:0:0:0:
270,266,57193,2,0,P|313:247|360:241,1,80,8|0,0:2|1:2,0:0:0:0:
494,296,57485,2,0,P|484:343|481:382,1,80,2|8,0:2|0:2,0:0:0:0:
442,222,57776,5,2,1:2:0:0:
329,345,57922,2,0,P|249:361|178:304,1,160,0|0,1:2|1:2,0:0:0:0:
270,266,58358,1,8,0:2:0:0:
111,378,58504,2,0,P|101:342|101:271,1,80,0|2,1:2|0:2,0:0:0:0:
158,137,58795,1,8,0:2:0:0:
15,196,58941,6,0,P|76:204|117:217,1,80,2|0,1:2|1:2,0:0:0:0:
254,144,59232,2,0,P|247:102|225:37,1,80,2|0,0:2|1:2,0:0:0:0:
158,137,59523,1,10,0:2:0:0:
338,180,59669,2,0,P|360:245|313:329,1,160,0|8,1:2|0:2,0:0:0:0:
93,212,60106,5,2,1:2:0:0:
182,261,60252,2,0,P|231:247|282:240,1,80,0|2,1:2|0:2,0:0:0:0:
338,180,60543,1,0,1:2:0:0:
259,242,60688,1,10,0:2:0:0:
421,343,60834,2,0,P|429:284|457:183,1,160,0|8,1:2|0:2,0:0:0:0:
260,244,61271,5,2,1:2:0:0:
320,68,61417,2,0,P|363:116|339:221,1,160,0|0,1:2|1:2,0:0:0:0:
200,63,61854,1,10,0:2:0:0:
100,182,61999,2,0,P|181:161|269:147,1,160,0|8,1:2|0:2,0:0:0:0:
167,255,62436,6,0,P|156:302|153:358,1,80,2|0,1:2|1:2,0:0:0:0:
347,195,62727,2,0,P|342:155|333:116,1,80,0|0,0:0|1:2,0:0:0:0:
269,289,63019,1,10,0:2:0:0:
440,307,63164,2,0,P|379:310|323:391,1,160,0|8,1:2|0:2,0:0:0:0:
175,194,63601,5,2,1:2:0:0:
113,321,63747,2,0,P|183:302|284:288,1,160,0|0,1:2|1:2,0:0:0:0:
81,229,64184,2,0,P|33:217|-2:205,1,80,10|0,0:2|1:2,0:0:0:0:
143,59,64475,1,0,0:0:0:0:
220,123,64621,1,8,0:2:0:0:
65,139,64766,6,0,P|55:87|59:36,1,80,2|0,1:2|1:2,0:0:0:0:
298,28,65057,2,0,P|308:80|304:131,1,80,4|4,0:3|0:3,0:0:0:0:
210,3,65349,1,10,0:2:0:0:
373,162,65494,2,0,P|442:167|492:88,1,160,0|8,1:2|0:2,0:0:0:0:
252,191,65931,5,2,1:2:0:0:
358,86,66077,2,0,P|343:142|329:256,1,160,0|0,1:2|1:2,0:0:0:0:
466,359,66514,1,8,0:2:0:0:
500,271,66659,2,0,P|453:267|374:360,1,160,0|8,1:2|0:2,0:0:0:0:
222,270,67096,6,0,P|279:277|321:289,1,80,2|0,1:2|1:2,0:0:0:0:
108,336,67388,2,0,P|98:277|101:238,1,80,2|0,0:2|1:2,0:0:0:0:
231,91,67679,1,10,0:2:0:0:
277,182,67824,2,0,P|205:187|137:124,1,160,0|8,1:2|0:2,0:0:0:0:
162,25,68261,5,2,1:2:0:0:
63,153,68407,2,0,P|110:138|161:130,1,80,0|0,1:2|0:0,0:0:0:0:
231,91,68698,1,0,1:2:0:0:
82,60,68844,5,10,0:2:0:0:
305,188,68989,2,0,B|332:149|332:149|346:85|296:38,1,160,0|8,1:2|0:2,0:0:0:0:
206,196,69426,2,0,P|194:243|190:289,1,80,2|0,1:2|0:2,0:0:0:0:
430,303,69718,2,0,P|424:263|414:224,1,80,10|0,0:2|1:2,0:0:0:0:
195,179,70009,2,0,P|183:226|179:272,1,80,10|0,0:2|1:2,0:0:0:0:
322,371,70300,1,10,0:2:0:0:
318,361,70372,1,8,0:2:0:0:
315,352,70445,1,8,0:2:0:0:
313,342,70518,1,8,0:2:0:0:
311,332,70591,6,0,B|225:321|248:363|144:341,1,160,6|8,1:2|0:2,0:0:0:0:
198,196,71028,1,0,3:0:0:0:
67,366,71174,2,0,P|70:328|86:277,1,80,0|0,1:2|0:2,0:0:0:0:
26,135,71465,2,0,P|73:154|126:167,1,80,10|0,0:2|0:2,0:0:0:0:
267,258,71756,6,0,B|288:248|304:227|304:227|360:249|431:237,1,160,2|8,1:2|0:2,0:0:0:0:
480,111,72193,1,0,3:2:0:0:
288,97,72339,2,0,P|341:124|380:135,1,80,0|0,1:2|3:2,0:0:0:0:
408,60,72630,1,10,0:2:0:0:
234,175,72776,5,0,0:2:0:0:
234,175,72849,1,0,0:0:0:0:
234,175,72922,2,0,P|181:159|134:157,1,80,2|0,1:2|0:0,0:0:0:0:
27,58,73213,2,0,P|66:52|104:39,1,80,10|0,0:2|3:2,0:0:0:0:
63,183,73504,2,0,P|54:230|44:265,1,80,2|0,1:2|3:2,0:0:0:0:
234,175,73795,2,0,P|243:128|253:93,1,80,10|0,0:2|0:2,0:0:0:0:
136,269,74087,6,0,P|180:311|305:290,1,160,2|10,1:2|0:2,0:0:0:0:
459,195,74523,1,0,3:2:0:0:
305,227,74669,2,0,P|341:242|380:253,1,80,2|0,1:2|3:2,0:0:0:0:
497,369,74960,2,0,P|491:330|482:291,1,80,10|0,0:2|3:2,0:0:0:0:
412,107,75252,6,0,P|379:151|390:270,1,160,6|8,1:2|0:2,0:0:0:0:
459,195,75688,1,0,3:2:0:0:
295,145,75834,2,0,P|304:104|323:57,1,80,0|0,1:2|3:2,0:0:0:0:
483,31,76125,2,0,P|496:68|505:107,1,80,10|0,0:2|0:2,0:0:0:0:
295,145,76417,6,0,B|241:129|241:129|189:167|114:162,1,160,2|8,1:2|0:2,0:0:0:0:
52,116,76854,1,0,3:2:0:0:
142,0,76999,2,0,P|157:51|159:103,1,80,0|0,1:2|0:2,0:0:0:0:
78,226,77290,2,0,P|34:215|-14:209,1,80,10|0,0:2|0:2,0:0:0:0:
170,363,77582,6,0,P|214:352|262:346,1,80,2|0,1:2|0:0,0:0:0:0:
202,171,77873,2,0,P|187:215|188:266,1,80,10|0,0:2|3:2,0:0:0:0:
356,384,78164,2,0,P|365:330|340:253,1,120,2|0,1:2|0:0,0:0:0:0:
339,256,78455,2,0,P|384:266|429:271,1,80,10|0,0:2|0:2,0:0:0:0:
512,122,78747,6,0,P|467:132|422:137,1,80,2|0,1:2|0:2,0:0:0:0:
279,44,79038,2,0,P|335:85|333:188,1,160,10|2,0:2|1:2,0:0:0:0:
207,232,79475,1,0,0:0:0:0:
265,138,79621,1,8,0:2:0:0:
255,135,79693,1,8,0:2:0:0:
245,132,79766,1,8,0:2:0:0:
235,130,79839,1,8,0:2:0:0:
226,128,79912,2,0,P|182:138|128:149,1,80,4|0,1:2|0:0,0:0:0:0:
317,309,80203,6,0,P|309:268|289:219,1,80,10|0,0:2|3:2,0:0:0:0:
163,308,80494,2,0,P|149:345|141:384,1,80,2|0,1:2|0:2,0:0:0:0:
35,254,80786,2,0,P|27:213|7:164,1,80,10|0,0:2|0:0,0:0:0:0:
89,72,81077,2,0,P|137:116|243:86,1,160,2|8,1:2|0:2,0:0:0:0:
168,28,81514,1,0,0:0:0:0:
311,149,81659,2,0,P|322:98|323:45,1,80,2|0,1:2|0:2,0:0:0:0:
184,208,81951,2,0,P|187:247|196:286,1,80,10|0,0:2|3:2,0:0:0:0:
382,224,82242,6,0,P|438:210|509:248,1,120,2|0,1:2|0:2,0:0:0:0:
503,252,82533,2,0,P|488:300|486:343,1,80,10|0,0:2|3:2,0:0:0:0:
309,279,82824,2,0,P|253:265|182:303,1,120,0|0,1:2|0:0,0:0:0:0:
188,307,83115,2,0,P|203:355|205:398,1,80,10|0,0:2|0:2,0:0:0:0:
54,313,83407,6,0,P|36:243|112:166,1,160,2|10,1:2|0:2,0:0:0:0:
184,207,83844,1,8,0:2:0:0:
184,207,83917,1,8,0:2:0:0:
184,207,83989,1,10,0:2:0:0:
59,88,84135,1,8,0:3:0:0:
162,40,84281,1,6,0:3:0:0:
59,88,84426,1,4,0:3:0:0:
260,256,84572,6,0,P|269:205|268:150,1,80,14|0,0:2|1:2,0:0:0:0:
146,47,84863,2,0,P|148:86|155:126,1,80,8|0,0:2|1:2,0:0:0:0:
348,164,85155,1,8,0:2:0:0:
235,76,85300,1,0,1:2:0:0:
438,32,85446,2,0,P|435:71|428:111,1,80,8|0,0:2|1:2,0:0:0:0:
469,268,85737,6,0,P|421:253|366:244,1,80,14|0,0:2|1:2,0:0:0:0:
225,359,86028,2,0,P|273:344|328:335,1,80,8|0,0:2|1:2,0:0:0:0:
167,212,86320,1,8,0:2:0:0:
110,320,86465,1,0,1:2:0:0:
266,249,86611,1,8,0:2:0:0:
110,320,86756,1,0,1:2:0:0:
266,249,86902,6,0,P|276:207|278:142,1,80,14|0,0:2|1:2,0:0:0:0:
124,30,87193,2,0,P|127:69|137:108,1,80,8|0,0:2|1:2,0:0:0:0:
336,80,87485,2,0,P|292:74|250:65,1,80,8|0,0:2|1:2,0:0:0:0:
107,218,87776,2,0,P|151:212|193:203,1,80,8|0,0:2|1:2,0:0:0:0:
333,313,88067,5,14,0:2:0:0:
425,216,88213,2,0,P|432:164|430:108,1,80,0|12,1:2|0:2,0:0:0:0:
310,212,88504,1,0,1:2:0:0:
310,212,88577,1,0,1:2:0:0:
310,212,88650,1,10,0:2:0:0:
445,311,88795,1,8,0:2:0:0:
238,364,88941,1,8,0:2:0:0:
457,308,89087,1,14,0:2:0:0:
