osu file format v14

[General]
AudioFilename: audio.mp3
AudioLeadIn: 0
PreviewTime:51878
Countdown: 0
SampleSet: Soft
StackLeniency: 0.7
Mode: 0
LetterboxInBreaks: 0
WidescreenStoryboard: 1

[Editor]
DistanceSpacing: 1
BeatDivisor: 4
GridSize: 32
TimelineZoom: 1

[Metadata]
Title:Silent Minority (TV Size)
TitleUnicode:Silent Minority (TV Size)
Artist:Ito Kashitaro
ArtistUnicode:伊東歌詞太郎
Creator:Sotarks
Version:Akitoshi's Normal
Source:乙女ゲー世界はモブに厳しい世界です
Tags:Otome Game Sekai wa Mob ni Kibishii desu Trapped in a Dating Sim: The World of Games is Tough for Mobs op opening male vocals vocalist light novel mecha anime akitoshi corinn -laura- pepekcz koldnoodl shikibe mayu shizuku- kazato asa japanese jrock j-rock j rock akkin kadokawa
BeatmapID:3628960
BeatmapSetID:1771982

[Difficulty]
HPDrainRate:4
CircleSize:3
OverallDifficulty:4
ApproachRate:5.5
SliderMultiplier:0.999999999999999
SliderTickRate:1

[Events]
//Background and Video events
0,0,"bg.jpg",0,0
Video,0,"video.mp4"
//Break Periods
//Storyboard Layer 0 (Background)
//Storyboard Layer 1 (Fail)
//Storyboard Layer 2 (Pass)
//Storyboard Layer 3 (Foreground)
//Storyboard Layer 4 (Overlay)
//Storyboard Sound Samples

[TimingPoints]
689,291.26213592233,4,2,22,72,1,0
5203,-100,4,2,22,72,0,0
14523,-111.111111111111,4,2,22,62,0,0
19184,-100,4,2,22,62,0,0
23844,-111.111111111111,4,2,22,62,0,0
28504,-100,4,2,22,62,0,0
33164,-111.111111111111,4,2,22,52,0,0
42630,-100,4,2,22,62,0,0
47290,-100,4,2,22,72,0,0
51951,-95.2380952380952,4,2,22,82,0,0
84572,-95.2380952380952,4,2,22,92,0,0

[Colours]
Combo1 : 153,198,234
Combo2 : 255,235,164

[HitObjects]
256,192,689,12,0,3892,0:0:0:0:
291,172,4766,6,0,L|296:229,1,50,8|4,0:2|1:3,0:0:0:0:
249,310,5203,6,0,B|197:332|145:329|145:329|109:301,1,150,6|10,1:2|0:2,0:2:0:0:
47,224,5931,2,0,P|35:180|57:125,1,99.9999999999999,10|0,0:2|0:2,0:0:0:0:
88,95,6368,2,0,P|128:120|192:112,1,99.9999999999999,10|0,0:2|1:2,0:2:0:0:
228,108,6805,1,10,0:2:0:0:
317,63,7096,2,0,L|309:7,2,50,8|10|10,0:2|0:2|0:2,0:0:0:0:
348,102,7533,6,0,B|323:197|323:197|372:245,1,150,6|10,1:2|0:2,0:2:0:0:
372,332,8261,2,0,P|319:347|273:339,1,99.9999999999999,10|0,0:2|0:2,0:0:0:0:
232,314,8698,2,0,P|238:264|224:217,1,99.9999999999999,10|2,0:2|1:2,0:2:0:0:
192,178,9135,1,10,0:2:0:0:
113,115,9426,2,0,L|123:52,2,50,10|8|10,0:2|0:2|0:2,0:0:0:0:
68,139,9863,6,0,B|91:233|91:233|47:282,1,150,6|8,1:2|0:2,0:2:0:0:
98,363,10591,2,0,L|205:349,1,99.9999999999999,10|0,0:2|0:2,0:0:0:0:
232,314,11028,2,0,L|339:328,1,99.9999999999999,10|2,0:2|1:2,0:2:0:0:
380,335,11465,1,8,0:2:0:0:
446,260,11756,2,0,P|468:266|500:265,2,50,10|8|8,0:2|0:2|0:2,0:0:0:0:
405,229,12193,6,0,B|430:137|430:137|384:87,1,150,6|10,1:2|0:2,0:2:0:0:
305,47,12922,1,10,0:2:0:0:
305,47,13067,2,0,P|259:69|203:57,1,99.9999999999999,2|10,1:2|0:2,0:2:0:0:
164,47,13504,2,0,P|186:93|174:149,1,99.9999999999999,2|10,0:2|0:2,0:0:0:0:
107,210,14087,2,0,L|50:200,2,50,10|8|10,0:2|0:2|0:2,0:0:0:0:
132,246,14523,6,0,B|190:238|190:238|212:249|212:249|274:240,1,134.999995880127,6|10,1:2|0:2,0:2:0:0:
322,173,15252,2,0,P|299:125|337:42,2,134.999995880127,2|0|8,1:2|1:2|0:2,0:0:0:0:
396,224,16417,2,0,L|379:322,1,89.999997253418,0|8,1:0|0:2,0:0:0:0:
370,356,16854,6,0,B|312:348|312:348|290:359|290:359|228:350,1,134.999995880127,6|10,1:2|0:2,0:2:0:0:
168,294,17582,2,0,P|106:328|33:300,2,134.999995880127,2|2|10,1:2|1:2|0:2,0:0:0:0:
207,212,18747,2,0,L|191:123,1,89.999997253418,0|8,1:0|0:2,0:0:0:0:
187,73,19184,6,0,B|237:81|268:89|268:89|290:70|328:62,1,150,6|10,1:2|0:2,0:2:0:0:
429,58,19912,1,2,1:2:0:0:
501,126,20203,1,10,0:2:0:0:
458,216,20494,2,0,P|411:232|361:223,1,99.9999999999999,2|10,1:2|0:2,0:2:0:0:
319,209,20931,1,8,0:2:0:0:
319,209,21077,2,0,P|335:256|326:306,1,99.9999999999999,2|10,1:2|0:2,0:2:0:0:
234,343,21659,6,0,L|125:361,2,99.9999999999999,2|10|0,1:2|0:2|1:2,0:2:0:0:
236,242,22533,2,0,P|181:220|126:231,1,99.9999999999999,10|0,0:2|1:2,0:2:0:0:
50,266,23116,1,8,0:2:0:0:
16,172,23407,2,0,L|24:113,1,50,0|8,1:2|0:2,0:0:0:0:
29,76,23698,1,8,0:2:0:0:
29,76,23844,6,0,B|105:60|105:60|137:72|158:97,1,134.999995880127,6|10,1:2|0:2,0:2:0:0:
228,140,24572,2,0,P|272:105|357:113,2,134.999995880127,10|10|10,0:2|0:2|0:2,0:2:0:0:
178,215,25737,2,0,L|192:309,1,89.999997253418,0|8,1:2|0:2,0:0:0:0:
198,348,26174,6,0,B|274:364|274:364|306:352|327:327,1,134.999995880127,2|10,1:2|0:2,0:2:0:0:
390,274,26902,2,0,P|434:309|519:301,2,134.999995880127,10|10|10,0:2|0:2|0:2,0:2:0:0:
341,198,28067,2,0,L|354:108,1,89.999997253418,8|8,0:2|0:2,0:2:0:0:
358,59,28504,6,0,B|315:64|288:84|288:84|262:58|212:52,1,150,6|10,1:2|0:2,0:2:0:0:
121,59,29232,1,2,1:2:0:0:
61,139,29523,1,10,0:2:0:0:
109,226,29815,2,0,P|167:246|212:234,1,99.9999999999999,2|10,1:2|0:2,0:0:0:0:
246,210,30252,1,8,0:2:0:0:
246,210,30397,2,0,P|304:190|349:202,1,99.9999999999999,2|10,1:2|0:2,0:2:0:0:
411,267,30980,6,0,L|510:252,2,99.9999999999999,6|8|0,1:2|0:2|0:0,0:2:0:0:
340,337,31854,2,0,L|241:322,1,99.9999999999999,10|0,0:2|1:2,0:0:0:0:
141,309,32436,1,8,0:2:0:0:
64,245,32727,2,0,L|55:184,1,50,0|8,1:2|0:2,0:0:0:0:
52,149,33019,1,8,0:2:0:0:
52,149,33164,6,0,P|105:168|181:133,1,134.999995880127,6|2,1:2|1:2,0:2:0:0:
195,51,33892,2,0,L|99:38,2,89.999997253418,0|2|0,1:2|1:2|1:2,0:0:0:0:
284,64,34766,1,2,1:2:0:0:
341,132,35057,2,0,P|353:171|340:223,1,89.999997253418,2|2,1:2|1:2,0:2:0:0:
280,283,35640,6,0,L|184:270,2,89.999997253418,2|0|0,1:2|1:2|1:2,0:2:0:0:
352,336,36514,2,0,P|399:345|451:329,2,89.999997253418,2|0|0,1:2|1:2|1:2,0:2:0:0:
280,283,37388,1,2,1:2:0:0:
280,193,37679,1,0,1:2:0:0:
352,139,37970,6,0,P|399:130|451:146,2,89.999997253418,2|2|0,1:2|1:2|1:2,0:2:0:0:
280,193,38844,2,0,L|179:174,1,89.999997253418,2|0,1:2|1:2,0:2:0:0:
104,153,39426,1,0,1:2:0:0:
42,219,39718,1,2,1:2:0:0:
59,307,40009,1,2,1:2:0:0:
135,353,40300,6,0,P|185:361|227:346,2,89.999997253418,2|0|0,1:2|1:2|1:2,0:2:0:0:
174,271,41174,2,0,P|215:258|264:269,1,89.999997253418,2|0,1:2|1:2,0:2:0:0:
337,312,41756,1,2,1:2:0:0:
408,256,42048,2,0,L|394:157,1,89.999997253418,2|0,1:2|1:2,0:2:0:0:
378,68,42630,6,0,P|326:57|276:74,1,99.9999999999999,4|4,1:2|0:3,0:2:0:0:
195,121,43213,1,4,1:3:0:0:
195,220,43504,1,4,1:3:0:0:
123,289,43795,2,0,P|71:300|21:283,1,99.9999999999999,4|4,1:3|1:3,0:0:0:0:
77,200,44378,2,0,P|41:160|31:108,1,99.9999999999999,12|12,1:3|1:3,0:0:0:0:
130,116,44960,6,0,L|237:101,1,99.9999999999999,4|4,1:3|1:3,0:0:0:0:
267,69,45397,1,4,0:3:0:0:
267,69,45543,2,0,L|374:84,1,99.9999999999999,4|4,1:3|1:3,0:0:0:0:
432,157,46125,2,0,P|452:206|442:258,1,99.9999999999999,12|12,1:3|1:3,0:0:0:0:
418,294,46562,1,8,1:3:0:0:
418,294,46708,2,0,L|433:359,2,50,8|4|8,1:2|0:3|1:3,0:2:0:0:
327,250,47290,6,0,P|272:246|226:268,1,99.9999999999999,14|8,0:2|0:2,0:0:0:0:
193,294,47727,1,0,1:2:0:0:
193,294,47873,2,0,P|138:298|92:276,1,99.9999999999999,10|8,0:2|0:2,0:0:0:0:
32,205,48455,2,0,P|28:150|50:104,1,99.9999999999999,10|8,0:2|0:2,0:0:0:0:
83,77,48892,1,0,1:2:0:0:
83,77,49038,2,0,P|128:95|178:90,1,99.9999999999999,10|8,0:2|0:2,0:0:0:0:
265,41,49621,5,14,0:2:0:0:
346,99,49912,1,4,1:3:0:0:
308,191,50203,2,0,L|196:205,1,99.9999999999999,8|8,1:3|1:2,0:0:0:0:
140,276,50786,2,0,L|63:266,2,74.9999999999999,14|8|8,1:2|0:2|0:2,0:0:0:0:
168,317,51368,2,0,P|217:334|275:320,1,99.9999999999999,8|4,0:2|0:3,0:0:0:0:
337,251,51951,5,6,1:2:0:0:
337,251,52096,2,0,L|324:142,1,104.999996795654,0|0,1:2|1:2,0:2:0:0:
314,95,52533,2,0,P|271:113|196:94,1,104.999996795654,8|2,0:2|0:2,0:0:0:0:
138,41,53116,1,2,1:2:0:0:
138,41,53261,2,0,P|95:23|20:42,1,104.999996795654,0|0,1:2|1:2,0:2:0:0:
1,68,53698,2,0,L|13:172,1,104.999996795654,8|2,0:2|0:2,0:0:0:0:
28,276,54281,5,2,1:2:0:0:
118,329,54572,1,2,0:2:0:0:
210,276,54863,1,10,0:2:0:0:
210,276,55009,2,0,P|249:263|320:283,1,104.999996795654,0|8,1:2|0:2,0:2:0:0:
353,306,55446,1,2,1:2:0:0:
443,252,55737,1,2,0:2:0:0:
401,155,56028,1,10,0:2:0:0:
401,155,56174,2,0,L|283:136,1,104.999996795654,0|8,1:2|0:2,0:2:0:0:
261,108,56611,5,2,1:2:0:0:
261,108,56756,2,0,L|143:127,1,104.999996795654,0|0,1:2|1:2,0:2:0:0:
106,137,57193,2,0,P|127:179|120:241,1,104.999996795654,8|2,0:2|0:2,0:0:0:0:
81,334,57776,1,2,1:2:0:0:
81,334,57922,2,0,P|123:355|185:348,1,104.999996795654,0|0,1:2|1:2,0:2:0:0:
220,318,58358,2,0,L|323:334,1,104.999996795654,8|2,0:2|0:2,0:0:0:0:
427,349,58941,5,2,1:2:0:0:
495,269,59232,1,2,0:2:0:0:
438,187,59523,1,10,0:2:0:0:
438,187,59669,2,0,P|375:201|322:176,1,104.999996795654,0|8,1:2|0:2,0:2:0:0:
287,174,60106,1,2,1:2:0:0:
200,232,60397,1,2,0:2:0:0:
113,183,60688,1,10,0:2:0:0:
113,183,60834,2,0,P|98:140|112:80,1,104.999996795654,0|8,1:2|0:2,0:2:0:0:
147,46,61271,5,2,1:2:0:0:
147,46,61417,2,0,P|190:61|250:47,1,104.999996795654,0|0,1:2|1:2,0:2:0:0:
293,24,61854,2,0,L|402:39,1,104.999996795654,10|0,0:2|0:0,0:0:0:0:
445,131,62436,2,0,L|336:146,1,104.999996795654,2|0,1:2|0:0,0:0:0:0:
274,227,63019,1,10,0:2:0:0:
274,227,63164,2,0,P|295:261|295:331,1,104.999996795654,0|8,1:2|0:2,0:2:0:0:
259,361,63601,6,0,L|150:346,1,104.999996795654,2|0,1:2|0:0,0:0:0:0:
76,276,64184,2,0,P|74:224|99:178,1,104.999996795654,10|0,0:2|0:0,0:0:0:0:
155,91,64766,1,2,1:2:0:0:
155,91,64912,2,0,L|268:104,1,104.999996795654,0|4,1:2|0:3,0:0:0:0:
309,133,65349,1,10,0:2:0:0:
309,133,65494,2,0,L|422:120,1,104.999996795654,0|8,1:2|0:2,0:2:0:0:
465,119,65931,6,0,P|485:175|475:226,1,104.999996795654,2|0,1:2|0:0,0:0:0:0:
421,309,66514,1,8,0:2:0:0:
421,309,66659,2,0,L|316:296,1,104.999996795654,0|8,1:2|0:2,0:2:0:0:
264,289,67096,1,2,1:2:0:0:
198,206,67388,1,2,0:2:0:0:
222,104,67679,2,0,P|176:88|116:99,1,104.999996795654,10|2,0:2|0:2,0:2:0:0:
36,155,68261,5,2,1:2:0:0:
36,155,68407,2,0,L|55:270,1,104.999996795654,0|0,1:2|1:2,0:2:0:0:
68,314,68844,1,10,0:2:0:0:
68,314,68989,2,0,P|114:298|174:309,1,104.999996795654,0|8,1:2|0:2,0:2:0:0:
214,333,69426,1,2,1:2:0:0:
319,333,69718,1,10,0:2:0:0:
379,247,70009,2,0,L|388:188,1,52.4999983978271,10|0,0:2|1:2,0:0:0:0:
422,156,70300,2,0,L|413:97,1,52.4999983978271,10|8,0:2|0:2,0:0:0:0:
403,52,70591,6,0,P|349:34|295:51,1,104.999996795654,6|8,1:2|0:2,0:2:0:0:
214,100,71174,1,0,1:2:0:0:
157,188,71465,2,0,L|168:247,1,52.4999983978271,10|0,0:0|0:0,0:0:0:0:
170,292,71756,2,0,P|116:310|62:293,1,104.999996795654,2|8,1:2|0:2,0:2:0:0:
1,219,72339,1,0,1:2:0:0:
71,141,72630,2,0,L|134:148,1,52.4999983978271,10|0,0:2|0:2,0:2:0:0:
157,188,72922,6,0,L|278:168,1,104.999996795654,2|10,1:2|0:2,0:2:0:0:
339,101,73504,2,0,L|460:121,1,104.999996795654,2|10,1:2|0:2,0:0:0:0:
509,201,74087,1,2,1:2:0:0:
483,302,74378,1,10,0:2:0:0:
379,317,74669,2,0,L|327:308,1,52.4999983978271,2|0,1:2|0:2,0:0:0:0:
283,279,74960,2,0,L|231:287,1,52.4999983978271,10|0,0:2|0:2,0:0:0:0:
184,261,75252,6,0,P|189:208|164:150,2,104.999996795654,6|8|0,1:2|0:2|1:2,0:2:0:0:
100,324,76125,1,10,0:2:0:0:
11,267,76417,2,0,L|26:156,1,104.999996795654,2|8,1:2|0:2,0:2:0:0:
48,60,76999,1,0,1:2:0:0:
148,30,77290,2,0,L|207:40,1,52.4999983978271,10|0,0:0|0:0,0:0:0:0:
252,47,77582,6,0,P|277:101|264:163,1,104.999996795654,2|10,1:2|0:2,0:2:0:0:
179,194,78164,2,0,P|154:248|167:310,1,104.999996795654,2|10,1:2|0:2,0:2:0:0:
227,370,78747,1,2,1:2:0:0:
331,370,79038,1,10,0:2:0:0:
413,304,79329,2,0,L|401:244,1,52.4999983978271,0|0,1:2|0:2,0:0:0:0:
369,211,79621,2,0,L|381:151,1,52.4999983978271,8|8,0:2|0:2,0:0:0:0:
391,108,79912,6,0,P|344:125|281:109,1,104.999996795654,4|10,1:2|0:2,0:2:0:0:
193,75,80494,1,2,1:2:0:0:
141,167,80786,2,0,L|148:223,1,52.4999983978271,10|0,0:2|0:2,0:0:0:0:
151,271,81077,2,0,P|99:288|33:261,1,104.999996795654,2|8,1:2|0:2,0:0:0:0:
6,180,81659,1,2,1:2:0:0:
35,78,81951,1,10,0:0:0:0:
141,65,82242,6,0,L|202:76,1,52.4999983978271,2|0,1:2|0:2,0:0:0:0:
239,99,82533,2,0,L|300:88,1,52.4999983978271,10|0,0:2|0:2,0:0:0:0:
331,57,82824,2,0,P|378:38|439:53,1,104.999996795654,0|10,1:2|0:2,0:0:0:0:
500,125,83407,1,2,1:2:0:0:
448,216,83698,1,10,0:2:0:0:
344,196,83989,2,0,L|282:209,2,52.4999983978271,10|8|6,0:2|0:3|0:3,0:0:0:0:
381,294,84572,6,0,P|327:316|277:307,1,104.999996795654,14|8,0:2|0:2,0:0:0:0:
240,338,85009,1,0,1:2:0:0:
240,338,85155,2,0,P|186:316|136:325,1,104.999996795654,8|8,0:2|0:2,0:0:0:0:
36,331,85737,2,0,L|22:217,1,104.999996795654,14|8,0:2|0:2,0:0:0:0:
6,182,86174,1,0,1:2:0:0:
6,182,86320,2,0,L|20:68,1,104.999996795654,8|8,0:2|0:2,0:0:0:0:
109,24,86902,6,0,P|132:55|140:125,1,104.999996795654,14|8,0:2|0:2,0:0:0:0:
135,175,87339,1,0,1:2:0:0:
135,175,87485,2,0,P|169:157|239:162,1,104.999996795654,8|8,0:2|0:2,0:0:0:0:
334,189,88067,2,0,L|314:292,1,104.999996795654,14|12,0:2|0:2,0:0:0:0:
228,351,88650,1,10,0:2:0:0:
228,351,88795,2,0,L|166:364,1,52.4999983978271,8|8,0:2|0:2,0:0:0:0:
124,373,89087,1,14,0:2:0:0:
