osu file format v14

[General]
AudioFilename: audio.mp3
AudioLeadIn: 0
PreviewTime: 49370
Countdown: 0
SampleSet: Soft
StackLeniency: 0.4
Mode: 0
LetterboxInBreaks: 0
WidescreenStoryboard: 1

[Editor]
Bookmarks: 12790,25177,37564,49757
DistanceSpacing: 1
BeatDivisor: 2
GridSize: 32
TimelineZoom: 1.4

[Metadata]
Title:Setsuna Plus
TitleUnicode:刹那プラス
Artist:Ito Kashitaro
ArtistUnicode:伊東歌詞太郎
Creator:Nikakis
Version:Kisses' Easy
Source:
Tags:momentary plus weezer fuwamoko-p mikitop mikito-p みきとP my little white cat itou kashitarou utaite yahuri kyle_y kisses cut version
BeatmapID:1383328
BeatmapSetID:648930

[Difficulty]
HPDrainRate:3
CircleSize:3
OverallDifficulty:3
ApproachRate:4
SliderMultiplier:1
SliderTickRate:1

[Events]
//Background and Video events
0,0,"Moment.Plus.full.1885924.jpg",0,0
//Break Periods
//Storyboard Layer 0 (Background)
//Storyboard Layer 1 (Fail)
//Storyboard Layer 2 (Pass)
//Storyboard Layer 3 (Foreground)
//Storyboard Sound Samples

[TimingPoints]
403,387.096774193548,4,2,0,50,1,0
49757,-100,4,2,0,70,0,1
61564,-100,4,2,0,70,0,0
62144,-100,4,2,0,70,0,1
71628,-100,4,2,0,70,0,0

[Colours]
Combo1 : 61,237,215
Combo2 : 249,215,113
Combo3 : 255,21,28
Combo4 : 216,143,239

[HitObjects]
105,127,12790,6,0,P|150:105|211:114,1,100,4|0,0:0|1:0,0:0:0:0:
260,187,13564,2,0,L|371:172,2,100,2|0|0,0:0|1:0|0:0,0:0:0:0:
225,280,14725,2,0,P|308:335|401:300,1,200,2|0,1:2|1:0,0:0:0:0:
472,239,15886,6,0,L|463:127,1,100,2|0,0:0|1:0,0:0:0:0:
391,69,16661,2,0,P|429:43|486:41,2,100,2|0|0,0:0|1:0|0:0,0:0:0:0:
304,119,17822,2,0,P|225:64|135:102,1,200,2|0,1:2|1:0,0:0:0:0:
62,167,18983,6,0,L|73:276,1,100,4|0,0:0|1:0,0:0:0:0:
164,228,19757,2,0,L|174:327,1,100,2|0,0:0|1:0,0:0:0:0:
264,370,20532,1,2,0:0:0:0:
321,288,20919,2,0,B|387:241|432:335|520:289,1,200,2|0,1:2|1:0,0:0:0:0:
468,203,22080,5,2,0:0:0:0:
508,112,22467,1,0,1:0:0:0:
433,47,22854,2,0,P|389:43|334:67,1,100,2|0,0:0|1:0,0:0:0:0:
246,24,23628,1,2,0:0:0:0:
182,99,24015,2,0,L|200:324,1,200,2|0,1:2|1:0,0:0:0:0:
281,353,25177,6,0,P|324:330|373:336,1,100,4|0,0:0|1:0,0:0:0:0:
447,268,25951,2,0,L|456:151,2,100,2|0|0,0:0|1:0|0:0,0:0:0:0:
352,236,27112,2,0,B|325:139|325:139|380:51,1,200,2|0,1:2|1:0,0:0:0:0:
284,17,28273,6,0,L|168:6,1,100,2|0,0:0|1:0,0:0:0:0:
106,70,29048,2,0,L|6:79,1,100,2|0,0:0|1:0,0:0:0:0:
33,175,29822,1,2,0:0:0:0:
1,266,30209,2,0,P|84:317|184:284,1,200,2|0,1:2|1:0,0:0:0:0:
261,234,31370,5,4,0:0:0:0:
276,332,31757,1,0,1:0:0:0:
357,274,32144,2,0,L|491:265,1,100,2|0,0:0|1:0,0:0:0:0:
497,175,32919,1,2,0:0:0:0:
452,87,33306,2,0,B|362:41|362:41|267:84,1,200,2|0,1:2|1:0,0:0:0:0:
192,21,34467,6,0,L|89:13,2,100,2|0|0,0:0|1:0|0:0,0:0:0:0:
181,120,35628,1,0,1:0:0:0:
265,173,36015,1,2,0:0:0:0:
212,257,36402,2,0,B|118:295|118:295|26:242,1,200,2|0,1:2|1:0,0:0:0:0:
12,149,37564,6,0,L|229:131,2,200,4|2|2,0:0|0:0|0:0,0:0:0:0:
76,334,39886,2,0,L|214:346,1,100,2|0,0:0|1:0,0:0:0:0:
242,268,40661,6,0,P|224:226|235:166,1,100,4|0,0:0|1:0,0:0:0:0:
321,130,41435,2,0,P|361:194|334:274,2,150,2|2|0,0:0|0:0|1:0,0:0:0:0:
121,145,43370,1,0,1:0:0:0:
73,59,43757,6,0,B|155:10|193:108|277:48,2,200,4|2|2,0:0|0:0|0:0,0:0:0:0:
14,250,46080,2,0,L|22:349,1,100,2|0,0:0|1:0,0:0:0:0:
256,192,46854,12,0,48596,1:0:0:0:
393,271,49757,6,0,P|340:234|262:254,1,150,4|0,0:0|1:0,0:0:0:0:
172,208,50725,1,2,0:0:0:0:
122,294,51112,1,0,1:0:0:0:
46,228,51499,2,0,B|28:181|28:181|45:125,1,100,2|0,0:0|1:0,0:0:0:0:
96,52,52273,1,2,0:0:0:0:
225,127,52854,6,0,L|422:110,1,150,4|0,0:0|1:0,0:0:0:0:
451,178,53822,1,2,0:0:0:0:
369,236,54209,1,0,1:0:0:0:
414,322,54596,2,0,B|463:346|463:346|514:333,2,100,2|0|0,0:0|1:0|0:0,0:0:0:0:
264,334,55951,6,0,P|225:283|255:190,1,150,4|0,0:0|1:0,0:0:0:0:
200,112,56919,1,2,0:0:0:0:
331,39,57499,2,0,B|410:24|410:24|468:68,1,150,4|0,0:0|1:0,0:0:0:0:
441,163,58467,1,2,0:0:0:0:
487,305,59048,6,0,L|314:294,1,150,4|0,0:0|1:0,0:0:0:0:
269,222,60015,2,0,P|237:286|264:364,2,150,2|4|0,0:0|0:0|1:0,0:0:0:0:
417,30,62144,6,0,L|267:39,1,150,4|0,0:0|1:0,0:0:0:0:
195,109,63112,1,2,0:0:0:0:
115,48,63499,1,0,1:0:0:0:
42,117,63886,2,0,B|24:166|24:166|36:217,1,100,2|0,0:0|1:0,0:0:0:0:
82,297,64661,1,2,0:0:0:0:
210,220,65241,6,0,L|365:205,1,150,4|0,0:0|1:0,0:0:0:0:
331,109,66209,1,2,0:0:0:0:
420,63,66596,1,0,1:0:0:0:
484,139,66983,2,0,B|471:242,2,100,2|0|2,0:0|1:0|0:0,0:0:0:0:
336,164,68338,6,0,P|263:180|194:137,1,150,4|0,0:0|1:0,0:0:0:0:
125,211,69306,2,0,L|139:360,2,150,2|2|0,0:0|0:0|1:0,0:0:0:0:
255,0,71628,5,4,0:0:0:0:
