osu file format v14

[General]
AudioFilename: audio.mp3
AudioLeadIn: 0
PreviewTime: 49370
Countdown: 0
SampleSet: None
StackLeniency: 0.2
Mode: 0
LetterboxInBreaks: 0
WidescreenStoryboard: 0

[Editor]
DistanceSpacing: 0.5
BeatDivisor: 4
GridSize: 4
TimelineZoom: 1.8

[Metadata]
Title:Setsuna Plus
TitleUnicode:刹那プラス
Artist:Ito Kashitaro
ArtistUnicode:伊東歌詞太郎
Creator:Nikakis
Version:Fondness
Source:
Tags:momentary plus weezer fuwamoko-p mikitop mikito-p みきとP my little white cat itou kashitarou utaite yahuri kyle_y kisses cut version
BeatmapID:1412370
BeatmapSetID:648930

[Difficulty]
HPDrainRate:6
CircleSize:4
OverallDifficulty:7
ApproachRate:8.5
SliderMultiplier:1.7
SliderTickRate:1

[Events]
//Background and Video events
0,0,"Moment.Plus.full.1885924.jpg",0,0
//Break Periods
//Storyboard Layer 0 (Background)
//Storyboard Layer 1 (Fail)
//Storyboard Layer 2 (Pass)
//Storyboard Layer 3 (Foreground)
//Storyboard Sound Samples

[TimingPoints]
403,387.096774193548,4,3,1,50,1,0
12790,-100,4,3,1,60,0,0
37564,-113.636363636364,4,3,1,50,0,0
40661,-128.205128205129,4,3,1,50,0,0
43757,-113.636363636364,4,3,1,50,0,0
49757,-100,4,3,1,70,0,1
61564,-100,4,3,1,70,0,0
62144,-100,4,3,1,70,0,1
71628,-100,4,3,1,70,0,0
72402,-100,4,3,1,5,0,0

[Colours]
Combo1 : 61,237,215
Combo2 : 249,215,113
Combo3 : 255,21,28
Combo4 : 216,143,239

[HitObjects]
72,12,12790,6,0,L|60:184,1,170,4|8,0:2|0:0,0:0:0:0:
91,276,13370,1,0,2:0:0:0:
136,188,13564,2,0,L|142:97,1,85,0|0,0:0|0:0,0:0:0:0:
275,216,13951,2,0,P|250:250|210:265,1,85,10|0,0:0|2:0,0:0:0:0:
214,107,14338,5,0,0:0:0:0:
384,184,14532,1,0,2:0:0:0:
211,264,14725,2,0,L|401:271,1,170,8|0,0:0|0:0,0:0:0:0:
428,128,15306,1,0,0:0:0:0:
380,270,15499,1,10,0:0:0:0:
440,100,15693,1,0,2:0:0:0:
312,188,15886,6,0,P|272:200|224:184,1,85,0|0,0:0|2:0,0:0:0:0:
225,63,16273,2,0,L|314:61,1,85,8|0,0:0|2:0,0:0:0:0:
184,124,16661,2,0,P|156:88|155:43,1,85,0|0,3:0|0:0,0:0:0:0:
312,188,17048,2,0,L|299:303,1,85,10|0,3:0|2:0,0:0:0:0:
225,63,17435,5,0,0:0:0:0:
388,188,17629,1,0,2:0:0:0:
184,124,17822,2,0,L|16:152,1,170,10|0,0:0|0:0,0:0:0:0:
228,276,18402,2,0,P|276:256|292:196,1,85,0|8,0:0|0:0,0:0:0:0:
304,124,18790,1,10,0:0:0:0:
228,276,18983,6,0,L|60:248,1,170,4|10,0:2|0:0,0:0:0:0:
250,196,19564,1,0,2:0:0:0:
172,344,19757,2,0,L|4:316,1,170,0|10,0:0|0:0,0:0:0:0:
88,176,20338,1,0,2:0:0:0:
183,259,20532,6,0,L|168:366,1,85,0|0,0:0|2:0,0:0:0:0:
284,200,20919,2,0,B|296:108|296:108|264:36,1,170,10|0,0:0|0:0,0:0:0:0:
163,165,21499,1,0,2:0:0:0:
272,284,21693,2,0,L|284:199,1,85,10|0,0:0|2:0,0:0:0:0:
264,37,22080,5,0,0:0:0:0:
132,188,22273,1,0,2:0:0:0:
287,116,22467,1,10,0:0:0:0:
148,24,22661,1,0,2:0:0:0:
247,180,22854,2,0,P|292:191|331:177,1,85,0|0,0:0|2:0,0:0:0:0:
424,108,23241,1,10,0:0:0:0:
287,116,23435,1,0,2:0:0:0:
319,263,23628,6,0,L|327:178,1,85,0|0,0:0|2:0,0:0:0:0:
294,31,24015,2,0,L|286:116,1,85,10|0,0:0|0:0,0:0:0:0:
206,195,24402,1,0,0:0:0:0:
122,186,24596,1,0,2:0:0:0:
208,360,24790,1,4,0:2:0:0:
194,348,25177,6,0,P|170:260|208:192,1,170,4|8,0:2|0:0,0:0:0:0:
287,115,25757,1,0,2:0:0:0:
205,194,25951,2,0,P|164:205|124:194,1,85
172,40,26338,2,0,L|164:125,1,85,10|0,0:0|2:3,0:0:0:0:
152,244,26725,5,0,0:0:0:0:
76,100,26919,1,0,0:0:0:0:
79,288,27112,2,0,P|159:324|242:252,1,170,8|0,0:0|2:0,0:0:0:0:
160,159,27693,2,0,L|149:265,2,85,0|10|0,0:0|0:0|2:0,0:0:0:0:
96,48,28273,5,0,0:0:0:0:
236,116,28467,1,0,0:0:0:0:
32,104,28661,1,8,0:0:0:0:
167,83,28854,1,0,2:0:0:0:
116,228,29048,1,0,0:0:0:0:
112,136,29241,1,0,0:0:0:0:
188,264,29435,1,10,0:0:0:0:
44,188,29628,1,0,2:0:0:0:
251,307,29822,6,0,P|263:266|252:226,1,85
81,299,30209,2,0,L|253:307,1,170,10|0,0:0|0:0,0:0:0:0:
376,216,30790,1,0,0:0:0:0:
250,306,30983,1,10,0:0:0:0:
400,192,31177,1,10,0:0:0:0:
250,306,31370,6,0,P|209:317|168:306,1,85,4|0,0:2|0:0,0:0:0:0:
256,147,31757,2,0,P|245:188|256:228,1,85,10|0,0:0|0:0,0:0:0:0:
405,269,32144,1,0,0:0:0:0:
323,187,32338,1,0,2:0:0:0:
324,269,32532,1,10,0:0:0:0:
363,118,32726,1,0,2:0:0:0:
405,269,32919,6,0,P|445:280|485:268,1,85,0|0,0:0|2:0,0:0:0:0:
510,119,33306,2,0,P|436:82|363:119,1,170,10|0,0:0|0:0,0:0:0:0:
324,269,33886,1,0,2:0:0:0:
263,203,34080,2,0,P|222:191|182:203,1,85,10|0,0:0|2:0,0:0:0:0:
216,352,34467,6,0,L|224:268,1,85,0|0,0:0|2:0,0:0:0:0:
348,212,34854,2,0,L|264:204,1,85,10|0,0:0|2:0,0:0:0:0:
159,194,35241,1,0,0:0:0:0:
300,284,35435,1,0,2:0:0:0:
187,104,35628,1,10,0:0:0:0:
225,268,35822,1,0,2:0:0:0:
346,131,36015,6,0,P|420:163|426:244,1,170,4|0,0:0|0:0,0:0:0:0:
348,317,36596,1,10,0:0:0:0:
178,210,36790,2,0,L|347:211,1,170,4|4,0:0|0:2,0:0:0:0:
348,317,37370,1,0,0:0:0:0:
430,211,37564,5,4,0:2:0:0:
422,285,37757,1,0,0:0:0:0:
348,317,37951,2,0,L|274:309,1,74.8000022827149,8|0,3:3|0:0,0:0:0:0:
215,192,38338,2,0,L|290:184,1,74.8000022827149,0|0,2:0|0:0,0:0:0:0:
273,308,38725,2,0,L|198:300,1,74.8000022827149,10|0,0:0|2:0,0:0:0:0:
141,185,39112,5,0,0:2:0:0:
215,192,39305,1,0,0:0:0:0:
198,300,39499,2,0,L|123:292,1,74.8000022827149,8|0,0:3|0:0,0:0:0:0:
141,185,39886,2,0,L|150:111,1,74.8000022827149,0|0,2:0|0:0,0:0:0:0:
290,200,40273,2,0,L|215:192,1,74.8000022827149,10|0,0:0|2:0,0:0:0:0:
305,68,40661,6,0,L|290:199,1,132.600004451294,4|8,0:2|0:0,0:0:0:0:
273,343,41241,2,0,L|280:277,1,66.300002225647,0|0,0:0|2:0,0:0:0:0:
289,199,41628,1,0,0:0:0:0:
194,308,41822,1,10,0:0:0:0:
360,363,42015,1,0,2:0:0:0:
360,363,42112,1,0,0:0:0:0:
360,363,42209,6,0,L|367:298,1,66.300002225647,0|0,0:0|2:0,0:0:0:0:
378,209,42596,1,8,0:0:0:0:
279,277,42790,2,0,L|272:343,1,66.300002225647,0|0,2:2|0:2,0:2:0:0:
289,199,43177,1,0,0:0:0:0:
367,297,43371,1,10,0:0:0:0:
378,209,43563,1,0,2:0:0:0:
279,277,43757,5,4,0:2:0:0:
214,323,43950,1,0,0:0:0:0:
165,260,44144,2,0,L|173:186,1,74.8000022827149,8|0,0:3|0:0,0:0:0:0:
289,127,44531,2,0,L|297:202,1,74.8000022827149
173,185,44918,2,0,L|181:110,1,74.8000022827149,10|0,0:0|2:0,0:0:0:0:
297,53,45305,5,4,0:2:0:0:
289,127,45498,1,0,0:0:0:0:
180,110,45692,2,0,L|188:35,1,74.8000022827149,8|0,3:3|0:0,0:0:0:0:
297,53,46079,2,0,L|371:62,1,74.8000022827149,0|0,0:0|0:0,0:0:0:0:
282,202,46467,2,0,L|290:127,1,74.8000022827149,10|0,0:0|2:0,0:0:0:0:
459,44,46854,5,4,0:2:0:0:
256,192,47048,12,4,48402,0:2:0:0:
170,91,48596,5,8,0:0:0:0:
236,196,48790,1,0,0:0:0:0:
263,84,48983,1,0,0:0:0:0:
140,172,49177,1,10,0:0:0:0:
308,152,49371,1,0,0:0:0:0:
204,12,49564,1,10,0:0:0:0:
236,196,49757,6,0,P|316:232|399:160,1,170,4|0,0:2|0:0,0:0:0:0:
448,112,50338,1,10,0:0:0:0:
460,248,50532,1,10,0:0:0:0:
308,152,50725,2,0,P|295:112|307:72,1,85,0|0,0:0|0:0,0:0:0:0:
372,112,51112,1,10,0:0:0:0:
240,20,51306,1,0,0:0:0:0:
382,195,51499,6,0,P|422:207|461:194,1,85,0|0,2:0|0:0,0:0:0:0:
372,112,51886,2,0,P|384:72|372:32,1,85,10|10,3:0|0:0,0:0:0:0:
228,152,52273,2,0,P|267:139|307:151,1,85,0|0,0:0|0:0,0:0:0:0:
382,195,52661,1,8,0:0:0:0:
180,79,52854,6,0,P|144:159|216:242,1,170,4|0,0:2|0:0,0:0:0:0:
304,287,53435,1,10,0:0:0:0:
228,152,53628,1,10,0:0:0:0:
224,332,53822,1,0,0:0:0:0:
328,164,54015,1,0,0:0:0:0:
340,372,54209,1,10,0:0:0:0:
228,152,54402,1,0,0:0:0:0:
340,372,54596,6,0,L|424:383,1,85,0|0,2:0|3:0,0:0:0:0:
396,300,54983,2,0,L|408:216,1,85,10|10,0:0|0:0,0:0:0:0:
220,276,55370,2,0,L|304:287,1,85,0|0,0:0|0:0,0:0:0:0:
396,300,55757,1,8,0:0:0:0:
148,256,55951,6,0,P|110:182|146:109,1,170,4|0,0:2|0:0,0:0:0:0:
330,169,56532,2,0,L|246:178,1,85,10|0,0:0|2:0,0:0:0:0:
226,181,56822,1,0,2:0:0:0:
206,183,56919,1,0,0:0:0:0:
288,94,57112,1,0,0:0:0:0:
148,256,57306,1,10,0:0:0:0:
408,244,57499,6,0,P|446:170|410:97,1,170,4|0,0:2|0:0,0:0:0:0:
226,157,58080,2,0,L|310:166,1,85,10|0,0:0|2:0,0:0:0:0:
330,169,58370,1,0,2:0:0:0:
350,171,58467,1,0,0:0:0:0:
268,82,58661,1,0,0:0:0:0:
408,244,58854,1,10,0:0:0:0:
196,31,59048,6,0,P|270:-4|343:34,1,170,4|0,0:2|0:0,0:0:0:0:
226,157,59628,2,0,L|142:147,1,85,8|0,0:0|0:0,0:0:0:0:
37,96,60015,2,0,L|47:12,1,85,0|0,0:0|0:0,0:0:0:0:
196,31,60402,1,8,0:0:0:0:
203,226,60596,6,0,P|283:262|366:190,1,170,4|0,0:2|0:0,0:0:0:0:
267,98,61177,2,0,L|277:182,1,85,10|0,0:0|0:0,0:0:0:0:
299,334,61564,1,10,0:0:0:0:
326,329,61660,1,8,0:0:0:0:
355,325,61757,1,8,0:0:0:0:
383,323,61854,1,8,0:0:0:0:
410,319,61951,1,8,0:0:0:0:
276,181,62144,6,0,L|103:199,1,170,4|0,0:2|0:0,0:0:0:0:
284,265,62725,2,0,L|275:180,1,85,10|10,0:0|0:0,0:0:0:0:
97,114,63112,2,0,L|106:199,1,85
275,180,63499,1,10,0:0:0:0:
92,40,63693,1,0,0:0:0:0:
275,180,63886,6,0,L|360:172,1,85,0|0,2:0|0:0,0:0:0:0:
308,96,64273,2,0,L|300:11,1,85,10|10,0:0|0:0,0:0:0:0:
120,72,64661,2,0,P|160:84|200:72,1,85
300,11,65048,1,8,0:0:0:0:
318,260,65241,6,0,P|244:296|171:260,1,170,4|0,0:2|0:0,0:0:0:0:
124,116,65822,1,10,0:0:0:0:
244,216,66015,1,10,0:0:0:0:
196,48,66209,1,0,0:0:0:0:
170,259,66402,1,0,0:0:0:0:
345,119,66596,1,10,0:0:0:0:
112,204,66789,1,0,0:0:0:0:
345,38,66983,6,0,P|357:77|345:117,1,85,0|0,2:0|0:0,0:0:0:0:
383,203,67370,2,0,P|342:215|302:202,1,85,10|10,0:0|0:0,0:0:0:0:
197,79,67757,2,0,P|236:66|276:78,1,85,0|0,0:0|0:0,0:0:0:0:
303,203,68144,1,8,0:0:0:0:
153,7,68338,6,0,P|117:80|153:153,1,170,4|0,3:2|0:0,0:0:0:0:
303,203,68919,1,10,0:0:0:0:
197,79,69112,1,10,0:0:0:0:
364,244,69306,2,0,P|376:204|365:164,1,85,0|0,0:0|0:0,0:0:0:0:
285,83,69693,1,8,0:0:0:0:
240,300,69886,6,0,P|160:336|77:264,1,170,0|0,0:0|0:0,0:0:0:0:
40,172,70467,1,8,0:0:0:0:
168,256,70661,1,8,0:0:0:0:
49,87,70854,2,0,L|37:199,1,85,0|0,2:0|2:0,2:0:0:0:
207,150,71241,2,0,L|123:140,1,85,0|0,2:0|2:0,2:0:0:0:
93,299,71628,6,0,B|205:315|205:315|317:299|317:299|429:315,1,340,4|0,3:2|0:0,3:0:0:0:
