osu file format v14

[General]
AudioFilename: setsuna.mp3
AudioLeadIn: 0
PreviewTime: 49694
Countdown: 0
SampleSet: Soft
StackLeniency: 0.7
Mode: 0
LetterboxInBreaks: 0
WidescreenStoryboard: 1

[Editor]
DistanceSpacing: 1
BeatDivisor: 4
GridSize: 16
TimelineZoom: 1.1

[Metadata]
Title:Setsuna Plus
TitleUnicode:刹那プラス
Artist:Ito Kashitaro
ArtistUnicode:伊東歌詞太郎
Creator:Basensorex
Version:Normal
Source:
Tags:japanese pop momentary plus weezer fuwamoko-p mikitop mikito-p みきとP my little white cat itou kashitarou utaite short cut version ver my angel ram my_angel_ram schoolboy komore kuki kuki1537
BeatmapID:2507808
BeatmapSetID:1204361

[Difficulty]
HPDrainRate:4
CircleSize:3.6
OverallDifficulty:4
ApproachRate:5
SliderMultiplier:1
SliderTickRate:1

[Events]
//Background and Video events
0,0,"ito cute.jpeg",0,0
//Break Periods
//Storyboard Layer 0 (Background)
//Storyboard Layer 1 (Fail)
//Storyboard Layer 2 (Pass)
//Storyboard Layer 3 (Foreground)
//Storyboard Layer 4 (Overlay)
//Storyboard Sound Samples

[TimingPoints]
436,387.096774193548,4,2,22,60,1,0
37597,-100,4,2,22,50,0,0
46887,-100,4,2,22,40,0,0
48629,-100,4,2,22,70,0,0
49790,-90.9090909090909,4,2,22,80,0,1
77855,-100,4,2,22,60,0,0

[Colours]
Combo1 : 242,24,57
Combo2 : 255,72,255
Combo3 : 255,128,0

[HitObjects]
29,347,12823,6,0,P|77:331|136:350,1,100,6|8,1:2|0:2,0:2:0:0:
178,258,13597,2,0,P|229:271|288:252,1,100,2|10,1:2|0:2,0:2:0:0:
320,237,14177,1,2,0:2:0:0:
356,203,14371,2,0,L|346:91,2,100,2|10|0,1:2|0:2|1:2,0:0:0:0:
429,271,15532,1,10,0:2:0:0:
502,203,15919,6,0,L|512:91,1,100,2|10,1:2|0:2,0:2:0:0:
424,52,16694,2,0,P|373:65|314:46,1,100,2|10,1:2|0:2,0:2:0:0:
293,90,17274,1,2,0:2:0:0:
257,124,17468,2,0,P|206:111|147:130,2,100,2|10|0,1:2|0:2|1:2,0:0:0:0:
342,176,18629,2,0,L|336:239,1,50,10|10,0:2|0:2,0:0:0:0:
331,275,19016,6,0,B|281:262|281:262|231:275,1,100,6|10,1:2|0:2,0:2:0:0:
149,327,19790,2,0,B|99:339|99:339|49:327,1,100,2|10,1:2|0:2,0:2:0:0:
1,241,20565,1,0,1:2:0:0:
74,173,20952,2,0,L|84:61,1,100,10|0,0:2|1:2,0:2:0:0:
167,20,21726,1,10,0:2:0:0:
252,72,22113,6,0,P|303:59|362:78,1,100,2|10,1:2|0:2,0:0:0:0:
386,101,22694,1,2,0:2:0:0:
419,137,22887,2,0,L|409:249,1,100,2|10,1:2|0:2,0:2:0:0:
407,336,23661,2,0,P|458:349|517:330,2,100,2|10|0,1:2|0:2|1:2,0:2:0:0:
322,282,24823,1,12,0:2:0:0:
242,342,25210,6,0,L|130:332,1,100,6|8,1:2|0:2,0:2:0:0:
63,271,25984,2,0,P|76:220|57:161,1,100,2|10,1:2|0:2,0:2:0:0:
95,136,26565,1,2,0:2:0:0:
125,96,26758,2,0,P|112:45|131:-14,2,100,2|10|0,1:2|0:2|3:2,0:0:0:0:
183,177,27919,1,10,0:2:0:0:
282,173,28306,6,0,L|394:163,1,100,6|10,1:2|0:2,0:0:0:0:
427,253,29081,2,0,L|314:263,1,100,2|10,1:2|0:2,0:0:0:0:
278,269,29661,1,2,0:2:0:0:
228,278,29855,2,0,P|241:329|222:388,2,100,2|10|0,1:2|0:2|3:2,0:0:0:0:
142,329,31016,2,0,L|78:323,1,50,8|10,0:2|0:2,0:0:0:0:
43,314,31403,6,0,B|56:264|56:264|43:214,1,100,6|10,1:2|0:2,0:2:0:0:
105,138,32177,2,0,B|93:88|93:88|105:38,1,100,2|10,1:2|0:2,0:0:0:0:
197,4,32952,1,2,1:2:0:0:
281,57,33339,2,0,P|332:44|391:63,1,100,10|0,0:2|1:2,0:2:0:0:
465,101,34113,1,10,0:2:0:0:
459,200,34500,6,0,L|449:312,1,100,6|10,1:2|0:2,0:0:0:0:
407,325,35081,1,2,0:2:0:0:
368,357,35274,2,0,L|256:347,1,100,0|10,1:2|0:2,0:0:0:0:
195,279,36048,1,6,1:2:0:0:
112,334,36435,1,2,1:2:0:0:
32,273,36823,1,4,1:2:0:0:
73,181,37210,1,12,0:2:0:0:
172,183,37597,6,0,P|185:132|166:73,2,100,6|10|2,1:2|0:2|0:2,0:0:0:0:
195,279,38758,1,10,0:2:0:0:
294,275,39145,2,0,L|405:265,2,100,2|10|2,1:2|0:2|0:2,0:0:0:0:
195,279,40306,1,10,0:2:0:0:
104,236,40694,6,0,P|91:185|110:126,1,100,6|10,1:2|0:2,0:2:0:0:
181,79,41468,2,0,L|339:65,2,150,2|2|8,0:2|0:2|0:2,0:0:0:0:
101,139,43016,1,0,3:2:0:0:
169,211,43403,1,8,0:2:0:0:
95,279,43790,6,0,P|82:330|101:389,2,100,6|10|2,1:2|0:2|1:2,0:0:0:0:
169,211,44952,1,10,0:2:0:0:
252,265,45339,2,0,L|363:255,2,100,6|10|2,1:2|0:2|1:2,0:0:0:0:
169,211,46500,1,10,0:2:0:0:
101,280,46887,5,6,1:2:0:0:
101,280,48629,6,0,L|95:343,2,50,8|0|0,0:2|1:2|1:2,0:0:0:0:
106,230,49210,1,8,0:2:0:0:
118,134,49597,1,8,0:2:0:0:
123,79,49790,6,0,P|174:66|233:85,1,110.000003356934,6|2,1:2|1:2,0:2:0:0:
272,113,50371,1,10,0:2:0:0:
322,210,50758,2,0,P|373:223|432:204,1,110.000003356934,2|10,1:2|0:2,0:2:0:0:
507,132,51532,1,2,0:2:0:0:
456,34,51919,1,10,0:2:0:0:
347,49,52306,2,0,L|352:112,2,55.0000016784668,2|0|8,1:2|1:2|0:2,0:0:0:0:
301,18,52887,6,0,L|189:27,1,110.000003356934,6|2,1:2|1:2,0:2:0:0:
136,25,53468,1,10,0:2:0:0:
26,31,53855,2,0,P|13:82|32:141,1,110.000003356934,2|10,1:2|0:2,0:0:0:0:
128,181,54629,1,2,0:2:0:0:
61,268,55016,1,10,0:2:0:0:
164,306,55403,2,0,P|169:348|168:370,2,55.0000016784668,2|0|8,1:2|1:2|0:2,0:0:0:0:
210,276,55984,6,0,P|261:263|320:282,1,110.000003356934,6|2,1:2|1:2,0:2:0:0:
359,311,56565,1,10,0:2:0:0:
460,268,56952,2,0,L|448:140,1,110.000003356934,10|8,0:3|0:2,0:0:0:0:
443,104,57532,6,0,B|390:90|390:90|337:104,1,110.000003356934,6|2,1:2|1:2,0:2:0:0:
284,122,58113,1,10,0:2:0:0:
182,79,58500,2,0,B|129:92|129:92|76:79,1,110.000003356934,10|8,2:3|0:2,0:0:0:0:
23,96,59081,6,0,P|7:148|20:200,1,110.000003356934,6|0,1:2|1:2,0:2:0:0:
57,240,59661,1,10,0:2:0:0:
147,302,60048,2,0,L|141:365,2,55.0000016784668,2|0|10,1:2|1:2|0:2,0:0:0:0:
194,273,60629,6,0,B|246:259|246:259|299:273,1,110.000003356934,6|2,1:2|1:2,0:2:0:0:
351,293,61210,1,10,0:2:0:0:
442,231,61597,2,0,L|436:167,1,55.0000016784668,8|8,0:2|1:2,0:0:0:0:
433,121,61984,1,8,0:2:0:0:
427,66,62177,6,0,P|376:45|322:54,1,110.000003356934,6|2,1:2|1:2,0:2:0:0:
274,79,62758,1,10,0:2:0:0:
180,137,63145,2,0,L|191:264,1,110.000003356934,2|10,1:2|0:2,0:2:0:0:
222,351,63919,1,2,0:2:0:0:
330,369,64306,1,10,0:2:0:0:
412,296,64694,2,0,P|454:291|476:292,2,55.0000016784668,2|0|8,1:2|1:2|0:2,0:0:0:0:
374,256,65274,6,0,L|264:246,1,110.000003356934,6|2,1:2|1:2,0:2:0:0:
210,236,65855,1,10,0:2:0:0:
113,286,66242,2,0,P|97:233|110:181,1,110.000003356934,2|10,1:2|0:2,0:2:0:0:
100,71,67016,1,2,0:2:0:0:
190,8,67403,1,10,0:2:0:0:
292,47,67790,2,0,L|355:42,2,55.0000016784668,2|0|8,1:2|1:2|0:2,0:0:0:0:
266,96,68371,6,0,P|250:148|263:200,1,110.000003356934,6|2,1:2|1:2,0:2:0:0:
294,246,68952,1,10,0:2:0:0:
287,355,69339,2,0,P|235:370|183:357,1,110.000003356934,2|8,1:2|0:2,0:2:0:0:
132,332,69919,1,2,0:2:0:0:
86,300,70113,2,0,L|98:172,1,110.000003356934,0|10,1:2|0:2,0:0:0:0:
69,83,70887,1,2,1:2:0:0:
163,26,71274,1,10,0:2:0:0:
206,59,71468,6,0,P|211:101|210:123,2,55.0000016784668,6|0|2,1:2|0:2|1:2,0:2:0:0:
253,31,72048,2,0,P|306:15|358:28,1,110.000003356934,10|2,0:2|1:2,0:0:0:0:
453,82,72823,1,8,0:2:0:0:
405,181,73210,5,8,0:2:0:0:
473,267,73597,1,10,0:2:0:0:
408,355,73984,2,0,L|345:349,1,55.0000016784668,10|8,0:2|0:2,0:0:0:0:
299,347,74371,1,10,0:2:0:0:
189,339,74758,6,0,P|173:286|186:234,1,110.000003356934,6|8,1:2|0:2,0:2:0:0:
217,190,75339,1,8,0:2:0:0:
217,190,75532,2,0,P|259:195|281:194,1,55.0000016784668,8|8,0:2|0:2,0:0:0:0:
295,244,75919,2,0,P|337:239|359:240,1,55.0000016784668,8|8,0:2|0:2,0:0:0:0:
455,285,76500,1,8,0:2:0:0:
455,285,76694,2,0,L|461:222,1,55.0000016784668,0|0,1:2|0:2,0:2:0:0:
496,188,77081,2,8,P|515:128|445:67,1,165.000005035401,8|0,0:2|1:2,0:2:0:0:
396,63,77855,6,0,L|285:53,1,100,6|8,1:2|0:2,0:0:0:0:
208,101,78629,1,2,1:2:0:0:
130,37,79016,1,8,0:2:0:0:
45,91,79403,2,0,P|31:138|39:186,1,100,2|8,1:2|0:2,0:2:0:0:
110,257,80177,2,0,L|174:251,1,50,2|2,1:2|1:2,0:2:0:0:
210,247,80565,1,8,0:2:0:0:
277,320,80952,6,0,L|377:328,1,100,2|8,1:2|0:2,0:2:0:0:
469,291,81726,2,0,P|479:332|475:357,2,50,2|2|8,1:2|1:2|0:2,0:2:0:0:
417,205,82500,2,0,P|403:157|411:109,1,100,2|8,1:2|0:2,0:2:0:0:
347,31,83274,2,0,L|284:36,1,50,2|2,1:2|1:2,0:2:0:0:
263,72,83661,2,0,L|200:77,1,50,8|8,0:2|0:2,0:0:0:0:
164,83,84048,6,0,P|150:130|158:178,1,100,6|8,1:2|0:2,0:0:0:0:
239,238,84823,1,2,1:2:0:0:
180,319,85210,1,8,0:2:0:0:
264,373,85597,2,0,L|364:364,1,100,2|8,1:2|0:2,0:0:0:0:
454,323,86371,2,0,P|440:276|448:228,1,100,2|8,1:2|0:2,0:2:0:0:
423,182,86952,1,0,0:2:0:0:
396,139,87145,6,0,P|410:92|402:44,1,100,2|8,1:2|0:2,0:2:0:0:
289,0,87919,2,0,L|178:9,1,100,2|8,1:2|0:2,0:2:0:0:
115,76,88694,1,2,1:2:0:0:
183,149,89081,1,8,0:2:0:0:
122,228,89468,2,0,L|128:292,1,50,2|2,1:2|1:2,0:0:0:0:
133,327,89855,1,12,0:2:0:0:
224,367,90242,5,6,0:2:0:0:
