osu file format v14

[General]
AudioFilename: audio.mp3
AudioLeadIn: 0
PreviewTime: 200059
Countdown: 0
SampleSet: Soft
StackLeniency: 0.7
Mode: 2
LetterboxInBreaks: 0
WidescreenStoryboard: 0

[Editor]
Bookmarks: 25709,50644,94280,125449,162851,187786,200254,212722,231423,268825
DistanceSpacing: 0.5
BeatDivisor: 8
GridSize: 32
TimelineZoom: 1.6

[Metadata]
Title:Sayonara dake ga jinsei da
TitleUnicode:さよならだけが人生だ
Artist:Ito Kashitaro
ArtistUnicode:伊東歌詞太郎
Creator:Jemzuu
Version:Jemzuu & Crowley's gratitude.
Source:
Tags:Crowley AJamez midorijeon life is only full of goodbyes Circle of Friends Vol.3 レフティモンスターp leftymonsterp itou kashitarou japanese pop collab male vocal
BeatmapID:3876389
BeatmapSetID:1882781

[Difficulty]
HPDrainRate:5
CircleSize:3.8
OverallDifficulty:8.5
ApproachRate:8.5
SliderMultiplier:3.2
SliderTickRate:4

[Events]
//Background and Video events
0,0,"90086104_p0.jpg.png",0,0
//Break Periods
//Storyboard Layer 0 (Background)
//Storyboard Layer 1 (Fail)
//Storyboard Layer 2 (Pass)
//Storyboard Layer 3 (Foreground)
//Storyboard Layer 4 (Overlay)
//Storyboard Sound Samples

[TimingPoints]
774,779.220779220779,4,2,2,17,1,0
1553,-100,4,2,2,7,0,0
2137,-100,4,2,2,17,0,0
3111,-100,4,2,2,7,0,0
3890,-100,4,2,2,17,0,0
4669,-100,4,2,2,7,0,0
5254,-100,4,2,2,17,0,0
6228,-100,4,2,2,7,0,0
6617,-100,4,2,2,17,0,0
7786,-100,4,2,2,7,0,0
8175,-100,4,2,2,17,0,0
8955,-100,4,2,2,25,0,0
9053,-100,4,2,2,17,0,0
9345,-100,4,2,2,7,0,0
9734,-100,4,2,2,17,0,0
10903,-100,4,2,2,7,0,0
11683,-100,4,2,2,17,0,0
12462,-100,4,2,2,7,0,0
13241,-100,4,2,2,22,0,0
14020,-100,4,2,2,7,0,0
14605,-100,4,2,2,22,0,0
15968,-100,4,2,2,22,0,0
17722,-100,4,2,2,22,0,0
18793,-100,4,2,2,22,0,0
20643,-100,4,2,2,22,0,0
22202,-100,4,2,2,22,0,0
24150,-100,4,2,2,22,0,0
24929,-100,4,2,2,20,0,0
25319,-100,4,2,2,18,0,0
25709,-100,4,2,2,22,0,0
26877,-100,4,2,2,22,0,0
28436,-100,4,2,2,22,0,0
29994,-100,4,2,2,22,0,0
31163,-100,4,2,2,10,0,0
31552,-100,4,2,2,22,0,0
33111,-100,4,2,2,22,0,0
34670,-100,4,2,2,22,0,0
36228,-100,4,2,2,22,0,0
37786,-100,4,2,2,22,0,0
39345,-100,4,2,2,22,0,0
40904,-100,4,2,2,22,0,0
42170,-100,4,2,2,22,0,0
43728,-100,4,2,2,22,0,0
45579,-100,4,2,2,22,0,0
47137,-100,4,2,2,22,0,0
48890,-100,4,2,2,40,0,0
49280,-100,4,2,6,50,0,0
49377,-100,4,2,2,50,0,0
50254,-100,4,2,3,50,0,0
50644,-100,4,2,2,40,0,0
50741,-100,4,2,2,50,0,0
51033,-100,4,2,9,50,0,0
51228,-100,4,2,2,50,0,0
51423,-100,4,2,8,50,0,0
51521,-100,4,2,2,50,0,0
51812,-100,4,2,9,50,0,0
51910,-100,4,2,2,50,0,0
52202,-100,4,2,8,50,0,0
52300,-100,4,2,2,50,0,0
52591,-100,4,2,8,50,0,0
53371,-100,4,2,9,50,0,0
53566,-100,4,2,2,50,0,0
53761,-100,4,2,8,50,0,0
53859,-100,4,2,2,50,0,0
54150,-100,4,2,9,50,0,0
54345,-100,4,2,2,50,0,0
54540,-100,4,2,8,50,0,0
54638,-100,4,2,2,50,0,0
54929,-100,4,2,9,50,0,0
55124,-100,4,2,2,50,0,0
55319,-100,4,2,8,50,0,0
55417,-100,4,2,2,50,0,0
55708,-100,4,2,8,50,0,0
56196,-100,4,2,2,50,0,0
56488,-100,4,2,9,40,0,0
56585,-100,4,2,2,50,0,0
56877,-100,4,2,8,50,0,0
56975,-100,4,2,2,50,0,0
57266,-100,4,2,9,50,0,0
57462,-100,4,2,2,50,0,0
57657,-100,4,2,8,50,0,0
57755,-100,4,2,2,50,0,0
58046,-100,4,2,9,50,0,0
58144,-100,4,2,2,50,0,0
58436,-100,4,2,8,50,0,0
58534,-100,4,2,2,50,0,0
58825,-100,4,2,8,50,0,0
59605,-100,4,2,9,50,0,0
59800,-100,4,2,2,50,0,0
59994,-100,4,2,8,50,0,0
60092,-100,4,2,2,50,0,0
60383,-100,4,2,9,50,0,0
60579,-100,4,2,2,50,0,0
60773,-100,4,2,8,50,0,0
60871,-100,4,2,2,50,0,0
61163,-100,4,2,9,50,0,0
61358,-100,4,2,2,50,0,0
61553,-100,4,2,8,50,0,0
61651,-100,4,2,2,50,0,0
61942,-100,4,2,6,50,0,0
62040,-100,4,2,2,50,0,0
62722,-100,4,2,3,40,0,0
63111,-100,4,2,2,40,0,0
63209,-100,4,2,2,50,0,0
63501,-100,4,2,9,50,0,0
63599,-100,4,2,2,50,0,0
63890,-100,4,2,8,50,0,0
63988,-100,4,2,2,50,0,0
64279,-100,4,2,9,50,0,0
64670,-100,4,2,8,50,0,0
64768,-100,4,2,2,50,0,0
65059,-100,4,2,8,50,0,0
65157,-100,4,2,2,50,0,0
65449,-100,4,2,8,50,0,0
65546,-100,4,2,2,55,0,0
65838,-100,4,2,9,55,0,0
66228,-100,4,2,8,50,0,0
66326,-100,4,2,2,50,0,0
66617,-100,4,2,9,50,0,0
66812,-100,4,2,2,50,0,0
67007,-100,4,2,8,50,0,0
67105,-100,4,2,2,50,0,0
67397,-100,4,2,9,50,0,0
67592,-100,4,2,2,50,0,0
67786,-100,4,2,8,50,0,0
67884,-100,4,2,2,50,0,0
68175,-100,4,2,8,50,0,0
68664,-100,4,2,2,50,0,0
68760,-100,4,2,8,50,0,0
68955,-100,4,2,7,50,0,0
69150,-100,4,2,2,50,0,0
69345,-100,4,2,8,50,0,0
69443,-100,4,2,2,50,0,0
69734,-100,4,2,9,50,0,0
69929,-100,4,2,2,50,0,0
70123,-100,4,2,8,50,0,0
70514,-100,4,2,9,50,0,0
70709,-100,4,2,2,50,0,0
70903,-100,4,2,8,50,0,0
71001,-100,4,2,2,50,0,0
71292,-100,4,2,8,50,0,0
72462,-100,4,2,3,40,0,0
72559,-100,4,2,3,50,0,0
73046,-100,4,2,3,40,0,0
73241,-100,4,2,6,50,0,0
73339,-100,4,2,2,50,0,0
74020,-100,4,2,6,50,0,0
74215,-100,4,2,2,50,0,0
74799,-100,4,2,6,50,0,0
74994,-100,4,2,2,50,0,0
75189,-100,4,2,3,50,0,0
75384,-100,4,2,3,35,0,0
75579,-100,4,2,2,35,0,0
75679,-100,4,2,2,45,0,0
75968,-100,4,2,10,45,0,0
76358,-100,4,2,10,35,0,0
76455,-100,4,2,2,45,0,0
76747,-100,4,2,11,35,0,0
76942,-100,4,2,2,45,0,0
77136,-100,4,2,10,45,0,0
77527,-100,4,2,11,35,0,0
77624,-100,4,2,2,45,0,0
77916,-100,4,2,10,35,0,0
78014,-100,4,2,2,45,0,0
78305,-100,4,2,11,45,0,0
78501,-100,4,2,2,45,0,0
78696,-100,4,2,10,45,0,0
78794,-100,4,2,2,45,0,0
79085,-100,4,2,11,35,0,0
79280,-100,4,2,2,45,0,0
79474,-100,4,2,10,35,0,0
79670,-100,4,2,10,45,0,0
79864,-100,4,2,11,35,0,0
79962,-100,4,2,2,45,0,0
80254,-100,4,2,2,35,0,0
80448,-100,4,2,2,45,0,0
80838,-100,4,2,2,50,0,0
81227,-100,4,2,3,50,0,0
81423,-100,4,2,6,55,0,0
81521,-100,4,2,2,55,0,0
81812,-100,4,2,2,40,0,0
81910,-100,4,2,2,50,0,0
82201,-100,4,2,10,50,0,0
82690,-100,4,2,2,50,0,0
82981,-100,4,2,11,50,0,0
83176,-100,4,2,2,50,0,0
83370,-100,4,2,10,50,0,0
83859,-100,4,2,2,50,0,0
84150,-100,4,2,10,50,0,0
84248,-100,4,2,2,50,0,0
84539,-100,4,2,10,50,0,0
84929,-100,4,2,2,40,0,0
85027,-100,4,2,2,50,0,0
86098,-100,4,2,6,50,0,0
86196,-100,4,2,2,50,0,0
86682,-100,4,2,2,25,0,0
86877,-100,4,2,2,50,0,0
87267,-100,4,2,6,50,0,0
87365,-100,4,2,2,50,0,0
88046,-100,4,2,2,40,0,0
88144,-100,4,2,2,50,0,0
88825,-100,4,2,2,53,0,0
89605,-100,4,2,2,56,0,0
90384,-100,4,2,2,59,0,0
91163,-100,4,2,6,50,0,0
91261,-100,4,2,2,50,0,0
91553,-100,4,2,2,40,0,0
91942,-100,4,2,8,30,0,0
92040,-100,4,2,2,30,0,0
92527,-100,4,2,2,40,0,0
92916,-100,4,2,2,50,0,0
93111,-100,4,2,6,50,0,0
93209,-100,4,2,2,50,0,0
94280,-83.3333333333333,4,2,1,65,0,0
94377,-83.3333333333333,4,2,1,75,0,0
95059,-83.3333333333333,4,2,6,75,0,0
95157,-83.3333333333333,4,2,2,75,0,0
95838,-83.3333333333333,4,2,6,75,0,0
95936,-83.3333333333333,4,2,2,75,0,0
96618,-83.3333333333333,4,2,6,75,0,0
97495,-83.3333333333333,4,2,2,75,0,0
98176,-83.3333333333333,4,2,6,75,0,0
98274,-83.3333333333333,4,2,2,75,0,0
98955,-83.3333333333333,4,2,6,75,0,0
99053,-83.3333333333333,4,2,2,75,0,0
99735,-83.3333333333333,4,2,6,75,0,0
100514,-83.3333333333333,4,2,2,65,0,0
100611,-83.3333333333333,4,2,2,75,0,0
101293,-83.3333333333333,4,2,6,75,0,0
101391,-83.3333333333333,4,2,2,75,0,0
102072,-83.3333333333333,4,2,6,75,0,0
102170,-83.3333333333333,4,2,2,75,0,0
102851,-83.3333333333333,4,2,6,75,0,0
102949,-83.3333333333333,4,2,2,75,0,0
103631,-83.3333333333333,4,2,6,75,0,0
103729,-83.3333333333333,4,2,2,75,0,0
104410,-83.3333333333333,4,2,6,75,0,0
104508,-83.3333333333333,4,2,2,75,0,0
105189,-83.3333333333333,4,2,2,65,0,0
105384,-83.3333333333333,4,2,2,75,0,0
106163,-83.3333333333333,4,2,1,75,0,0
106358,-83.3333333333333,4,2,2,75,0,0
106553,-83.3333333333333,4,2,3,75,0,0
106748,-83.3333333333333,4,2,2,65,0,0
106845,-83.3333333333333,4,2,2,75,0,0
107527,-83.3333333333333,4,2,6,75,0,0
107625,-83.3333333333333,4,2,2,75,0,0
108306,-83.3333333333333,4,2,6,75,0,0
108404,-83.3333333333333,4,2,2,75,0,0
109085,-83.3333333333333,4,2,6,75,0,0
109864,-83.3333333333333,4,2,2,65,0,0
109962,-83.3333333333333,4,2,2,75,0,0
110644,-83.3333333333333,4,2,6,55,0,0
110741,-83.3333333333333,4,2,2,75,0,0
111423,-83.3333333333333,4,2,6,75,0,0
111521,-83.3333333333333,4,2,2,75,0,0
112202,-83.3333333333333,4,2,6,75,0,0
112981,-83.3333333333333,4,2,2,65,0,0
113079,-83.3333333333333,4,2,2,75,0,0
113761,-83.3333333333333,4,2,6,75,0,0
113859,-83.3333333333333,4,2,2,75,0,0
114540,-83.3333333333333,4,2,6,75,0,0
114638,-83.3333333333333,4,2,2,75,0,0
115319,-83.3333333333333,4,2,6,75,0,0
115417,-83.3333333333333,4,2,2,75,0,0
116098,-83.3333333333333,4,2,2,60,0,0
116877,-83.3333333333333,4,2,3,60,0,0
117657,-83.3333333333333,4,2,5,60,0,0
118436,-83.3333333333333,4,2,5,45,0,0
119215,-83.3333333333333,4,2,11,25,0,0
119604,-83.3333333333333,4,2,2,40,0,0
119994,-83.3333333333333,4,2,2,20,0,0
120773,-83.3333333333333,4,2,11,25,0,0
121553,-83.3333333333333,4,2,2,20,0,0
121942,-83.3333333333333,4,2,2,40,0,0
122332,-83.3333333333333,4,2,11,25,0,0
122429,-83.3333333333333,4,2,2,30,0,0
123111,-83.3333333333333,4,2,11,25,0,0
123209,-83.3333333333333,4,2,2,30,0,0
123890,-83.3333333333333,4,2,4,27,0,0
123988,-83.3333333333333,4,2,2,27,0,0
124085,-83.3333333333333,4,2,2,40,0,0
124280,-83.3333333333333,4,2,3,40,0,0
124670,-83.3333333333333,4,2,2,40,0,0
125059,-83.3333333333333,4,2,3,40,0,0
125449,-100,4,2,2,40,0,0
125549,-100,4,2,2,50,0,0
126228,-100,4,2,6,50,0,0
126325,-100,4,2,2,50,0,0
127007,-100,4,2,6,50,0,0
127104,-100,4,2,2,50,0,0
127786,-100,4,2,6,50,0,0
128663,-100,4,2,2,50,0,0
129344,-100,4,2,6,50,0,0
129929,-100,4,2,2,50,0,0
130124,-100,4,2,6,50,0,0
130514,-100,4,2,2,50,0,0
130903,-100,4,2,6,50,0,0
131000,-100,4,2,2,50,0,0
131683,-100,4,2,2,40,0,0
131780,-100,4,2,2,50,0,0
132462,-100,4,2,6,50,0,0
132559,-100,4,2,2,50,0,0
133241,-100,4,2,6,50,0,0
133631,-100,4,2,2,50,0,0
134020,-100,4,2,6,50,0,0
134117,-100,4,2,2,50,0,0
134605,-100,4,2,2,40,0,0
134897,-100,4,2,2,50,0,0
135384,-100,4,2,2,40,0,0
135578,-100,4,2,3,40,0,0
135676,-100,4,2,3,50,0,0
136163,-100,4,2,3,40,0,0
136358,-100,4,2,5,40,0,0
136455,-100,4,2,5,50,0,0
137332,-100,4,2,1,50,0,0
137527,-100,4,2,2,50,0,0
137916,-100,4,2,6,25,0,0
138014,-100,4,2,2,25,0,0
138695,-100,4,2,14,25,0,0
139085,-100,4,2,9,25,0,0
139572,-100,4,2,2,25,0,0
139864,-100,4,2,9,25,0,0
140059,-100,4,2,2,25,0,0
140253,-100,4,2,14,25,0,0
140644,-100,4,2,9,25,0,0
140838,-100,4,2,2,25,0,0
141033,-100,4,2,9,25,0,0
141130,-100,4,2,2,25,0,0
141422,-100,4,2,9,25,0,0
141618,-100,4,2,2,25,0,0
141812,-100,4,2,14,25,0,0
142202,-100,4,2,9,25,0,0
142397,-100,4,2,2,25,0,0
142592,-100,4,2,9,25,0,0
142689,-100,4,2,2,25,0,0
142981,-100,4,2,8,25,0,0
143078,-100,4,2,2,25,0,0
143371,-100,4,2,14,25,0,0
143761,-100,4,2,8,25,0,0
143809,-100,4,2,8,5,0,0
144247,-100,4,2,2,25,0,0
144539,-100,4,2,9,25,0,0
144735,-100,4,2,2,25,0,0
144929,-100,4,2,14,25,0,0
145319,-100,4,2,9,25,0,0
145806,-100,4,2,2,25,0,0
146098,-100,4,2,9,25,0,0
146293,-100,4,2,2,25,0,0
146487,-100,4,2,14,25,0,0
146877,-100,4,2,9,25,0,0
147072,-100,4,2,2,25,0,0
147267,-100,4,2,9,25,0,0
147364,-100,4,2,2,25,0,0
147656,-100,4,2,9,25,0,0
147851,-100,4,2,2,25,0,0
148045,-100,4,2,14,25,0,0
148436,-100,4,2,9,25,0,0
148631,-100,4,2,2,40,0,0
148923,-100,4,2,2,50,0,0
149410,-100,4,2,2,40,0,0
149605,-100,4,2,3,40,0,0
149702,-100,4,2,3,50,0,0
150384,-100,4,2,5,40,0,0
150481,-100,4,2,5,50,0,0
150773,-100,4,2,9,50,0,0
150872,-100,4,2,2,50,0,0
151163,-100,4,2,8,50,0,0
151261,-100,4,2,2,50,0,0
151552,-100,4,2,9,50,0,0
151942,-100,4,2,8,50,0,0
152041,-100,4,2,2,50,0,0
152332,-100,4,2,8,50,0,0
152430,-100,4,2,2,50,0,0
152722,-100,4,2,8,50,0,0
152820,-100,4,2,2,50,0,0
153111,-100,4,2,9,50,0,0
153501,-100,4,2,8,50,0,0
153599,-100,4,2,2,50,0,0
153890,-100,4,2,9,50,0,0
154085,-100,4,2,2,50,0,0
154279,-100,4,2,8,50,0,0
154378,-100,4,2,2,50,0,0
154670,-100,4,2,9,50,0,0
154864,-100,4,2,2,50,0,0
155059,-100,4,2,8,50,0,0
155157,-100,4,2,2,50,0,0
155448,-100,4,2,8,50,0,0
155547,-100,4,2,2,50,0,0
155838,-100,4,2,8,50,0,0
156228,-100,4,2,9,50,0,0
156423,-100,4,2,2,50,0,0
156618,-100,4,2,6,40,0,0
156715,-100,4,2,2,50,0,0
157007,-100,4,2,9,50,0,0
157202,-100,4,2,2,50,0,0
157396,-100,4,2,8,50,0,0
157786,-100,4,2,9,50,0,0
157981,-100,4,2,2,50,0,0
158176,-100,4,2,2,40,0,0
158274,-100,4,2,2,50,0,0
158955,-100,4,2,6,50,0,0
159053,-100,4,2,2,50,0,0
159735,-100,4,2,2,40,0,0
159832,-100,4,2,2,50,0,0
160124,-100,4,2,6,50,0,0
161098,-100,4,2,2,50,0,0
161293,-100,4,2,2,40,0,0
161390,-100,4,2,2,50,0,0
161683,-100,4,2,3,30,0,0
161780,-100,4,2,3,50,0,0
162267,-100,4,2,2,50,0,0
162462,-100,4,2,3,50,0,0
162851,-100,4,2,2,40,0,0
162949,-100,4,2,2,50,0,0
165968,-100,4,2,2,40,0,0
166066,-100,4,2,2,50,0,0
167527,-100,4,2,2,40,0,0
167624,-100,4,2,2,50,0,0
168111,-100,4,2,3,40,0,0
168209,-100,4,2,3,50,0,0
168696,-100,4,2,5,40,0,0
168890,-100,4,2,5,50,0,0
169085,-100,4,2,2,40,0,0
169183,-100,4,2,2,50,0,0
172202,-100,4,2,6,50,0,0
172299,-100,4,2,2,50,0,0
174150,-100,4,2,3,50,0,0
174929,-100,4,2,2,50,0,0
175319,-83.3333333333333,4,2,2,52,0,0
175416,-83.3333333333333,4,2,2,62,0,0
175708,-83.3333333333333,4,2,10,62,0,0
175806,-83.3333333333333,4,2,2,62,0,0
176098,-83.3333333333333,4,2,10,62,0,0
176974,-83.3333333333333,4,2,2,62,0,0
177267,-83.3333333333333,4,2,10,62,0,0
177364,-83.3333333333333,4,2,2,62,0,0
177657,-83.3333333333333,4,2,10,62,0,0
177754,-83.3333333333333,4,2,2,62,0,0
178046,-83.3333333333333,4,2,10,62,0,0
178533,-83.3333333333333,4,2,2,62,0,0
178825,-83.3333333333333,4,2,10,62,0,0
178922,-83.3333333333333,4,2,2,62,0,0
179215,-83.3333333333333,4,2,10,62,0,0
180091,-83.3333333333333,4,2,2,62,0,0
180384,-83.3333333333333,4,2,10,62,0,0
180481,-83.3333333333333,4,2,2,62,0,0
180773,-83.3333333333333,4,2,10,62,0,0
180870,-83.3333333333333,4,2,2,62,0,0
181162,-83.3333333333333,4,2,10,62,0,0
181553,-83.3333333333333,4,2,5,52,0,0
181650,-83.3333333333333,4,2,5,62,0,0
181942,-83.3333333333333,4,2,10,62,0,0
182039,-83.3333333333333,4,2,2,62,0,0
182332,-83.3333333333333,4,2,10,62,0,0
183208,-83.3333333333333,4,2,2,62,0,0
183501,-83.3333333333333,4,2,10,62,0,0
183598,-83.3333333333333,4,2,2,62,0,0
183890,-83.3333333333333,4,2,10,62,0,0
183987,-83.3333333333333,4,2,2,62,0,0
184279,-83.3333333333333,4,2,11,62,0,0
184670,-83.3333333333333,4,2,10,62,0,0
184767,-83.3333333333333,4,2,2,62,0,0
185059,-83.3333333333333,4,2,10,62,0,0
185156,-83.3333333333333,4,2,2,62,0,0
185449,-83.3333333333333,4,2,10,62,0,0
186032,-83.3333333333333,4,2,2,62,0,0
186228,-83.3333333333333,4,2,2,52,0,0
186325,-83.3333333333333,4,2,2,62,0,0
187397,-83.3333333333333,4,2,3,62,0,0
187592,-83.3333333333333,4,2,4,62,0,0
187786,-83.3333333333333,4,2,2,52,0,0
187884,-83.3333333333333,4,2,2,62,0,0
188175,-83.3333333333333,4,2,10,62,0,0
188273,-83.3333333333333,4,2,2,62,0,0
188565,-83.3333333333333,4,2,10,62,0,0
189442,-83.3333333333333,4,2,2,62,0,0
189735,-83.3333333333333,4,2,10,62,0,0
189832,-83.3333333333333,4,2,2,62,0,0
190124,-83.3333333333333,4,2,10,62,0,0
190221,-83.3333333333333,4,2,2,62,0,0
190513,-83.3333333333333,4,2,10,62,0,0
191000,-83.3333333333333,4,2,2,62,0,0
191292,-83.3333333333333,4,2,10,62,0,0
191780,-83.3333333333333,4,2,2,62,0,0
192072,-83.3333333333333,4,2,10,62,0,0
192559,-83.3333333333333,4,2,2,62,0,0
192851,-83.3333333333333,4,2,10,62,0,0
192948,-83.3333333333333,4,2,2,62,0,0
193241,-83.3333333333333,4,2,10,62,0,0
193338,-83.3333333333333,4,2,2,62,0,0
193630,-83.3333333333333,4,2,10,62,0,0
194020,-83.3333333333333,4,2,2,52,0,0
194118,-83.3333333333333,4,2,2,62,0,0
194409,-83.3333333333333,4,2,10,62,0,0
194507,-83.3333333333333,4,2,2,62,0,0
194799,-83.3333333333333,4,2,10,62,0,0
195676,-83.3333333333333,4,2,2,62,0,0
195968,-83.3333333333333,4,2,10,62,0,0
196065,-83.3333333333333,4,2,2,62,0,0
196358,-83.3333333333333,4,2,10,62,0,0
196455,-83.3333333333333,4,2,2,62,0,0
196747,-83.3333333333333,4,2,10,62,0,0
197137,-83.3333333333333,4,2,2,52,0,0
197235,-83.3333333333333,4,2,2,62,0,0
198696,-83.3333333333333,4,2,2,72,0,0
199475,-83.3333333333333,4,2,2,78,0,0
200254,-100,4,2,2,25,0,0
201032,-100,4,2,10,17,0,0
201423,-100,4,2,10,25,0,0
202591,-100,4,2,10,17,0,0
202981,-100,4,2,10,25,0,0
204149,-100,4,2,10,17,0,0
204540,-100,4,2,10,25,0,0
205319,-100,4,2,2,10,0,0
205708,-100,4,2,10,17,0,0
206293,-100,4,2,10,25,0,0
207266,-100,4,2,10,17,0,0
207657,-100,4,2,10,25,0,0
208825,-100,4,2,11,17,0,0
209215,-100,4,2,2,25,0,0
210384,-100,4,2,10,17,0,0
210481,-100,4,2,2,25,0,0
211942,-100,4,2,2,35,0,0
212137,-100,4,2,3,35,0,0
212332,-100,4,2,4,35,0,0
212722,-100,4,2,2,30,0,0
212819,-100,4,2,2,40,0,0
213111,-100,4,2,11,40,0,0
213306,-100,4,2,2,40,0,0
213501,-100,4,2,10,30,0,0
213598,-100,4,2,2,40,0,0
213890,-100,4,2,11,40,0,0
214085,-100,4,2,2,40,0,0
214280,-100,4,2,10,40,0,0
214377,-100,4,2,2,40,0,0
214669,-100,4,2,10,40,0,0
214767,-100,4,2,2,40,0,0
215059,-100,4,2,10,40,0,0
215449,-100,4,2,11,40,0,0
215644,-100,4,2,2,40,0,0
215838,-100,4,2,10,40,0,0
215935,-100,4,2,2,40,0,0
216227,-100,4,2,11,40,0,0
216423,-100,4,2,2,40,0,0
216618,-100,4,2,10,30,0,0
216715,-100,4,2,2,40,0,0
217007,-100,4,2,11,40,0,0
217202,-100,4,2,2,40,0,0
217397,-100,4,2,10,40,0,0
217494,-100,4,2,2,40,0,0
217786,-100,4,2,10,40,0,0
218176,-100,4,2,6,40,0,0
218273,-100,4,2,2,40,0,0
218955,-100,4,2,2,35,0,0
219053,-100,4,2,2,45,0,0
219735,-100,4,2,6,45,0,0
219832,-100,4,2,2,45,0,0
220513,-100,4,2,6,45,0,0
220903,-100,4,2,2,45,0,0
221292,-100,4,2,6,45,0,0
221390,-100,4,2,2,45,0,0
222072,-100,4,2,2,40,0,0
222170,-100,4,2,2,50,0,0
222851,-100,4,2,6,50,0,0
222948,-100,4,2,2,50,0,0
223631,-100,4,2,6,50,0,0
223728,-100,4,2,2,50,0,0
224409,-100,4,2,6,50,0,0
224799,-100,4,2,2,50,0,0
225189,-83.3333333333333,4,2,2,50,0,0
225286,-83.3333333333333,4,2,2,60,0,0
225968,-83.3333333333333,4,2,2,63,0,0
226748,-83.3333333333333,4,2,2,66,0,0
227526,-83.3333333333333,4,2,2,69,0,0
227720,-83.3333333333333,4,2,1,69,0,0
227916,-83.3333333333333,4,2,2,69,0,0
228111,-83.3333333333333,4,2,3,69,0,0
228306,-83.3333333333333,4,2,2,55,0,0
229085,-83.3333333333333,4,2,2,30,0,0
229475,-83.3333333333333,4,2,2,15,0,0
229864,-83.3333333333333,4,2,2,40,0,0
229962,-83.3333333333333,4,2,2,50,0,0
230254,-83.3333333333333,4,2,2,57,0,0
230644,-83.3333333333333,4,2,2,64,0,0
230902,-83.3333333333333,4,2,1,64,0,0
231033,-83.3333333333333,4,2,2,70,0,0
231163,-83.3333333333333,4,2,3,70,0,0
231293,-83.3333333333333,4,2,4,70,0,0
231423,-83.3333333333333,4,2,1,75,0,0
231520,-83.3333333333333,4,2,1,83,0,0
232202,-83.3333333333333,4,2,6,83,0,0
232300,-83.3333333333333,4,2,2,83,0,0
232981,-83.3333333333333,4,2,6,83,0,0
233079,-83.3333333333333,4,2,2,83,0,0
233761,-83.3333333333333,4,2,6,83,0,0
234638,-83.3333333333333,4,2,2,83,0,0
235319,-83.3333333333333,4,2,6,83,0,0
235417,-83.3333333333333,4,2,2,83,0,0
236098,-83.3333333333333,4,2,6,83,0,0
236488,-83.3333333333333,4,2,2,83,0,0
236877,-83.3333333333333,4,2,6,83,0,0
236976,-83.3333333333333,4,2,2,83,0,0
237657,-83.3333333333333,4,2,2,75,0,0
237851,-83.3333333333333,4,2,2,83,0,0
238436,-83.3333333333333,4,2,6,83,0,0
238534,-83.3333333333333,4,2,2,83,0,0
239215,-83.3333333333333,4,2,6,83,0,0
239313,-83.3333333333333,4,2,2,83,0,0
239994,-83.3333333333333,4,2,6,83,0,0
240092,-83.3333333333333,4,2,2,83,0,0
240773,-83.3333333333333,4,2,6,83,0,0
240872,-83.3333333333333,4,2,2,83,0,0
241553,-83.3333333333333,4,2,6,83,0,0
241651,-83.3333333333333,4,2,2,83,0,0
242332,-83.3333333333333,4,2,2,75,0,0
242429,-83.3333333333333,4,2,2,83,0,0
243306,-83.3333333333333,4,2,1,83,0,0
243501,-83.3333333333333,4,2,2,83,0,0
243696,-83.3333333333333,4,2,3,83,0,0
243890,-83.3333333333333,4,2,2,75,0,0
243988,-83.3333333333333,4,2,2,83,0,0
244670,-83.3333333333333,4,2,6,83,0,0
244768,-83.3333333333333,4,2,2,83,0,0
245449,-83.3333333333333,4,2,6,83,0,0
245547,-83.3333333333333,4,2,2,83,0,0
246228,-83.3333333333333,4,2,6,83,0,0
247007,-83.3333333333333,4,2,2,75,0,0
247105,-83.3333333333333,4,2,2,83,0,0
247786,-83.3333333333333,4,2,5,60,0,0
247884,-83.3333333333333,4,2,2,83,0,0
248566,-83.3333333333333,4,2,6,83,0,0
248664,-83.3333333333333,4,2,2,83,0,0
249345,-83.3333333333333,4,2,6,83,0,0
249443,-83.3333333333333,4,2,2,83,0,0
250124,-83.3333333333333,4,2,2,75,0,0
250222,-83.3333333333333,4,2,2,83,0,0
250903,-83.3333333333333,4,2,6,83,0,0
251002,-83.3333333333333,4,2,2,83,0,0
251683,-83.3333333333333,4,2,6,83,0,0
251781,-83.3333333333333,4,2,2,83,0,0
252462,-83.3333333333333,4,2,6,83,0,0
252560,-83.3333333333333,4,2,2,83,0,0
253241,-83.3333333333333,4,2,2,75,0,0
253338,-83.3333333333333,4,2,2,83,0,0
254020,-83.3333333333333,4,2,3,75,0,0
254118,-83.3333333333333,4,2,3,83,0,0
254799,-83.3333333333333,4,2,5,75,0,0
254897,-83.3333333333333,4,2,5,83,0,0
255189,-83.3333333333333,4,2,3,83,0,0
255578,-83.3333333333333,4,2,3,70,0,0
255968,-83.3333333333333,4,2,3,83,0,0
256358,-83.3333333333333,4,2,2,75,0,0
256455,-83.3333333333333,4,2,2,83,0,0
257137,-83.3333333333333,4,2,6,83,0,0
257234,-83.3333333333333,4,2,2,83,0,0
257916,-83.3333333333333,4,2,7,83,0,0
258111,-83.3333333333333,4,2,2,83,0,0
258696,-83.3333333333333,4,2,6,83,0,0
259084,-83.3333333333333,4,2,2,83,0,0
259475,-83.3333333333333,4,2,6,83,0,0
259572,-83.3333333333333,4,2,2,83,0,0
260254,-83.3333333333333,4,2,6,83,0,0
260351,-83.3333333333333,4,2,2,83,0,0
261033,-83.3333333333333,4,2,7,83,0,0
261228,-83.3333333333333,4,2,2,83,0,0
261812,-83.3333333333333,4,2,6,83,0,0
262592,-83.3333333333333,4,2,2,75,0,0
262689,-83.3333333333333,4,2,2,83,0,0
263371,-83.3333333333333,4,2,6,83,0,0
263468,-83.3333333333333,4,2,2,83,0,0
264150,-83.3333333333333,4,2,7,83,0,0
264345,-83.3333333333333,4,2,2,83,0,0
264929,-83.3333333333333,4,2,6,83,0,0
265026,-83.3333333333333,4,2,2,83,0,0
265709,-83.3333333333333,4,2,2,75,0,0
265903,-83.3333333333333,4,2,2,83,0,0
266488,-83.3333333333333,4,2,6,83,0,0
266585,-83.3333333333333,4,2,2,83,0,0
267657,-83.3333333333333,4,2,2,40,0,0
267851,-83.3333333333333,4,2,2,83,0,0
268241,-83.3333333333333,4,2,4,45,0,0
268338,-83.3333333333333,4,2,4,83,0,0
268630,-83.3333333333333,4,2,4,15,0,0
268825,-83.3333333333333,4,2,3,75,0,0
268923,-83.3333333333333,4,2,3,83,0,0
269605,-83.3333333333333,4,2,6,83,0,0
269702,-83.3333333333333,4,2,2,83,0,0
270384,-83.3333333333333,4,2,7,83,0,0
270481,-83.3333333333333,4,2,2,83,0,0
271163,-83.3333333333333,4,2,6,83,0,0
271552,-83.3333333333333,4,2,2,83,0,0
271942,-83.3333333333333,4,2,5,75,0,0
272040,-83.3333333333333,4,2,5,83,0,0
272722,-83.3333333333333,4,2,2,77,0,0
272819,-83.3333333333333,4,2,2,85,0,0
273501,-83.3333333333333,4,2,6,79,0,0
273598,-83.3333333333333,4,2,2,83,0,0
274475,-83.3333333333333,4,2,1,83,0,0
274670,-83.3333333333333,4,2,2,83,0,0
274865,-83.3333333333333,4,2,3,83,0,0
275059,-83.3333333333333,4,2,2,75,0,0
275157,-83.3333333333333,4,2,2,83,0,0
275838,-83.3333333333333,4,2,6,83,0,0
275935,-83.3333333333333,4,2,2,83,0,0
276618,-83.3333333333333,4,2,6,83,0,0
276715,-83.3333333333333,4,2,2,83,0,0
277397,-83.3333333333333,4,2,6,83,0,0
277494,-83.3333333333333,4,2,2,83,0,0
278144,810.810810810811,4,2,2,70,1,0
278144,-83.3333333333333,4,2,2,70,0,0
278955,779.220779220779,4,2,4,70,1,0
278955,-83.3333333333333,4,2,4,70,0,0
279734,779.220779220779,4,2,5,70,1,0
279734,-83.3333333333333,4,2,5,70,0,0
280123,-100,4,2,2,70,0,0
280708,-100,4,2,3,40,0,0
280902,-100,4,2,4,40,0,0
281292,-100,4,2,2,15,0,0
282850,-100,4,2,2,22,0,0
283630,-100,4,2,2,15,0,0
284387,779.220779220779,4,2,2,22,1,0
284484,-100,4,2,2,15,0,0
284971,869.565217391304,4,2,2,15,1,0
285189,1224.48979591837,4,2,2,15,1,0
285801,991.735537190083,4,2,2,15,1,0
286050,1038.96103896104,4,2,2,10,1,0
288387,-100,4,2,2,5,0,0
289167,810.810810810811,4,2,2,15,1,0
289977,697.674418604651,4,2,2,5,1,0
290501,971.65991902834,4,2,2,5,1,0
290744,792.079207920792,4,2,2,15,1,0
290744,-133.333333333333,4,2,2,15,0,0
291536,-100,4,2,2,5,0,0
292328,833.333333333333,4,2,2,15,1,0
292328,-133.333333333333,4,2,2,15,0,0
293161,-100,4,2,2,5,0,0
293982,833.333333333333,4,2,2,15,1,0
293982,-133.333333333333,4,2,2,15,0,0
295231,-100,4,2,2,5,0,0
295648,857.142857142857,4,2,2,15,1,0
295648,-133.333333333333,4,2,2,15,0,0
296485,892.193308550186,4,2,2,15,1,0
296485,-133.333333333333,4,2,2,15,0,0
297377,909.090909090909,4,2,2,5,1,0
297377,-133.333333333333,4,2,2,5,0,0
297831,-100,4,2,2,15,0,0
298286,967.741935483871,4,2,2,15,1,0
298286,-133.333333333333,4,2,2,15,0,0
298769,1121.4953271028,4,2,2,15,1,0
298769,-133.333333333333,4,2,2,15,0,0
299329,1090.90909090909,4,2,6,25,1,0
299329,-133.333333333333,4,2,6,25,0,0
299465,-100,4,2,2,25,0,0
300419,1218.27411167513,4,2,11,15,1,0
300419,-133.333333333333,4,2,11,15,0,0
300571,-100,4,2,2,15,0,0
301638,1218.27411167513,4,2,2,15,1,0
301638,-133.333333333333,4,2,2,15,0,0
301752,1894.77673214173,4,2,15,15,1,0
301752,-133.333333333333,4,2,15,15,0,0
305541,-100,4,2,15,30,0,0
305778,-100,4,2,15,15,0,0
307436,-100,4,2,15,10,0,0

[Colours]
Combo1 : 100,177,255
Combo2 : 255,255,128
Combo3 : 128,128,255

[HitObjects]
144,341,774,6,0,P|40:289|159:184,1,320,2|2,2:0|2:0,0:0:0:0:
357,181,2137,1,2,2:0:0:0:
175,276,2332,2,0,L|398:24,1,320,2|2,2:0|2:0,0:0:0:0:
43,331,3890,6,0,P|147:279|28:174,1,320,2|2,2:0|2:0,0:0:0:0:
314,168,5254,1,2,2:0:0:0:
128,345,5449,2,0,P|41:293|161:150,1,320,2|2,2:0|2:0,0:0:0:0:
318,149,6618,1,2,2:0:0:0:
61,281,7007,2,0,L|47:162,1,80,2|0,2:0|0:0,0:0:0:0:
173,191,7397,2,0,L|177:99,1,80,2|0,2:0|0:0,0:0:0:0:
308,102,7786,2,0,L|111:71,1,160,2|2,2:0|2:0,0:0:0:0:
406,37,8566,6,0,L|422:211,1,160,2|0,2:0|0:0,0:0:0:0:
172,300,9345,2,0,L|158:137,1,160,2|2,2:0|2:0,0:0:0:0:
446,295,10124,6,0,P|461:200|254:109,2,320,2|2|2,2:0|2:0|2:0,0:0:0:0:
103,352,12462,2,0,P|86:253|209:208,1,240,2|0,2:0|2:0,0:0:0:0:
375,268,13241,6,0,P|395:181|216:84,1,320,2|2,2:0|2:0,0:0:0:0:
185,224,14410,2,0,L|277:232,1,80,0|2,2:0|2:0,0:0:0:0:
404,147,14799,2,0,L|435:369,1,160,2|0,2:0|2:0,0:0:0:0:
157,357,15579,2,0,L|144:179,1,160,2|0,2:0|2:0,0:0:0:0:
263,183,16163,1,2,2:0:0:0:
393,188,16358,6,0,P|375:91|322:58,1,160,2|0,2:0|0:0,0:0:0:0:
61,112,17137,2,0,L|203:218,1,160,2|0,2:0|2:0,0:0:0:0:
286,215,17722,1,2,2:0:0:0:
181,253,17916,2,0,L|-12:218,1,160,2|2,2:0|2:0,0:0:0:0:
269,359,18696,2,0,L|93:338,1,160,2|2,2:0|2:0,0:0:0:0:
426,337,19475,5,2,2:0:0:0:
246,325,19864,1,2,2:0:0:0:
155,189,20254,1,2,2:0:0:0:
246,325,20644,1,2,2:0:0:0:
447,340,21033,2,0,P|459:245|261:140,1,320,2|2,2:0|2:0,0:0:0:0:
449,103,22202,1,2,2:0:0:0:
123,52,22592,6,0,P|96:145|266:249,2,320,2|2|2,2:0|2:0|2:0,0:0:0:0:
408,51,24929,2,0,L|421:262,1,160,2|2,2:0|2:0,0:0:0:0:
92,316,25709,6,0,L|283:297,1,160,2|2,2:0|2:0,0:0:0:0:
357,294,26293,1,2,2:0:0:0:
251,300,26488,2,0,L|92:316,1,160,0|2,2:0|2:0,0:0:0:0:
193,285,27072,1,2,2:0:0:0:
359,272,27267,2,0,P|417:215|325:153,1,160,0|2,2:0|2:0,0:0:0:0:
194,133,27851,2,0,L|273:108,1,80,2|0,2:0|2:0,0:0:0:0:
370,36,28436,2,0,L|256:56,1,80,2|2,2:0|2:0,0:0:0:0:
93,171,28825,6,0,L|282:194,1,160,2|2,2:0|2:0,0:0:0:0:
360,204,29410,1,2,2:0:0:0:
211,354,29605,2,0,P|134:310|183:224,1,160,0|2,2:0|2:0,0:0:0:0:
252,205,30189,1,2,2:0:0:0:
439,201,30384,2,0,L|464:-6,3,160,2|0|2|0,2:0|2:0|2:0|2:0,0:0:0:0:
115,43,31942,6,0,P|67:100|158:145,1,160,2|2,2:0|2:0,0:0:0:0:
216,157,32527,1,2,2:0:0:0:
397,238,32722,2,0,L|212:242,1,160,0|2,2:0|2:0,0:0:0:0:
489,358,33501,2,0,L|505:188,1,160,0|2,2:0|2:0,0:0:0:0:
305,188,34085,2,0,L|418:157,1,80,2|0,2:0|2:0,0:0:0:0:
496,33,34670,2,0,L|394:55,1,80,2|2,2:0|2:0,0:0:0:0:
201,204,35059,6,0,P|188:144|289:108,1,160,2|2,2:0|2:0,0:0:0:0:
364,96,35644,1,2,2:0:0:0:
247,98,35838,2,0,L|42:94,1,160,0|2,2:0|2:0,0:0:0:0:
182,60,36423,1,2,2:0:0:0:
360,60,36618,2,0,L|373:233,1,160,2|0,2:0|2:0,0:0:0:0:
164,226,37397,1,2,2:0:0:0:
397,230,37786,1,2,2:0:0:0:
59,342,38176,5,2,2:0:0:0:
189,303,38565,1,2,2:0:0:0:
243,179,38955,1,2,2:0:0:0:
183,57,39344,1,2,2:0:0:0:
47,28,39735,2,0,L|26:240,1,160,2|2,2:0|2:0,0:0:0:0:
216,218,40514,2,0,L|26:220,1,160,2|2,2:0|2:0,0:0:0:0:
384,97,41293,6,0,L|169:99,1,160,2|2,2:0|2:0,0:0:0:0:
358,53,41877,1,2,2:0:0:0:
224,98,42072,2,0,L|224:288,1,160,0|2,2:0|2:0,0:0:0:0:
81,276,42657,1,2,2:0:0:0:
236,278,42851,2,0,L|444:231,1,160,0|0,2:0|2:0,0:0:0:0:
166,195,43631,2,0,P|171:121|256:88,1,160,0|2,2:0|2:0,0:0:0:0:
341,86,44215,1,2,2:0:0:0:
154,291,44410,6,0,P|97:248|175:179,1,160,2|2,2:0|2:0,0:0:0:0:
299,163,44994,2,0,L|301:74,1,80,2|0,2:0|2:0,0:0:0:0:
133,34,45579,2,0,L|135:128,1,80,2|2,2:0|2:0,0:0:0:0:
258,161,45968,2,0,L|60:164,1,160,0|2,2:0|2:0,0:0:0:0:
10,166,46553,1,2,2:0:0:0:
98,163,46748,2,0,P|153:123|84:73,1,160,0|2,2:0|2:0,0:0:0:0:
15,69,47332,1,2,2:0:0:0:
219,16,47527,6,0,L|219:216,1,160,2|0,2:0|2:0,0:0:0:0:
32,217,48306,2,0,L|216:216,1,160,2|0,2:0|2:0,0:0:0:0:
453,221,48890,2,0,L|515:218,2,40,8|8|10,2:0|2:0|2:0,0:0:0:0:
196,353,49280,2,0,P|145:326|203:243,1,160,8|8,2:1|2:0,0:0:0:0:
323,244,49864,2,0,L|338:155,1,80,8|8,2:0|2:0,0:0:0:0:
164,153,50254,2,0,L|151:70,1,80,8|0,2:3|2:0,0:0:0:0:
205,72,50546,1,0,2:0:0:0:
379,269,50644,6,0,P|382:181|312:157,1,160,14|2,2:1|2:0,0:0:0:0:
209,136,51228,1,2,2:0:0:0:
84,99,51423,2,0,L|255:74,1,160,8|2,2:0|2:0,0:0:0:0:
353,79,52007,1,0,0:0:0:0:
167,34,52202,6,0,L|159:149,1,80,10|0,2:1|0:0,0:0:0:0:
301,179,52592,2,0,L|183:192,1,80,10|2,2:1|2:0,0:0:0:0:
60,269,52981,2,0,P|47:179|143:155,1,160,8|2,2:0|2:0,0:0:0:0:
205,146,53566,1,2,2:0:0:0:
354,254,53761,6,0,L|175:282,1,160,10|2,2:1|2:0,0:0:0:0:
290,334,54345,1,2,2:0:0:0:
449,357,54540,2,0,L|456:188,1,160,8|2,2:0|2:0,0:0:0:0:
341,174,55124,1,10,2:1:0:0:
182,169,55319,5,10,2:1:0:0:
433,64,55709,2,0,L|316:53,1,80,8|2,2:1|2:0,0:0:0:0:
184,85,56098,2,0,P|167:169|241:193,1,160,8|2,2:0|2:0,0:0:0:0:
327,221,56683,1,0,2:0:0:0:
62,273,56877,6,0,P|44:183|121:148,1,160,10|2,2:1|2:0,0:0:0:0:
213,136,57462,1,2,2:0:0:0:
362,247,57657,2,0,L|184:264,1,160,8|2,2:0|2:0,0:0:0:0:
290,310,58241,1,0,0:0:0:0:
446,333,58436,6,0,L|452:232,1,80,10|0,2:1|0:0,0:0:0:0:
308,222,58825,2,0,L|296:135,1,80,10|2,2:1|2:0,0:0:0:0:
137,116,59215,2,0,L|309:83,1,160,8|2,2:0|2:0,0:0:0:0:
404,92,59799,1,2,2:0:0:0:
215,235,59994,6,0,L|12:250,1,160,10|2,2:1|2:0,0:0:0:0:
156,290,60579,1,2,2:0:0:0:
318,311,60773,2,0,P|329:227|252:195,1,160,8|2,2:0|2:0,0:0:0:0:
151,186,61358,1,10,2:1:0:0:
296,168,61553,6,0,L|401:165,1,80,8|0,2:1|0:0,0:0:0:0:
190,339,61942,2,0,L|178:240,1,80,8|0,2:0|0:0,0:0:0:0:
368,269,62332,1,10,2:0:0:0:
224,220,62527,1,8,2:3:0:0:
68,224,62722,2,0,L|53:133,1,80,10|0,2:3|2:0,0:0:0:0:
351,81,63111,6,0,L|175:66,1,160,14|2,2:1|2:0,0:0:0:0:
467,48,63890,2,0,L|476:233,1,160,10|2,2:0|2:0,0:0:0:0:
190,276,64670,1,10,2:1:0:0:
477,332,65059,1,10,2:1:0:0:
185,338,65449,2,0,L|8:324,1,160,10|2,2:0|2:0,0:0:0:0:
126,291,66033,1,0,2:0:0:0:
326,301,66228,6,0,P|331:217|250:178,1,160,10|2,2:1|2:0,0:0:0:0:
141,180,66812,1,2,2:0:0:0:
286,158,67007,2,0,L|459:143,1,160,8|2,2:0|2:0,0:0:0:0:
321,108,67592,1,10,2:1:0:0:
479,45,67786,6,0,L|493:218,1,160,8|8,2:1|2:1,0:0:0:0:
374,249,68371,1,0,2:0:0:0:
223,308,68566,2,0,L|325:328,1,80,8|2,2:0|2:3,0:0:0:0:
463,346,68955,2,0,L|361:357,1,80,2|2,2:0|2:0,0:0:0:0:
186,368,69345,6,0,P|176:285|269:233,1,160,10|2,2:1|2:0,0:0:0:0:
344,218,69929,1,2,2:0:0:0:
188,153,70124,2,0,L|47:149,1,80,8|0,2:0|0:0,0:0:0:0:
281,244,70514,2,0,L|288:139,1,80,2|2,2:0|2:0,0:0:0:0:
104,268,70903,6,0,L|89:80,1,160,8|10,2:1|2:1,0:0:0:0:
208,86,71488,1,2,2:0:0:0:
358,90,71683,1,8,2:0:0:0:
177,18,71877,2,0,L|265:29,1,80,2|0,2:0|0:0,0:0:0:0:
414,150,72267,1,2,2:0:0:0:
111,184,72462,6,0,P|28:217|53:305,1,160,14|0,2:1|2:0,0:0:0:0:
145,312,73046,1,0,2:0:0:0:
310,334,73241,1,10,2:0:0:0:
174,359,73436,2,0,L|14:352,1,160,0|10,2:0|2:1,0:0:0:0:
270,259,74020,5,8,2:1:0:0:
398,258,74215,1,8,2:0:0:0:
245,164,74410,2,0,L|141:166,1,80,0|8,2:0|2:1,0:0:0:0:
357,146,74799,1,8,2:0:0:0:
216,116,74994,1,8,2:3:0:0:
70,122,75189,1,8,2:3:0:0:
170,49,75384,2,2,L|216:47,1,40,2|2,2:0|2:0,0:0:0:0:
410,47,75579,6,0,P|445:88|371:151,1,160,14|2,2:1|2:3,0:0:0:0:
262,158,76163,1,2,2:0:0:0:
408,155,76358,2,0,P|395:249|329:260,1,160,10|2,2:1|2:0,0:0:0:0:
479,347,76942,6,0,L|493:244,1,80,2|8,2:0|2:1,0:0:0:0:
394,254,77332,1,2,2:0:0:0:
222,234,77527,2,0,L|208:136,1,80,2|0,2:0|0:0,0:0:0:0:
339,146,77916,2,0,P|400:129|423:33,1,160,8|2,2:1|2:0,0:0:0:0:
322,44,78501,1,2,2:0:0:0:
128,49,78696,6,0,P|89:78|152:152,1,160,10|2,2:1|2:0,0:0:0:0:
254,157,79280,1,2,2:0:0:0:
140,240,79475,2,0,L|48:240,1,80,8|2,2:1|2:0,0:0:0:0:
203,192,79864,2,0,L|204:97,1,80,2|0,2:0|2:0,0:0:0:0:
481,91,80254,6,0,L|301:93,1,160,14|8,2:1|2:0,0:0:0:0:
179,96,80838,1,10,2:1:0:0:
321,92,81033,2,0,L|333:178,1,80,8|8,2:3|2:3,0:0:0:0:
70,323,81423,2,0,P|20:291|59:225,1,120,10|0,2:1|2:0,0:0:0:0:
259,225,81812,6,0,L|437:235,1,160,14|2,2:1|2:3,0:0:0:0:
315,282,82397,1,2,2:0:0:0:
155,353,82592,2,0,P|108:321|163:233,1,160,10|2,2:0|2:0,0:0:0:0:
302,222,83176,6,0,L|321:133,1,80,2|8,2:0|2:1,0:0:0:0:
212,123,83566,1,2,2:0:0:0:
34,115,83761,2,0,L|201:115,2,160,10|8|2,2:1|2:0|2:3,0:0:0:0:
143,90,84735,1,2,2:0:0:0:
432,86,84929,6,0,P|463:133|378:190,1,160,14|2,2:1|2:0,0:0:0:0:
276,195,85514,1,2,2:0:0:0:
427,349,85709,2,0,L|438:266,1,80,8|0,2:0|2:0,0:0:0:0:
261,222,86098,2,0,L|168:223,1,80,8|0,2:0|0:0,0:0:0:0:
458,113,86488,2,0,L|350:113,2,80,0|8|2,2:0|2:0|2:0,0:0:0:0:
458,113,87072,1,8,2:1:0:0:
178,245,87267,2,0,L|9:247,1,160,10|10,2:0|2:1,0:0:0:0:
480,70,88046,6,0,L|491:233,1,160,14|8,2:0|2:0,0:0:0:0:
384,245,88631,1,0,0:0:0:0:
154,350,88825,5,8,2:0:0:0:
365,243,89215,1,8,2:0:0:0:
113,262,89605,5,8,2:0:0:0:
391,132,89995,1,8,2:0:0:0:
70,283,90384,5,8,2:0:0:0:
414,81,90774,1,8,2:0:0:0:
283,114,90968,2,0,L|283:64,1,40,0|0,2:0|2:0,0:0:0:0:
478,29,91163,6,0,P|322:88|488:343,1,560,10|8,2:1|2:0,0:0:0:0:
417,345,92624,1,8,2:0:0:0:
256,346,92722,1,8,2:0:0:0:
397,348,92916,2,0,P|450:308|411:231,1,160,8|10,2:1|2:1,0:0:0:0:
162,236,93501,2,0,L|73:237,2,80,8|10|8,2:0|2:0|2:3,0:0:0:0:
455,172,94085,2,0,L|377:172,1,40,2|2,2:0|2:0,0:0:0:0:
189,247,94280,6,0,P|167:140|258:115,1,191.999994140625,14|0,2:1|2:0,0:0:0:0:
332,116,94864,1,0,0:0:0:0:
127,319,95059,2,0,L|312:230,1,191.999994140625,10|2,2:0|2:0,0:0:0:0:
182,219,95644,1,0,2:0:0:0:
328,179,95838,6,0,L|446:162,1,95.9999970703126,10|0,2:1|2:0,0:0:0:0:
246,144,96228,2,0,L|224:33,1,95.9999970703126,8|2,2:1|2:0,0:0:0:0:
372,45,96618,1,10,2:0:0:0:
217,117,96812,2,0,L|94:133,1,95.9999970703126,2|0,2:0|0:0,0:0:0:0:
386,257,97202,1,2,2:0:0:0:
101,342,97397,6,0,P|91:231|177:203,1,191.999994140625,10|0,2:1|2:0,0:0:0:0:
283,211,97981,1,0,0:0:0:0:
123,192,98176,2,0,L|111:88,1,95.9999970703126,10|0,2:0|0:0,0:0:0:0:
264,77,98566,2,0,L|168:73,1,95.9999970703126,2|8,2:0|2:1,0:0:0:0:
328,201,98955,5,10,2:1:0:0:
378,121,99150,1,0,2:0:0:0:
328,201,99345,1,8,2:1:0:0:
184,221,99540,1,0,0:0:0:0:
348,268,99735,2,0,L|478:276,1,95.9999970703126,10|0,2:0|2:0,0:0:0:0:
262,352,100124,2,0,L|141:362,1,95.9999970703126,2|0,2:0|0:0,0:0:0:0:
440,371,100514,6,0,L|452:262,1,95.9999970703126,14|0,2:1|0:0,0:0:0:0:
305,267,100903,2,0,L|292:164,1,95.9999970703126,2|0,2:0|0:0,0:0:0:0:
134,142,101293,2,0,L|338:95,1,191.999994140625,10|2,2:0|2:0,0:0:0:0:
201,60,101877,1,0,2:0:0:0:
46,67,102072,6,0,L|42:271,1,191.999994140625,10|8,2:1|2:1,0:0:0:0:
164,291,102657,1,0,2:0:0:0:
362,315,102851,1,10,2:0:0:0:
56,372,103241,1,2,2:0:0:0:
397,377,103631,6,0,L|403:267,1,95.9999970703126,10|0,2:1|0:0,0:0:0:0:
250,273,104020,2,0,L|233:169,1,95.9999970703126,2|0,2:0|0:0,0:0:0:0:
407,128,104410,2,0,L|277:102,1,95.9999970703126,10|0,2:0|0:0,0:0:0:0:
163,77,104799,1,0,2:0:0:0:
310,56,104994,1,2,2:0:0:0:
48,47,105189,6,0,P|43:119|126:146,1,143.999995605469,14|0,2:1|0:0,0:0:0:0:
308,248,105579,1,8,2:0:0:0:
194,306,105773,1,10,2:0:0:0:
75,326,105968,1,8,2:1:0:0:
241,357,106163,2,0,L|373:348,1,95.9999970703126,10|8,2:3|2:3,0:0:0:0:
75,226,106553,2,0,L|16:225,1,47.9999985351563,10|0,2:3|2:0,0:0:0:0:
257,71,106748,6,0,L|481:76,1,191.999994140625,14|0,2:1|2:0,0:0:0:0:
332,112,107332,1,0,0:0:0:0:
54,269,107527,2,0,L|41:64,1,191.999994140625,10|2,2:0|2:0,0:0:0:0:
137,62,108111,1,0,2:0:0:0:
321,55,108306,2,0,L|338:187,1,95.9999970703126,10|0,2:1|2:0,0:0:0:0:
179,191,108696,2,0,L|161:301,1,95.9999970703126,8|2,2:1|2:0,0:0:0:0:
422,326,109085,1,10,2:0:0:0:
150,352,109280,2,0,L|355:353,1,191.999994140625,2|2,2:0|2:0,0:0:0:0:
61,281,109864,6,0,P|13:231|100:152,1,191.999994140625,14|0,2:1|2:0,0:0:0:0:
185,145,110449,1,0,0:0:0:0:
445,142,110644,2,0,L|223:142,1,191.999994140625,10|2,2:0|2:0,0:0:0:0:
144,140,111228,1,8,2:1:0:0:
193,137,111325,1,0,2:0:0:0:
299,128,111423,6,2,P|259:214|125:220,1,191.999994140625,10|8,2:1|2:1,0:0:0:0:
314,250,112007,1,0,0:0:0:0:
39,354,112202,2,0,L|13:198,1,95.9999970703126,10|0,2:0|2:0,0:0:0:0:
194,236,112592,2,0,L|194:130,1,95.9999970703126,2|0,2:0|0:0,0:0:0:0:
248,134,112884,1,0,2:0:0:0:
430,127,112981,6,0,L|219:131,2,191.999994140625,14|2|10,2:1|2:0|2:0,0:0:0:0:
215,248,114150,2,0,L|79:248,1,95.9999970703126,2|0,2:0|2:0,0:0:0:0:
405,350,114540,2,0,L|505:351,1,95.9999970703126,10|0,2:1|2:0,0:0:0:0:
368,282,114929,2,0,L|361:164,1,95.9999970703126,8|0,2:1|2:0,0:0:0:0:
97,200,115319,2,0,L|87:91,1,95.9999970703126,10|0,2:0|2:0,0:0:0:0:
386,64,115709,2,0,L|496:63,1,95.9999970703126,10|0,2:1|2:0,0:0:0:0:
274,342,116098,6,0,P|249:277|346:216,1,191.999994140625,14|0,2:1|2:0,0:0:0:0:
457,217,116683,2,0,L|370:217,1,47.9999985351563,0|0,2:0|2:0,0:0:0:0:
196,145,116877,2,0,L|397:144,1,191.999994140625,14|0,2:1|2:0,0:0:0:0:
241,250,117462,2,0,L|190:251,1,47.9999985351563,0|0,2:0|2:0,0:0:0:0:
394,371,117657,6,0,P|474:336|372:124,1,383.99998828125,14|2,2:1|2:0,0:0:0:0:
220,124,118825,1,2,2:0:0:0:
468,26,119215,5,2,2:0:0:0:
334,65,119604,1,2,2:0:0:0:
281,193,119994,1,2,2:0:0:0:
348,316,120383,1,2,2:0:0:0:
485,340,120773,1,2,2:0:0:0:
250,348,121553,1,2,2:0:0:0:
457,348,121942,1,2,2:0:0:0:
250,237,122332,6,0,L|26:238,1,191.999994140625,2|0,2:0|2:0,0:0:0:0:
166,220,122916,1,2,2:0:0:0:
344,216,123111,2,0,P|412:168|356:85,1,191.999994140625,2|0,2:0|2:0,0:0:0:0:
260,84,123696,1,2,2:0:0:0:
70,84,123890,6,0,L|63:199,1,95.9999970703126,6|0,2:0|2:0,0:0:0:0:
227,189,124280,2,0,L|237:297,1,95.9999970703126,10|0,2:3|0:0,0:0:0:0:
410,328,124670,2,0,L|270:329,2,95.9999970703126,10|8|10,2:3|2:3|2:3,0:0:0:0:
308,270,125254,2,0,L|217:271,1,47.9999985351563,2|2,2:0|2:0,0:0:0:0:
95,268,125449,6,0,P|79:187|187:151,1,160,14|0,2:1|2:0,0:0:0:0:
385,251,126228,2,0,L|196:273,1,160,10|0,2:0|2:0,0:0:0:0:
105,284,126812,1,2,2:0:0:0:
249,307,127007,6,0,L|349:316,1,80,10|0,2:1|2:0,0:0:0:0:
201,368,127397,1,8,2:1:0:0:
347,351,127592,2,0,L|455:335,1,80,2|8,2:0|2:0,0:0:0:0:
269,294,127981,2,0,L|250:195,1,80,2|0,2:0|2:0,0:0:0:0:
110,208,128371,1,2,2:0:0:0:
301,203,128566,6,0,P|313:121|246:89,1,160,10|0,2:1|2:0,0:0:0:0:
140,93,129150,1,2,2:0:0:0:
288,125,129345,2,0,L|455:141,1,160,8|2,2:0|2:0,0:0:0:0:
347,191,129929,1,8,2:1:0:0:
202,233,130124,6,0,L|297:249,1,80,10|0,2:1|2:0,0:0:0:0:
411,277,130514,1,8,2:1:0:0:
130,355,130903,1,10,2:0:0:0:
81,266,131098,1,0,2:0:0:0:
130,355,131293,1,2,2:0:0:0:
241,364,131488,1,0,2:0:0:0:
499,160,131683,6,0,L|316:149,1,160,14|2,2:1|2:0,0:0:0:0:
82,153,132462,1,10,2:0:0:0:
362,50,132851,2,0,L|246:51,1,80,2|0,2:0|2:0,0:0:0:0:
130,63,133241,2,0,L|119:269,1,160,10|8,2:1|2:1,0:0:0:0:
438,143,134020,2,0,L|461:323,1,160,10|2,2:0|2:0,0:0:0:0:
351,330,134605,1,0,2:0:0:0:
78,229,134799,6,0,L|264:206,1,160,14|0,2:1|2:0,0:0:0:0:
367,151,135384,2,0,L|303:144,1,40,0|0,2:0|2:0,0:0:0:0:
136,101,135579,2,0,L|296:70,1,160,14|0,2:1|2:0,0:0:0:0:
423,52,136163,2,0,L|375:46,1,40,0|0,2:0|2:0,0:0:0:0:
162,114,136358,6,0,P|154:202|241:219,1,160,14|8,2:1|2:0,0:0:0:0:
443,292,137137,1,8,2:0:0:0:
310,337,137332,1,8,2:3:0:0:
185,346,137527,1,8,2:3:0:0:
56,338,137722,1,0,0:0:0:0:
250,277,137916,6,0,P|298:235|244:146,1,160,10|2,2:1|2:0,0:0:0:0:
168,142,138501,2,0,L|162:50,1,80,2|8,2:0|2:0,0:0:0:0:
367,47,139085,1,2,2:0:0:0:
183,206,139475,6,0,L|343:228,1,160,2|2,2:0|2:0,0:0:0:0:
217,298,140059,2,0,L|129:320,1,80,2|8,2:0|2:0,0:0:0:0:
338,378,140644,2,0,L|347:289,1,80,2|2,2:0|2:0,0:0:0:0:
182,274,141033,6,0,L|169:100,1,160,2|2,2:0|2:0,0:0:0:0:
290,104,141618,2,0,L|299:18,1,80,2|8,2:0|2:0,0:0:0:0:
109,13,142202,2,0,L|190:13,1,80,2|2,2:0|2:0,0:0:0:0:
309,146,142592,6,0,L|117:146,2,160,2|2|10,2:0|2:3|2:0,0:0:0:0:
58,218,143761,1,8,2:1:0:0:
339,354,144150,6,0,P|391:336|350:246,1,160,10|2,2:1|2:0,0:0:0:0:
249,240,144735,2,0,L|242:154,1,80,2|8,2:0|2:0,0:0:0:0:
456,133,145319,1,2,2:0:0:0:
219,69,145709,6,0,L|386:68,1,160,2|2,2:0|2:0,0:0:0:0:
253,173,146293,2,0,L|337:173,1,80,2|8,2:0|2:0,0:0:0:0:
108,344,146877,2,0,L|14:343,1,80,2|2,2:0|2:0,0:0:0:0:
191,291,147267,6,0,L|213:121,1,160,2|2,2:0|2:0,0:0:0:0:
94,113,147851,2,0,L|85:15,1,80,2|8,2:0|2:0,0:0:0:0:
286,47,148436,2,0,L|179:46,1,80,2|2,2:0|2:0,0:0:0:0:
255,43,148728,1,0,2:0:0:0:
420,43,148825,6,0,P|487:70|401:174,1,240,14|0,2:1|2:0,0:0:0:0:
153,185,149605,2,0,L|418:186,1,240,14|0,2:1|0:0,0:0:0:0:
115,342,150384,6,0,P|52:313|50:226,2,160,14|2|10,2:1|2:0|2:0,0:0:0:0:
329,345,151553,2,0,L|336:240,1,80,2|0,2:0|2:0,0:0:0:0:
184,182,151942,6,0,L|9:204,1,160,10|10,2:1|2:1,0:0:0:0:
307,281,152722,2,0,L|414:300,1,80,10|0,2:0|0:0,0:0:0:0:
209,352,153111,2,0,L|193:260,1,80,2|0,2:0|2:0,0:0:0:0:
478,320,153501,6,0,L|490:135,1,160,10|2,2:1|2:0,0:0:0:0:
389,146,154085,1,2,2:0:0:0:
216,134,154280,2,0,L|138:150,1,80,8|0,2:0|2:0,0:0:0:0:
273,49,154670,1,2,2:0:0:0:
368,62,154864,1,10,2:1:0:0:
180,240,155059,6,0,L|353:221,2,160,8|8|8,2:1|2:1|2:0,0:0:0:0:
378,339,156228,2,0,L|394:242,1,80,2|2,2:0|2:0,0:0:0:0:
120,250,156618,6,0,L|102:82,1,160,10|2,2:1|2:0,0:0:0:0:
204,60,157202,1,2,2:0:0:0:
361,33,157397,1,8,2:0:0:0:
188,179,157786,2,0,L|91:168,1,80,2|2,2:0|2:0,0:0:0:0:
365,86,158176,6,0,P|435:118|357:217,1,240,12|2,2:1|2:0,0:0:0:0:
93,341,158955,2,0,P|23:309|101:210,1,240,8|0,2:0|2:0,0:0:0:0:
386,221,159735,6,0,L|201:222,1,160,14|2,2:1|2:3,0:0:0:0:
452,109,160514,2,0,L|312:109,2,120,10|2|10,2:0|2:0|2:1,0:0:0:0:
195,345,161293,6,0,L|64:344,1,120,14|0,2:1|2:0,0:0:0:0:
249,257,161683,2,0,L|379:257,1,120,14|0,2:0|2:0,0:0:0:0:
289,229,162072,1,8,2:0:0:0:
249,155,162267,1,8,2:3:0:0:
297,85,162462,1,8,2:3:0:0:
390,82,162657,1,0,2:0:0:0:
118,256,162851,6,0,P|96:162|196:119,1,160,12|8,2:1|2:1,0:0:0:0:
236,108,163436,1,2,2:0:0:0:
388,205,163631,2,0,L|190:237,1,160,10|10,2:0|2:1,0:0:0:0:
369,289,164215,1,10,2:0:0:0:
226,335,164410,5,8,2:1:0:0:
369,369,164605,1,10,2:0:0:0:
221,368,164799,2,0,L|214:261,1,80,10|0,2:1|0:0,0:0:0:0:
48,237,165189,2,0,L|249:192,1,160,8|10,2:0|2:1,0:0:0:0:
79,146,165773,2,0,L|25:149,1,40,2|0,2:0|0:0,0:0:0:0:
269,245,165968,6,0,P|277:164|168:129,1,160,14|10,2:1|2:1,0:0:0:0:
94,114,166553,1,2,2:0:0:0:
248,97,166748,2,0,L|372:88,1,80,8|2,2:0|2:0,0:0:0:0:
181,42,167137,1,10,2:1:0:0:
338,20,167332,1,8,2:0:0:0:
59,95,167527,6,0,L|57:235,1,120,14|0,2:1|0:0,0:0:0:0:
240,260,167916,2,0,L|289:260,1,40,8|0,2:0|2:0,0:0:0:0:
75,352,168111,2,0,P|74:302|167:251,1,160,14|8,2:1|2:0,0:0:0:0:
316,174,168696,2,0,L|166:150,1,120,14|0,2:1|2:0,0:0:0:0:
415,103,169085,6,0,P|488:141|485:219,1,160,12|8,2:1|2:1,0:0:0:0:
389,262,169670,1,2,2:0:0:0:
224,315,169864,2,0,L|402:348,1,160,10|10,2:0|2:1,0:0:0:0:
490,360,170449,1,10,2:1:0:0:
326,371,170644,5,8,2:1:0:0:
470,291,170838,1,10,2:0:0:0:
326,274,171033,1,10,2:1:0:0:
175,271,171228,1,8,2:1:0:0:
328,246,171423,2,0,L|331:139,1,80,8|0,2:0|0:0,0:0:0:0:
177,148,171812,1,8,2:1:0:0:
330,113,172007,2,2,L|256:114,1,40,2|2,2:0|2:0,0:0:0:0:
58,228,172202,6,0,P|45:137|122:104,1,160,10|10,2:0|2:0,0:0:0:0:
194,93,172786,1,2,2:0:0:0:
356,197,172981,2,0,L|170:224,1,160,8|10,2:0|2:0,0:0:0:0:
333,288,173566,2,0,L|379:293,1,40,10|10,2:0|2:0,0:0:0:0:
155,360,173761,6,0,L|148:191,1,160,10|10,2:0|2:3,0:0:0:0:
301,164,174345,2,8,L|249:140,1,40,8|8,0:0|2:0,0:0:0:0:
186,126,174540,2,0,L|73:126,1,80,10|8,2:0|2:0,0:0:0:0:
268,55,174929,2,0,L|308:54,1,40,10|0,2:3|0:0,0:0:0:0:
114,25,175124,2,0,L|62:30,1,40,8|0,0:3|2:0,0:0:0:0:
263,222,175319,6,0,L|482:224,2,191.999994140625,14|2|10,2:1|2:3|2:0,0:0:0:0:
470,134,176488,1,2,2:3:0:0:
351,134,176683,1,0,2:0:0:0:
194,254,176877,2,0,L|316:254,2,95.9999970703126,10|0|8,2:1|2:0|2:1,0:0:0:0:
59,258,177462,2,2,L|112:259,1,47.9999985351563,2|2,2:0|2:0,0:0:0:0:
297,358,177657,2,0,L|500:358,1,191.999994140625,10|2,2:0|2:3,0:0:0:0:
382,345,178241,1,0,2:0:0:0:
127,343,178436,6,0,P|57:326|18:213,2,191.999994140625,10|2|10,2:1|2:3|2:0,0:0:0:0:
379,176,179605,2,0,L|259:176,1,95.9999970703126,2|0,2:3|2:0,0:0:0:0:
431,95,179994,2,0,L|432:234,1,95.9999970703126,10|0,2:1|2:0,0:0:0:0:
304,255,180384,2,0,L|299:360,1,95.9999970703126,8|0,2:1|2:0,0:0:0:0:
27,206,180773,2,0,L|236:210,1,191.999994140625,10|2,2:0|2:3,0:0:0:0:
104,186,181358,1,0,2:0:0:0:
402,70,181553,6,0,L|193:66,2,191.999994140625,14|2|10,2:1|2:3|2:0,0:0:0:0:
170,198,182722,2,0,L|56:198,1,95.9999970703126,2|0,2:3|2:0,0:0:0:0:
144,189,183014,1,0,0:0:0:0:
215,189,183111,2,0,L|215:87,1,95.9999970703126,10|0,2:1|2:0,0:0:0:0:
477,82,183501,2,0,L|348:82,1,95.9999970703126,10|0,2:1|0:0,0:0:0:0:
227,196,183890,2,0,L|438:198,1,191.999994140625,10|2,2:0|2:0,0:0:0:0:
314,192,184475,1,0,2:0:0:0:
48,365,184670,6,0,L|35:160,1,191.999994140625,8|2,2:1|2:3,0:0:0:0:
317,198,185449,2,0,L|333:0,1,191.999994140625,10|2,2:0|2:3,0:0:0:0:
183,8,186033,1,8,2:1:0:0:
445,188,186228,2,0,L|314:187,1,95.9999970703126,14|0,2:1|2:0,0:0:0:0:
483,116,186618,2,0,L|481:234,1,95.9999970703126,8|2,2:0|2:0,0:0:0:0:
424,226,186910,1,2,0:0:0:0:
240,349,187007,2,0,L|343:348,1,95.9999970703126,10|8,2:0|2:3,0:0:0:0:
188,277,187397,2,0,L|75:275,1,95.9999970703126,8|8,2:3|2:3,0:0:0:0:
386,252,187786,6,0,P|400:148|316:117,1,191.999994140625,12|2,2:1|2:3,0:0:0:0:
225,111,188371,1,0,0:0:0:0:
375,61,188566,2,0,L|385:174,1,95.9999970703126,8|0,2:0|0:0,0:0:0:0:
227,219,188955,2,0,L|296:249,1,47.9999985351563,2|2,2:3|0:0,0:0:0:0:
330,242,189150,1,2,2:0:0:0:
67,337,189345,6,0,L|47:189,1,95.9999970703126,8|0,2:1|2:0,0:0:0:0:
206,207,189735,1,8,2:1:0:0:
70,186,189929,1,0,2:0:0:0:
233,154,190124,2,0,L|20:96,1,191.999994140625,8|2,2:0|2:3,0:0:0:0:
180,68,190709,2,0,L|264:64,1,47.9999985351563,0|0,2:0|2:0,0:0:0:0:
446,133,190903,6,0,P|453:193|350:260,1,191.999994140625,8|2,2:1|2:3,0:0:0:0:
245,260,191488,1,0,0:0:0:0:
416,346,191683,2,0,L|197:295,1,191.999994140625,8|2,2:0|2:3,0:0:0:0:
363,276,192267,1,0,2:0:0:0:
92,211,192462,6,0,L|208:189,1,95.9999970703126,8|0,2:1|2:0,0:0:0:0:
19,174,192851,2,0,L|15:65,1,95.9999970703126,8|0,2:1|2:0,0:0:0:0:
179,48,193241,2,0,L|65:56,1,95.9999970703126,8|0,2:0|0:0,0:0:0:0:
256,140,193631,2,0,L|101:162,1,143.999995605469,2|0,2:3|2:0,0:0:0:0:
339,265,194020,6,0,L|514:353,1,191.999994140625,12|2,2:1|2:3,0:0:0:0:
394,370,194605,1,0,0:0:0:0:
233,362,194799,2,0,P|226:256|331:222,1,191.999994140625,8|2,2:0|2:3,0:0:0:0:
414,220,195384,1,0,2:0:0:0:
252,204,195579,6,0,L|232:82,1,95.9999970703126,8|0,2:1|2:0,0:0:0:0:
398,96,195968,2,2,L|330:51,1,47.9999985351563,10|2,2:1|0:0,0:0:0:0:
303,66,196163,1,2,2:0:0:0:
115,177,196358,2,0,L|314:228,1,191.999994140625,8|2,2:0|2:3,0:0:0:0:
434,225,196942,1,0,2:0:0:0:
129,348,197137,6,0,L|115:143,1,191.999994140625,12|8,2:1|2:0,0:0:0:0:
230,131,197722,1,0,2:0:0:0:
403,142,197916,1,8,2:0:0:0:
145,56,198306,1,8,2:0:0:0:
432,248,198696,5,8,2:0:0:0:
104,276,199085,1,8,2:0:0:0:
456,333,199475,1,8,2:0:0:0:
35,359,199864,1,8,2:0:0:0:
135,360,200059,2,0,L|185:358,1,47.9999985351563,0|0,2:0|2:0,0:0:0:0:
356,358,200254,6,0,L|374:186,1,160,14|2,2:1|2:0,0:0:0:0:
258,188,200838,2,0,L|248:98,1,80,2|2,2:0|2:3,0:0:0:0:
425,89,201423,1,2,2:0:0:0:
170,297,201812,6,0,L|152:125,1,160,2|2,2:0|2:0,0:0:0:0:
268,127,202396,2,0,L|278:37,1,80,2|2,2:0|2:3,0:0:0:0:
50,177,202981,2,0,L|40:87,1,80,2|2,2:0|2:0,0:0:0:0:
228,82,203371,6,0,L|208:265,1,160,2|2,2:0|2:0,0:0:0:0:
125,264,203955,1,2,2:0:0:0:
306,129,204150,2,0,L|286:312,1,160,2|2,2:3|2:0,0:0:0:0:
188,294,204735,1,0,2:0:0:0:
78,294,204929,2,0,P|156:257|63:93,1,320,2|2,2:0|2:3,0:0:0:0:
376,91,206293,5,2,2:0:0:0:
218,186,206488,2,0,L|397:188,1,160,2|2,2:0|2:0,0:0:0:0:
234,290,207072,2,0,L|134:290,1,80,2|2,2:0|2:3,0:0:0:0:
329,228,207657,2,0,L|336:135,1,80,2|2,2:0|2:0,0:0:0:0:
211,126,208046,1,0,2:0:0:0:
402,83,208436,1,2,2:0:0:0:
74,254,208825,2,0,P|48:202|102:100,1,160,2|2,2:0|2:0,0:0:0:0:
163,118,209410,1,2,2:0:0:0:
337,84,209605,6,0,L|511:101,1,160,0|0,2:0|2:0,0:0:0:0:
237,269,210384,2,0,L|61:293,1,160,2|2,2:3|2:0,0:0:0:0:
383,362,211163,2,0,P|459:333|374:168,1,320,2|10,2:0|2:3,0:0:0:0:
253,167,212137,1,8,2:3:0:0:
380,162,212332,2,0,L|392:62,1,80,10|2,2:3|2:0,0:0:0:0:
104,273,212722,6,0,L|98:98,1,160,14|2,2:1|2:0,0:0:0:0:
201,89,213306,1,2,2:0:0:0:
365,186,213501,2,0,L|195:213,1,160,8|2,2:1|2:0,0:0:0:0:
331,309,214085,1,2,2:0:0:0:
391,329,214183,1,2,2:0:0:0:
459,324,214280,2,0,P|463:262|391:194,1,160,8|2,2:1|2:3,0:0:0:0:
143,197,215059,1,8,2:1:0:0:
409,73,215449,2,0,L|330:68,1,80,2|2,2:0|2:0,0:0:0:0:
181,90,215838,6,0,P|170:178|284:226,1,160,10|2,2:1|2:0,0:0:0:0:
349,240,216423,1,2,2:0:0:0:
193,265,216618,2,0,L|2:286,1,160,8|2,2:1|2:0,0:0:0:0:
148,341,217202,1,2,2:0:0:0:
316,359,217397,2,0,L|321:185,1,160,8|2,2:1|2:3,0:0:0:0:
34,199,218176,2,0,L|24:0,1,160,10|10,2:0|2:1,0:0:0:0:
130,47,218761,2,0,L|175:46,1,40,0|0,2:0|2:0,0:0:0:0:
385,170,218955,6,0,L|181:203,1,160,14|2,2:1|2:0,0:0:0:0:
332,252,219540,1,2,2:0:0:0:
488,273,219735,2,0,P|496:182|412:144,1,160,8|2,2:0|2:0,0:0:0:0:
332,133,220319,1,2,2:0:0:0:
177,235,220514,2,0,L|296:255,1,80,8|0,2:1|2:0,0:0:0:0:
409,331,220903,2,0,L|318:348,1,80,10|2,2:1|2:0,0:0:0:0:
166,377,221293,2,0,P|155:290|238:239,1,160,8|2,2:0|2:0,0:0:0:0:
313,248,221877,1,2,2:0:0:0:
37,229,222072,6,0,L|26:47,1,160,12|0,2:1|2:0,0:0:0:0:
135,44,222657,1,0,2:0:0:0:
312,137,222851,2,0,L|116:188,1,160,8|2,2:0|2:0,0:0:0:0:
41,186,223436,1,2,2:0:0:0:
214,321,223631,6,0,L|219:191,1,80,10|0,2:1|0:0,0:0:0:0:
58,215,224020,1,10,2:1:0:0:
200,175,224215,1,2,2:0:0:0:
365,112,224410,2,0,L|254:93,1,80,8|2,2:0|2:0,0:0:0:0:
138,95,224799,1,10,2:1:0:0:
301,49,224994,1,2,2:0:0:0:
29,28,225189,6,0,P|25:93|102:119,1,143.999995605469,14|0,2:1|0:0,0:0:0:0:
179,162,225579,2,0,L|58:174,1,95.9999970703126,8|0,2:0|2:0,0:0:0:0:
266,237,225968,2,0,L|432:186,1,143.999995605469,10|0,2:0|0:0,0:0:0:0:
323,167,226358,2,0,L|166:145,1,143.999995605469,8|0,2:0|0:0,0:0:0:0:
375,91,226748,6,0,P|432:99|495:182,1,143.999995605469,10|0,2:0|0:0,0:0:0:0:
382,216,227137,2,0,L|256:240,1,95.9999970703126,8|2,2:0|2:0,0:0:0:0:
453,307,227527,1,8,2:0:0:0:
303,350,227722,1,8,2:3:0:0:
37,335,227916,1,10,2:3:0:0:
312,264,228111,2,0,L|368:260,1,47.9999985351563,8|0,2:3|2:0,0:0:0:0:
124,300,228306,6,0,P|141:88|311:340,1,719.999978027344,14|0,2:1|0:0,0:0:0:0:
115,358,229864,5,12,2:1:0:0:
33,310,229994,1,8,2:0:0:0:
122,278,230124,1,8,2:0:0:0:
257,228,230254,2,0,L|161:208,1,63.9999980468751,8|8,2:0|2:0,0:0:0:0:
86,186,230514,1,8,2:0:0:0:
320,170,230644,5,8,2:0:0:0:
362,108,230773,1,8,2:0:0:0:
320,170,230903,1,8,2:3:0:0:
214,191,231033,1,8,2:3:0:0:
322,226,231163,1,8,2:3:0:0:
442,240,231293,2,0,L|499:239,1,31.9999990234375,8|8,2:3|0:3,0:0:0:0:
260,360,231423,6,0,P|212:327|300:244,1,191.999994140625,14|8,2:1|2:1,0:0:0:0:
417,239,232007,1,0,2:0:0:0:
151,120,232202,2,0,L|48:127,1,95.9999970703126,10|0,2:0|0:0,0:0:0:0:
151,120,232592,1,2,2:0:0:0:
417,116,232786,1,0,2:0:0:0:
160,365,232982,5,10,2:1:0:0:
100,293,233175,1,0,2:0:0:0:
120,203,233370,1,8,2:1:0:0:
204,164,233565,1,2,2:0:0:0:
430,166,233761,1,10,2:0:0:0:
287,296,233955,2,0,P|310:210|430:198,1,191.999994140625,2|2,2:0|2:0,0:0:0:0:
353,182,234442,1,0,2:0:0:0:
179,345,234540,6,0,P|108:324|81:204,1,191.999994140625,10|0,2:1|2:0,0:0:0:0:
175,211,235124,1,0,2:0:0:0:
457,218,235319,2,0,P|500:182|452:110,1,143.999995605469,10|0,2:0|2:0,0:0:0:0:
403,101,235709,2,0,L|504:101,1,95.9999970703126,2|8,2:0|2:1,0:0:0:0:
226,249,236098,6,0,L|209:146,1,95.9999970703126,10|0,2:1|2:0,0:0:0:0:
403,101,236488,1,8,2:1:0:0:
147,188,236877,2,0,L|250:177,1,95.9999970703126,10|0,2:0|0:0,0:0:0:0:
497,269,237267,2,0,L|384:244,1,95.9999970703126,2|0,2:0|2:0,0:0:0:0:
138,369,237657,6,0,L|307:343,1,143.999995605469,14|0,2:1|2:0,0:0:0:0:
105,317,238046,2,0,L|-14:302,1,95.9999970703126,2|0,2:0|0:0,0:0:0:0:
161,249,238436,2,0,L|179:39,1,191.999994140625,10|2,2:0|2:0,0:0:0:0:
70,46,239020,2,0,L|138:48,1,47.9999985351563,0|0,2:0|0:0,0:0:0:0:
334,202,239215,6,0,L|439:200,1,95.9999970703126,10|0,2:1|0:0,0:0:0:0:
263,117,239605,1,8,2:1:0:0:
486,104,239994,2,0,L|370:108,1,95.9999970703126,10|0,2:0|0:0,0:0:0:0:
115,311,240384,2,0,L|10:314,1,95.9999970703126,2|0,2:0|2:0,0:0:0:0:
82,304,240676,1,0,2:0:0:0:
293,358,240773,6,0,L|311:254,1,95.9999970703126,10|0,2:1|0:0,0:0:0:0:
152,232,241163,2,0,L|132:130,1,95.9999970703126,2|0,2:0|0:0,0:0:0:0:
422,69,241553,2,0,P|449:111|342:182,1,191.999994140625,10|0,2:0|2:0,0:0:0:0:
484,194,242137,1,2,2:0:0:0:
193,315,242332,6,0,L|301:316,2,95.9999970703126,14|0|8,2:1|2:0|2:0,0:0:0:0:
454,257,242916,1,10,2:0:0:0:
170,245,243111,2,0,L|165:131,1,95.9999970703126,8|10,2:1|2:3,0:0:0:0:
313,123,243501,2,0,L|325:-2,1,95.9999970703126,8|10,2:3|2:3,0:0:0:0:
268,28,243793,1,0,2:0:0:0:
87,284,243890,6,0,P|86:193|179:145,1,191.999994140625,14|0,2:1|2:0,0:0:0:0:
293,132,244475,1,0,2:0:0:0:
103,67,244670,2,0,L|317:28,1,191.999994140625,10|2,2:0|2:0,0:0:0:0:
152,28,245254,1,0,2:0:0:0:
349,121,245449,6,0,L|357:224,1,95.9999970703126,10|0,2:1|2:0,0:0:0:0:
204,213,245838,2,0,L|199:335,1,95.9999970703126,8|2,2:1|2:0,0:0:0:0:
43,346,246228,1,10,2:0:0:0:
195,339,246423,1,2,2:0:0:0:
55,271,246618,1,0,2:0:0:0:
202,232,246812,2,0,L|257:224,1,47.9999985351563,2|0,2:0|2:0,0:0:0:0:
465,236,247007,6,0,P|460:133|367:108,1,191.999994140625,14|0,2:1|2:0,0:0:0:0:
276,111,247592,1,0,2:0:0:0:
460,211,247786,2,0,L|334:229,1,95.9999970703126,14|0,2:0|0:0,0:0:0:0:
228,264,248176,1,2,2:0:0:0:
365,323,248371,1,8,2:1:0:0:
73,355,248566,6,0,L|53:153,1,191.999994140625,10|8,2:1|2:1,0:0:0:0:
159,144,249150,1,0,0:0:0:0:
314,113,249345,2,0,L|188:84,1,95.9999970703126,10|0,2:0|2:0,0:0:0:0:
51,49,249735,2,0,L|208:25,1,95.9999970703126,2|0,2:0|2:0,0:0:0:0:
439,98,250124,6,0,P|455:156|384:205,1,143.999995605469,14|0,2:1|2:0,0:0:0:0:
290,233,250514,2,0,L|391:244,1,95.9999970703126,2|0,2:0|0:0,0:0:0:0:
201,230,250903,2,0,P|185:288|256:337,1,143.999995605469,10|0,2:0|2:0,0:0:0:0:
350,365,251293,2,0,L|249:376,1,95.9999970703126,2|0,2:0|2:0,0:0:0:0:
74,369,251683,6,0,L|65:247,1,95.9999970703126,10|0,2:1|2:0,0:0:0:0:
216,266,252072,2,0,L|226:157,1,95.9999970703126,8|0,2:1|0:0,0:0:0:0:
386,124,252462,2,0,L|190:100,1,191.999994140625,10|10,2:0|2:1,0:0:0:0:
57,47,253046,2,0,L|132:32,1,47.9999985351563,0|0,2:0|2:0,0:0:0:0:
347,66,253241,6,0,P|359:113|244:176,1,191.999994140625,14|0,2:1|2:0,0:0:0:0:
113,226,253825,2,0,L|178:226,1,47.9999985351563,2|0,2:0|0:0,0:0:0:0:
394,319,254020,6,0,P|399:234|280:211,1,191.999994140625,14|0,2:1|2:0,0:0:0:0:
444,173,254605,2,0,L|495:162,1,47.9999985351563,10|0,2:1|0:0,0:0:0:0:
263,314,254799,6,0,L|102:278,1,143.999995605469,14|0,2:0|2:0,0:0:0:0:
203,237,255189,1,8,2:3:0:0:
345,233,255384,1,10,2:0:0:0:
192,160,255579,1,8,2:0:0:0:
337,138,255773,1,10,2:0:0:0:
59,91,255968,1,8,2:0:0:0:
337,53,256163,1,10,2:0:0:0:
40,124,256358,6,0,P|34:185|114:216,1,143.999995605469,14|0,2:1|2:0,0:0:0:0:
191,254,256748,2,0,L|90:274,1,95.9999970703126,8|0,2:1|2:0,0:0:0:0:
290,335,257137,2,0,P|297:263|211:235,1,143.999995605469,10|0,2:0|0:0,0:0:0:0:
132,203,257527,2,0,L|257:183,1,95.9999970703126,2|8,2:0|2:0,0:0:0:0:
396,94,257916,6,0,L|268:80,1,95.9999970703126,2|8,2:0|2:0,0:0:0:0:
466,181,258306,2,0,L|476:51,1,95.9999970703126,8|2,2:1|2:0,0:0:0:0:
169,206,258696,1,10,2:0:0:0:
292,252,258890,1,2,2:0:0:0:
431,278,259085,1,8,2:1:0:0:
295,348,259280,1,2,2:0:0:0:
6,104,259475,6,0,L|183:71,1,143.999995605469,10|0,2:1|2:0,0:0:0:0:
243,128,259864,2,0,L|123:114,1,95.9999970703126,8|0,2:1|2:0,0:0:0:0:
323,75,260254,2,0,L|334:203,1,95.9999970703126,10|0,2:0|0:0,0:0:0:0:
172,226,260644,1,2,2:0:0:0:
335,271,260838,1,8,2:0:0:0:
35,346,261033,5,2,2:0:0:0:
162,362,261228,1,8,2:0:0:0:
309,329,261423,1,0,2:0:0:0:
156,270,261618,1,8,2:1:0:0:
349,202,261812,2,0,L|239:182,1,95.9999970703126,10|0,2:0|2:0,0:0:0:0:
70,118,262202,2,0,L|179:102,1,95.9999970703126,2|0,2:0|2:0,0:0:0:0:
483,42,262592,6,0,L|490:194,1,143.999995605469,14|0,2:1|2:0,0:0:0:0:
385,203,262981,2,0,L|227:238,1,143.999995605469,10|0,2:1|2:0,0:0:0:0:
359,291,263371,2,0,P|369:235|282:186,1,143.999995605469,10|0,2:0|2:0,0:0:0:0:
214,187,263761,1,2,2:0:0:0:
371,121,263955,1,8,2:0:0:0:
61,93,264150,5,2,2:0:0:0:
195,108,264345,1,8,2:0:0:0:
39,141,264540,2,0,P|25:198|102:244,1,143.999995605469,8|0,2:1|0:0,0:0:0:0:
188,275,264929,2,0,L|32:310,1,143.999995605469,10|0,2:0|2:0,0:0:0:0:
154,333,265319,2,0,L|333:344,1,143.999995605469,10|0,2:1|2:0,0:0:0:0:
50,225,265709,6,0,P|43:164|135:126,1,143.999995605469,14|0,2:1|2:0,0:0:0:0:
205,130,266098,2,0,L|30:100,1,143.999995605469,10|0,2:1|2:0,0:0:0:0:
288,49,266488,2,0,P|298:111|229:152,1,143.999995605469,10|0,2:0|2:0,0:0:0:0:
134,162,266877,1,0,2:0:0:0:
268,244,267072,1,10,2:1:0:0:
105,290,267267,5,10,2:0:0:0:
402,342,267462,1,8,2:0:0:0:
33,306,267657,2,0,L|29:166,1,95.9999970703126,12|2,2:1|2:0,0:0:0:0:
306,161,268046,1,8,2:0:0:0:
15,109,268241,2,0,P|47:166|176:190,1,191.999994140625,14|2,2:1|2:0,0:0:0:0:
484,285,268825,6,0,L|323:285,1,143.999995605469,14|0,2:1|2:0,0:0:0:0:
423,261,269215,2,0,L|520:262,1,95.9999970703126,8|0,2:1|0:0,0:0:0:0:
235,357,269605,2,0,P|176:322|236:232,1,191.999994140625,10|2,2:0|2:0,0:0:0:0:
486,218,270189,1,8,2:0:0:0:
217,158,270384,6,0,L|88:155,1,95.9999970703126,2|8,2:0|2:0,0:0:0:0:
309,68,270773,2,0,L|288:184,1,95.9999970703126,8|2,2:1|2:0,0:0:0:0:
13,212,271163,1,10,2:0:0:0:
284,270,271358,2,0,L|172:273,2,95.9999970703126,2|8|2,2:0|2:1|2:0,0:0:0:0:
335,270,271845,1,0,2:0:0:0:
117,377,271942,6,0,P|101:318|171:278,1,143.999995605469,14|0,2:1|2:0,0:0:0:0:
241,278,272332,1,8,2:0:0:0:
340,280,272462,1,8,2:0:0:0:
200,207,272592,1,8,2:0:0:0:
398,66,272722,2,0,L|406:225,1,143.999995605469,14|0,2:1|2:0,0:0:0:0:
217,252,273111,1,10,2:0:0:0:
296,253,273241,1,8,2:0:0:0:
501,263,273371,1,8,2:0:0:0:
279,362,273501,6,0,P|316:309|419:289,1,143.999995605469,10|0,2:1|2:0,0:0:0:0:
303,279,273890,2,0,L|143:278,1,143.999995605469,8|0,2:0|2:0,0:0:0:0:
361,164,274280,2,0,L|479:164,1,95.9999970703126,10|8,2:0|2:3,0:0:0:0:
176,44,274670,2,0,L|167:162,1,95.9999970703126,10|8,2:3|2:3,0:0:0:0:
227,146,274962,1,0,2:0:0:0:
455,179,275059,6,0,L|237:178,2,191.999994140625,14|2|10,2:1|2:0|2:0,0:0:0:0:
194,342,276228,2,0,L|182:235,1,95.9999970703126,2|0,2:0|2:0,0:0:0:0:
438,240,276618,2,0,L|463:75,1,143.999995605469,10|0,2:1|0:0,0:0:0:0:
377,82,277007,2,0,P|410:37|499:17,1,143.999995605469,8|0,2:1|2:0,0:0:0:0:
230,269,277397,6,0,P|175:230|191:146,1,143.999995605469,10|0,2:0|0:0,0:0:0:0:
340,146,277786,2,0,L|390:138,1,47.9999985351563,8|0,0:0|0:0,0:0:0:0:
205,60,277981,2,0,L|141:60,1,47.9999985351563,8|0,0:0|0:0,0:0:0:0:
311,117,278144,6,0,L|525:117,1,191.999994140625,14|0,2:1|2:0,0:0:0:0:
33,323,278955,6,0,L|18:115,1,191.999994140625,14|0,2:1|2:0,0:0:0:0:
479,328,279734,6,0,L|492:146,1,143.999995605469,14|0,2:1|2:0,0:0:0:0:
398,151,280123,2,0,L|387:26,1,120,8|0,2:3|0:0,0:0:0:0:
318,85,280513,1,2,2:0:0:0:
300,164,280708,1,8,2:3:0:0:
345,233,280903,1,10,2:3:0:0:
425,249,281098,1,0,2:0:0:0:
169,342,281292,6,0,L|357:346,1,160,14|2,2:1|2:0,0:0:0:0:
122,261,282071,2,0,L|103:77,1,160,2|2,2:0|2:0,0:0:0:0:
378,78,282850,2,0,P|446:112|361:296,1,320,2|2,2:0|2:0,0:0:0:0:
121,338,284019,1,2,2:0:0:0:
392,173,284387,6,0,L|199:171,1,160,2|0,2:0|0:0,0:0:0:0:
133,170,284971,1,2,2:0:0:0:
312,239,285189,2,0,L|472:241,1,160,2|2,2:0|2:0,0:0:0:0:
296,29,286050,2,0,P|100:130|423:352,1,800,2|0,2:0|2:0,0:0:0:0:
26,367,289167,6,0,L|9:46,1,320,2|2,2:0|2:0,0:0:0:0:
259,52,290501,1,2,2:0:0:0:
117,317,290744,2,0,P|46:291|144:107,1,360.000013732911,2|0,2:0|0:0,0:0:0:0:
486,367,292328,6,0,L|500:110,1,240.000009155274,2|2,2:0|2:0,0:0:0:0:
195,64,293982,2,0,P|66:157|94:204,1,240.000009155274,2|2,2:0|2:0,0:0:0:0:
309,195,295232,1,2,2:0:0:0:
87,365,295648,5,2,2:0:0:0:
246,347,296076,1,2,2:0:0:0:
330,211,296485,1,0,2:0:0:0:
17,205,297377,1,2,2:0:0:0:
177,204,297831,1,0,2:0:0:0:
25,205,298286,2,0,L|14:67,1,120.000004577637,2|2,2:0|2:0,0:0:0:0:
391,361,299329,6,0,L|409:176,1,180.000006866455,10|0,2:1|2:0,0:0:0:0:
327,166,300283,1,0,0:0:0:0:
238,154,300419,2,0,P|156:186|209:276,1,210.000008010865,2|0,2:0|0:0,0:0:0:0:
278,300,301637,1,0,2:0:0:0:
487,347,301752,5,2,2:0:0:0:
256,192,301988,12,0,309331,0:0:0:0:
