osu file format v14

[General]
AudioFilename: audio.mp3
AudioLeadIn: 0
PreviewTime: 50187
Countdown: 0
SampleSet: Soft
StackLeniency: 0.4
Mode: 0
LetterboxInBreaks: 0
WidescreenStoryboard: 1

[Editor]
Bookmarks: 90762,119634,144898,155725,197905,206025
DistanceSpacing: 1.2
BeatDivisor: 4
GridSize: 32
TimelineZoom: 1.7

[Metadata]
Title:Sayoko
TitleUnicode:小夜子
Artist:Ito Kashitaro
ArtistUnicode:伊東歌詞太郎
Creator:Haruto
Version:Misery
Source:
Tags:haruto_aizawa nikakis lit120 -hakurei- weezer みきとP mikitoP itou kashitarou my little white cat utaite cover hatsune miku vocaloid
BeatmapID:2074177
BeatmapSetID:843966

[Difficulty]
HPDrainRate:6
CircleSize:4
OverallDifficulty:7.8
ApproachRate:8.2
SliderMultiplier:1.76
SliderTickRate:1

[Events]
//Background and Video events
0,0,"69150786_p0.jpg",0,0
//Break Periods
2,199033,205275
//Storyboard Layer 0 (Background)
//Storyboard Layer 1 (Fail)
//Storyboard Layer 2 (Pass)
//Storyboard Layer 3 (Foreground)
//Storyboard Layer 4 (Overlay)
//Storyboard Sound Samples

[TimingPoints]
100,451.127819548872,4,2,1,60,1,0
551,-136.986301369863,4,2,1,60,0,0
5739,-116.279069767442,4,2,1,60,0,0
7318,454.545454545455,4,2,1,60,1,0
7318,-116.279069767442,4,2,1,60,0,0
9136,451.127819548872,4,2,1,60,1,0
9136,-116.279069767442,4,2,1,60,0,0
10940,447.761194029851,4,2,1,60,1,0
10940,-116.279069767442,4,2,1,60,0,0
12731,454.545454545455,4,2,1,60,1,0
12731,-116.279069767442,4,2,1,60,0,0
14549,451.127819548872,4,2,1,60,1,0
14549,-116.279069767442,4,2,1,60,0,0
16353,454.545454545455,4,2,1,60,1,0
16353,-116.279069767442,4,2,1,60,0,0
18171,451.127819548872,4,2,1,60,1,0
18171,-116.279069767442,4,2,1,60,0,0
18509,-116.279069767442,4,2,1,20,0,0
18622,-116.279069767442,4,2,1,60,0,0
19975,447.761194029851,4,2,1,60,1,0
19975,-116.279069767442,4,2,1,60,0,0
21766,451.127819548872,4,2,1,60,1,0
22217,-136.986301369863,4,2,1,60,0,0
25713,-136.986301369863,4,2,1,20,0,0
25826,-136.986301369863,4,2,1,60,0,0
39359,-136.986301369863,4,2,1,90,0,0
39585,-136.986301369863,4,2,1,60,0,0
39811,-107.52688172043,4,2,1,60,0,0
40149,-107.52688172043,4,2,1,20,0,0
40262,-136.986301369863,4,2,1,60,0,0
47480,-120.481927710843,4,2,1,60,0,0
51089,451.127819548872,4,2,1,60,1,1
51089,-100,4,2,1,60,0,1
51878,-100,4,2,1,20,0,1
51991,-100,4,2,1,60,0,1
52893,444.444444444444,4,2,1,60,1,1
54226,454.545454545455,4,2,1,60,1,1
54680,461.538461538462,4,2,1,60,1,1
55141,451.127819548872,4,2,1,60,1,1
56043,451.127819548872,4,2,1,60,1,1
61794,-100,4,2,1,20,0,1
61907,-100,4,2,1,60,0,1
64839,-100,4,2,1,60,0,0
65516,-100,4,2,1,60,0,1
66306,-100,4,2,1,20,0,1
66418,-100,4,2,1,60,0,1
69012,-100,4,2,1,20,0,1
69125,-100,4,2,1,60,0,1
76343,-100,4,2,1,60,0,0
77697,454.545454545455,4,2,1,60,1,0
79515,451.127819548872,4,2,1,60,1,0
81319,454.545454545455,4,2,1,60,1,0
83137,444.444444444444,4,2,1,60,1,0
84914,454.545454545455,4,2,1,60,1,0
86732,451.127819548872,4,2,1,60,1,0
88536,447.761194029851,4,2,1,60,1,0
89095,-100,4,2,1,20,0,0
89207,-100,4,2,1,60,0,0
90327,454.545454545455,4,2,1,60,1,0
90762,-136.986301369863,4,2,1,60,0,0
92145,451.127819548872,4,2,1,60,1,0
92145,-136.986301369863,4,2,1,60,0,0
94287,-136.986301369863,4,2,1,20,0,0
94400,-136.986301369863,4,2,1,60,0,0
99363,447.761194029851,4,2,1,60,1,0
99363,-136.986301369863,4,2,1,60,0,0
101154,454.545454545455,4,2,1,60,1,0
101154,-136.986301369863,4,2,1,60,0,0
101949,-136.986301369863,4,2,1,20,0,0
102063,-136.986301369863,4,2,1,60,0,0
102972,447.761194029851,4,2,1,60,1,0
102972,-136.986301369863,4,2,1,60,0,0
104763,451.127819548872,4,2,1,60,1,0
104763,-136.986301369863,4,2,1,60,0,0
106567,454.545454545455,4,2,1,60,1,0
106567,-136.986301369863,4,2,1,60,0,0
108385,451.127819548872,4,2,1,60,1,0
108385,-136.986301369863,4,2,1,60,0,0
115603,454.545454545455,4,2,1,60,1,0
116057,-120.481927710843,4,2,1,60,0,0
116966,451.127819548872,4,2,1,60,1,0
116966,-120.481927710843,4,2,1,60,0,0
117417,447.761194029851,4,2,1,60,1,0
117640,-107.52688172043,4,2,1,60,0,0
119208,451.127819548872,4,2,1,60,1,0
119659,454.545454545455,4,2,1,60,1,1
119659,-100,4,2,1,60,0,1
120113,451.127819548872,4,2,1,60,1,1
121015,447.761194029851,4,2,1,60,1,1
122806,451.127819548872,4,2,1,60,1,1
123144,-100,4,2,1,20,0,1
123257,-100,4,2,1,60,0,1
130362,-100,4,2,1,20,0,1
130475,-100,4,2,1,60,0,1
133407,-100,4,2,1,60,0,0
134084,-100,4,2,1,60,0,1
134873,-100,4,2,1,20,0,1
134986,-100,4,2,1,60,0,1
137580,-100,4,2,1,20,0,1
137693,-100,4,2,1,60,0,1
144911,-100,4,2,1,60,0,0
146264,454.545454545455,4,2,1,60,1,0
148082,451.127819548872,4,2,1,60,1,0
153495,447.761194029851,4,2,1,60,1,0
155286,454.545454545455,4,2,1,60,1,0
155740,-100,4,2,1,60,0,1
157104,451.127819548872,4,2,1,60,1,1
159134,-100,4,2,1,60,0,0
159359,-100,4,2,1,60,0,1
160713,454.545454545455,4,2,1,60,1,1
162531,447.761194029851,4,2,1,60,1,1
162866,-100,4,2,1,20,0,1
162978,-100,4,2,1,60,0,1
164322,451.127819548872,4,2,1,60,1,1
171539,447.761194029851,4,2,1,60,1,1
172882,-100,4,2,1,60,0,0
173330,454.545454545455,4,2,1,60,1,0
173784,447.761194029851,4,2,1,60,1,1
173784,-100,4,2,1,60,0,1
174231,454.545454545455,4,2,1,60,1,1
174571,-100,4,2,1,20,0,1
174685,447.761194029851,4,2,1,60,1,1
174685,-100,4,2,1,60,0,1
176028,454.545454545455,4,2,1,60,1,1
176937,451.127819548872,4,2,1,60,1,1
184493,-100,4,2,1,20,0,1
184606,-100,4,2,1,60,0,1
187312,-100,4,2,1,60,0,0
188215,-100,4,2,1,60,0,1
189004,-100,4,2,1,20,0,1
189117,-100,4,2,1,60,0,1
191711,-100,4,2,1,20,0,1
191824,-100,4,2,1,60,0,1
199042,-100,4,2,1,60,0,0
205809,454.545454545455,4,2,1,60,1,0
206263,-136.986301369863,4,2,1,60,0,0
207627,451.127819548872,4,2,1,60,1,0
207627,-136.986301369863,4,2,1,60,0,0
211236,447.761194029851,4,2,1,60,1,0
213027,454.545454545455,4,2,1,60,1,0
213481,-100,4,2,1,60,0,1
213822,-100,4,2,1,20,0,0
213936,-100,4,2,1,60,0,0
214845,451.127819548872,4,2,1,60,1,0
225672,454.545454545455,4,2,1,60,1,0
227490,444.444444444444,4,2,1,60,1,0
227934,-136.986301369863,4,2,1,40,0,0
229267,454.545454545455,4,2,1,40,1,0
229267,-136.986301369863,4,2,1,40,0,0
231085,451.127819548872,4,2,1,40,1,0
231085,-136.986301369863,4,2,1,40,0,0
232889,447.761194029851,4,2,1,40,1,0
233112,-136.986301369863,4,2,1,40,0,0
234680,444.444444444444,4,2,1,40,1,0
235123,-120.481927710843,4,2,1,40,0,0
235124,454.545454545455,4,2,1,40,1,0
235124,-120.481927710843,4,2,1,40,0,0
235578,458.015267175573,4,2,1,40,1,0
235807,-120.481927710843,4,2,1,40,0,0
236494,451.127819548872,4,2,1,40,1,0
236719,-120.481927710843,4,2,1,40,0,0
240103,444.444444444444,4,2,1,40,1,0
240103,-120.481927710843,4,2,1,40,0,0
241214,-303.030303030303,4,2,1,20,0,0
241325,-303.030303030303,4,2,1,5,0,0

[Colours]
Combo1 : 253,94,94
Combo2 : 202,155,186
Combo3 : 166,202,168
Combo4 : 202,190,123

[HitObjects]
74,133,325,6,0,L|59:102,2,29.3333333333333,2|0|0,0:2|0:0|0:0,0:0:0:0:
84,151,551,2,0,P|129:108|192:110,1,128.480003528809,2|2,0:2|0:2,0:0:0:0:
271,258,1227,1,0,0:0:0:0:
258,168,1453,2,0,P|230:190|201:195,1,64.2400017644044,2|2,0:2|0:2,0:0:0:0:
192,110,1904,5,2,0:2:0:0:
121,232,2130,2,0,L|101:365,1,128.480003528809,2|2,0:2|0:2,0:0:0:0:
192,287,2806,2,0,L|182:350,1,64.2400017644044,2|2,0:2|0:2,0:0:0:0:
29,307,3257,2,0,L|38:243,1,64.2400017644044,0|2,0:0|0:2,0:0:0:0:
192,110,3709,5,2,0:2:0:0:
258,168,3934,1,2,0:2:0:0:
280,176,4047,1,0,0:0:0:0:
302,177,4160,2,0,L|430:148,1,128.480003528809,2|2,0:2|0:2,0:0:0:0:
512,123,4836,1,0,0:0:0:0:
466,351,5062,2,0,P|454:321|458:290,1,64.2400017644044,2|2,0:2|0:2,0:0:0:0:
491,209,5513,5,2,0:2:0:0:
339,76,5739,2,0,L|191:109,1,151.36000230957,14|10,0:0|0:0,0:0:0:0:
98,137,6415,1,10,3:2:0:0:
243,250,6641,1,10,0:0:0:0:
154,271,6866,2,0,P|155:222|175:192,1,75.6800011547852,8|10,3:2|0:0,0:0:0:0:
339,76,7318,5,10,0:0:0:0:
400,153,7545,1,10,0:0:0:0:
404,174,7658,1,10,0:0:0:0:
401,194,7772,2,0,L|377:297,1,75.6800011547852,6|2,3:2|0:2,0:0:0:0:
436,64,8227,1,10,0:0:0:0:
305,167,8454,1,2,0:2:0:0:
458,284,8681,2,0,L|354:260,1,75.6800011547852,2|2,3:2|3:2,0:0:0:0:
192,230,9136,5,10,0:0:0:0:
282,285,9361,2,0,P|299:230|249:144,1,151.36000230957,6|2,3:2|3:2,0:0:0:0:
86,80,10038,1,10,0:0:0:0:
178,60,10263,2,0,L|160:133,1,75.6800011547852,10|0,0:0|3:2,0:0:0:0:
192,230,10714,1,2,3:2:0:0:
0,246,10940,6,0,P|29:214|66:205,1,75.6800011547852,10|2,0:0|0:2,0:0:0:0:
79,206,11275,1,2,0:2:0:0:
95,212,11387,2,0,L|112:285,1,75.6800011547852,2|2,3:2|0:2,0:0:0:0:
159,133,11835,1,10,0:0:0:0:
209,303,12059,2,0,L|192:230,1,75.6800011547852,2|2,0:2|3:2,0:0:0:0:
159,133,12507,1,2,3:2:0:0:
143,374,12731,5,10,0:0:0:0:
209,303,12958,2,0,P|251:272|346:280,1,151.36000230957,6|2,3:2|3:2,0:0:0:0:
499,343,13640,1,10,0:0:0:0:
431,272,13867,2,0,L|414:345,1,75.6800011547852,10|0,0:2|3:2,0:0:0:0:
490,202,14321,1,2,3:2:0:0:
345,279,14549,5,10,0:0:0:0:
303,132,14774,1,10,0:2:0:0:
284,144,14887,1,8,0:2:0:0:
273,160,15000,2,0,P|259:202|267:237,1,75.6800011547852,4|2,3:2|0:2,0:0:0:0:
413,345,15451,1,10,0:0:0:0:
345,279,15676,1,2,0:2:0:0:
259,326,15902,2,0,L|186:309,1,75.6800011547852,2|2,3:2|3:2,0:0:0:0:
2,265,16353,5,10,0:0:0:0:
67,197,16580,2,0,P|96:257|68:339,1,151.36000230957,6|2,3:2|3:2,0:0:0:0:
0,128,17262,1,10,0:0:0:0:
89,106,17489,2,0,L|162:89,1,75.6800011547852,10|0,0:2|3:2,0:0:0:0:
254,67,17943,1,2,3:2:0:0:
337,206,18171,6,0,P|281:207|237:173,1,113.520001732178,10|2,0:0|0:2,0:0:0:0:
225,156,18622,2,0,L|208:229,1,75.6800011547852,6|2,3:2|0:2,0:0:0:0:
80,370,19073,1,10,0:0:0:0:
258,316,19298,1,10,0:0:0:0:
189,381,19524,2,0,P|167:351|162:313,1,75.6800011547852,2|2,3:2|3:2,0:0:0:0:
207,229,19975,5,10,0:0:0:0:
52,113,20198,2,0,L|87:261,1,151.36000230957,6|8,3:2|0:0,0:0:0:0:
129,66,20870,1,8,0:2:0:0:
134,87,20982,2,0,L|158:190,1,75.6800011547852,8|8,0:0|0:3,0:0:0:0:
159,180,21318,2,0,P|202:154|218:127,1,75.6800011547852,8|4,0:3|0:3,0:0:0:0:
299,2,21766,5,10,0:0:0:0:
292,23,21878,1,8,0:0:0:0:
291,46,21991,1,4,0:3:0:0:
384,84,22217,6,0,L|509:54,1,128.480003528809,4|10,3:2|0:0,0:0:0:0:
491,143,22893,1,2,0:2:0:0:
472,230,23119,2,0,P|442:221|419:199,1,64.2400017644044,2|2,3:2|3:2,0:0:0:0:
291,46,23570,5,10,0:0:0:0:
383,84,23796,2,0,P|346:134|285:152,1,128.480003528809,2|2,3:2|3:2,0:0:0:0:
109,105,24472,1,10,0:0:0:0:
203,97,24698,2,0,L|182:184,1,64.2400017644044,10|0,0:0|3:2,0:0:0:0:
143,336,25149,1,2,3:2:0:0:
210,272,25375,6,0,P|169:247|121:245,1,96.3600026466065,10|0,0:0|0:0,0:0:0:0:
103,249,25826,2,0,L|40:263,1,64.2400017644044,0|2,3:2|0:2,0:0:0:0:
234,364,26277,1,10,0:0:0:0:
234,364,26502,2,0,P|272:344|289:317,1,64.2400017644044,2|2,0:2|3:2,0:0:0:0:
338,255,26953,1,2,3:2:0:0:
203,97,27179,5,10,0:0:0:0:
210,272,27405,2,0,P|169:247|87:251,1,128.480003528809,2|2,3:2|3:2,0:0:0:0:
285,129,28081,1,10,0:0:0:0:
285,129,28307,2,0,P|271:157|246:177,1,64.2400017644044,10|0,0:0|3:2,0:0:0:0:
67,32,28758,1,2,3:2:0:0:
203,97,28984,5,10,0:0:0:0:
102,289,29209,1,10,0:0:0:0:
96,268,29322,1,8,0:0:0:0:
91,250,29435,2,0,L|61:117,1,128.480003528809,0|10,3:2|0:0,0:0:0:0:
67,32,30111,1,2,0:2:0:0:
171,203,30337,2,0,L|153:123,1,64.2400017644044,2|2,3:2|3:2,0:0:0:0:
161,46,30788,5,10,0:0:0:0:
362,179,31014,2,0,B|281:194|281:194|254:177|256:150,1,128.480003528809,2|2,3:2|3:2,0:0:0:0:
380,15,31690,1,10,0:0:0:0:
258,68,31916,2,0,L|337:86,1,64.2400017644044,10|0,0:0|3:2,0:0:0:0:
451,185,32367,1,2,3:2:0:0:
378,239,32593,6,0,P|362:198|363:166,1,64.2400017644044,10|2,0:0|0:2,0:0:0:0:
512,373,33044,2,0,L|378:342,2,128.480003528809,2|10|2,3:2|0:0|3:2,0:0:0:0:
295,298,34172,1,2,3:2:0:0:
451,185,34397,5,8,0:0:0:0:
386,344,34623,2,0,P|394:290|350:217,1,128.480003528809,6|0,3:2|3:2,0:0:0:0:
212,254,35299,1,8,0:0:0:0:
294,124,35525,2,0,L|279:186,1,64.2400017644044,8|0,0:0|3:2,0:0:0:0:
212,254,35976,1,2,3:2:0:0:
247,39,36202,5,10,0:0:0:0:
196,119,36427,1,10,0:0:0:0:
172,128,36540,1,8,0:0:0:0:
147,127,36653,2,0,P|88:104|57:49,1,128.480003528809,4|10,3:2|0:0,0:0:0:0:
150,33,37329,1,2,0:2:0:0:
40,206,37555,2,0,L|54:143,2,64.2400017644044,2|2|10,0:2|3:2|0:0,0:0:0:0:
322,244,38232,6,0,B|250:244|274:284|198:284,1,128.480003528809,2|2,3:2|3:2,0:0:0:0:
40,206,38908,1,10,0:0:0:0:
161,172,39134,1,2,0:2:0:0:
111,316,39359,2,0,P|107:283|117:242,1,64.2400017644044,0|2,0:0|3:2,0:0:0:0:
187,84,39811,6,0,B|231:74|231:74|261:83|261:83|307:72,1,122.760003839996,10|0,0:0|0:0,0:0:0:0:
329,68,40262,2,0,P|349:108|342:144,1,64.2400017644044,0|2,3:2|0:2,0:0:0:0:
310,292,40713,1,10,0:0:0:0:
297,202,40938,2,0,L|360:216,2,64.2400017644044,2|2|2,0:2|0:2|3:2,0:0:0:0:
323,384,41615,5,10,0:0:0:0:
408,356,41841,2,0,P|371:305|309:292,1,128.480003528809,2|2,3:2|3:2,0:0:0:0:
87,316,42517,1,10,0:0:0:0:
174,336,42743,2,0,L|237:350,1,64.2400017644044,2|0,0:2|0:0,0:0:0:0:
310,291,43195,1,2,3:2:0:0:
99,227,43421,6,0,L|234:257,1,128.480003528809,10|0,0:0|3:2,0:0:0:0:
301,197,44097,1,2,0:2:0:0:
232,99,44323,2,0,P|218:128|215:160,1,64.2400017644044,10|2,0:0|0:2,0:0:0:0:
301,197,44774,2,0,P|315:168|317:136,1,64.2400017644044,2|2,0:2|3:2,0:0:0:0:
117,32,45225,5,10,0:0:0:0:
99,227,45451,2,0,B|99:155|59:179|59:103,1,128.480003528809,2|2,3:2|3:2,0:0:0:0:
117,32,46127,1,10,0:0:0:0:
3,226,46353,2,0,L|16:288,1,64.2400017644044,2|0,0:2|0:0,0:0:0:0:
156,120,46804,1,2,3:2:0:0:
59,108,47030,5,10,0:0:0:0:
139,305,47255,1,2,0:2:0:0:
208,243,47481,2,0,P|248:231|349:274,1,146.080002117554,6|10,3:2|0:0,0:0:0:0:
471,371,48156,1,8,0:0:0:0:
426,201,48382,1,2,3:2:0:0:
261,319,48608,1,2,3:2:0:0:
208,243,48833,5,8,0:0:0:0:
139,305,49060,2,0,L|123:233,1,73.0400010587769,6|0,3:2|0:0,0:0:0:0:
83,54,49511,1,8,0:0:0:0:
46,143,49736,1,8,0:0:0:0:
70,149,49848,1,8,0:0:0:0:
96,148,49961,1,8,0:3:0:0:
120,142,50074,1,0,3:2:0:0:
162,113,50187,5,8,0:0:0:0:
442,5,50863,5,8,0:0:0:0:
436,31,50976,1,8,0:0:0:0:
430,58,51089,2,0,L|410:143,1,88,6|2,3:2|0:2,0:0:0:0:
261,271,51540,2,0,P|312:231|376:237,1,132,10|0,0:0|0:0,0:0:0:0:
393,245,51991,2,0,P|374:296|340:314,1,88,2|0,3:2|3:2,0:0:0:0:
168,251,52442,1,10,0:0:0:0:
293,33,52667,1,4,0:0:0:0:
220,99,52893,6,0,L|245:202,1,88,2|0,3:2|3:2,0:0:0:0:
198,343,53337,1,10,0:0:0:0:
147,165,53559,2,0,L|171:267,1,88,0|2,0:0|3:2,0:0:0:0:
198,343,54004,1,0,3:2:0:0:
79,227,54226,5,10,0:0:0:0:
220,99,54453,1,0,0:0:0:0:
236,107,54566,1,0,0:0:0:0:
258,111,54680,2,0,P|300:102|328:69,1,88,2|2,3:2|0:2,0:0:0:0:
498,230,55141,2,0,P|440:164|346:179,1,176,10|2,0:0|3:2,0:0:0:0:
304,379,55817,1,0,3:2:0:0:
385,338,56043,6,0,L|405:252,1,88,10|6,0:0|3:2,0:0:0:0:
260,195,56494,2,0,B|159:195|192:251|97:250,1,176,2|10,0:2|0:0,0:0:0:0:
107,155,57170,1,8,0:0:0:0:
247,293,57396,2,0,L|226:378,1,88,2|2,3:2|3:2,0:0:0:0:
19,195,57847,5,10,0:0:0:0:
127,118,58073,1,8,0:0:0:0:
117,136,58185,1,8,0:0:0:0:
107,155,58298,2,0,L|277:114,1,176,6|8,3:2|0:0,0:0:0:0:
367,85,58975,1,2,0:2:0:0:
239,246,59200,2,0,P|206:203|206:155,1,88,2|0,3:2|3:2,0:0:0:0:
298,24,59652,5,8,0:0:0:0:
367,85,59877,2,0,P|411:139|384:237,1,176,2|0,3:2|3:2,0:0:0:0:
241,359,60554,1,8,0:0:0:0:
319,304,60779,2,0,L|404:325,1,88,10|2,0:0|3:2,0:0:0:0:
239,246,61230,1,0,3:2:0:0:
166,302,61456,6,0,B|85:302|120:259|40:259,1,132,8|0,0:0|0:0,0:0:0:0:
25,261,61907,2,0,P|4:219|16:171,1,88,6|0,3:2|0:0,0:0:0:0:
274,136,62358,2,0,P|266:182|228:214,1,88,10|0,0:0|0:0,0:0:0:0:
0,90,62809,2,0,P|33:57|82:53,1,88,2|0,3:2|3:2,0:0:0:0:
195,289,63261,2,0,P|148:295|106:269,1,88,10|0,0:0|0:0,0:0:0:0:
154,13,63712,2,0,P|195:34|214:80,1,88,2|8,3:2|0:0,0:0:0:0:
125,179,64163,5,10,0:0:0:0:
134,158,64276,1,8,0:0:0:0:
141,139,64388,1,6,3:2:0:0:
264,342,64839,5,8,0:0:0:0:
310,264,65065,1,8,0:0:0:0:
335,247,65178,1,8,0:0:0:0:
365,239,65291,1,4,0:3:0:0:
396,241,65403,1,0,0:0:0:0:
424,253,65516,6,0,L|445:168,1,88,4|2,3:2|0:2,0:0:0:0:
330,44,65967,2,0,P|381:84|445:78,1,132,10|0,0:0|0:0,0:0:0:0:
462,70,66418,2,0,P|443:19|409:1,1,88,2|0,3:2|3:2,0:0:0:0:
255,104,66870,5,10,0:0:0:0:
345,230,67095,1,6,3:2:0:0:
330,44,67321,2,0,L|351:129,1,88,2|0,0:2|3:2,0:0:0:0:
169,151,67772,1,10,0:0:0:0:
345,230,67997,1,10,0:0:0:0:
227,289,68223,2,0,L|248:204,1,88,2|0,3:2|3:2,0:0:0:0:
169,151,68674,6,0,P|104:148|50:197,1,132,10|0,0:0|0:0,0:0:0:0:
36,182,69125,2,0,P|15:220|16:264,1,88,2|2,3:2|0:2,0:0:0:0:
113,317,69576,2,0,P|134:279|133:235,1,88,10|0,0:0|0:2,0:0:0:0:
12,379,70027,1,2,3:2:0:0:
113,317,70253,1,0,3:2:0:0:
188,373,70479,6,0,L|273:352,1,88,10|6,0:0|3:2,0:0:0:0:
361,314,70930,2,0,B|361:213|305:246|306:151,1,176,2|10,0:2|0:0,0:0:0:0:
422,0,71606,1,8,0:0:0:0:
492,183,71832,2,0,L|407:162,1,88,2|2,3:2|3:2,0:0:0:0:
364,74,72283,6,0,L|279:53,1,88,10|8,0:0|0:0,0:0:0:0:
253,56,72621,1,8,0:0:0:0:
230,69,72734,2,0,P|195:146|222:229,1,176,6|10,3:2|0:0,0:0:0:0:
356,378,73411,1,2,0:2:0:0:
243,343,73636,2,0,L|158:364,1,88,2|0,3:2|3:2,0:0:0:0:
333,263,74088,5,8,0:0:0:0:
221,228,74313,1,2,0:2:0:0:
67,384,74539,1,2,3:2:0:0:
8,172,74764,1,8,0:0:0:0:
96,260,74990,1,10,0:0:0:0:
250,122,75215,2,0,B|358:96|358:96|396:112|393:154,1,176,6|8,3:2|0:3,0:0:0:0:
333,263,75892,5,8,0:3:0:0:
417,232,76118,1,4,0:3:0:0:
476,283,76343,6,0,L|455:368,1,88,6|0,3:2|0:0,0:0:0:0:
333,263,76794,1,10,0:0:0:0:
493,205,77020,1,2,0:0:0:0:
393,145,77246,2,0,L|308:166,1,88,2|2,3:2|3:2,0:0:0:0:
96,218,77697,5,10,0:0:0:0:
182,266,77924,2,0,P|187:181|125:123,1,176,6|2,3:2|3:2,0:0:0:0:
46,302,78606,1,10,0:0:0:0:
182,266,78833,2,0,L|267:245,1,88,10|0,0:0|3:2,0:0:0:0:
131,352,79287,1,2,3:2:0:0:
96,218,79515,5,10,0:0:0:0:
294,340,79740,1,2,0:0:0:0:
361,271,79966,2,0,P|364:228|347:188,1,88,2|2,3:2|0:0,0:0:0:0:
190,91,80417,1,10,0:0:0:0:
282,66,80642,2,0,L|261:151,1,88,2|2,0:0|3:2,0:0:0:0:
267,244,81093,1,2,3:2:0:0:
99,67,81319,5,10,0:0:0:0:
190,91,81546,2,0,P|131:153|46:147,1,176,6|2,3:2|3:2,0:0:0:0:
99,67,82228,1,10,0:0:0:0:
97,291,82455,2,0,L|182:270,1,88,10|0,0:0|3:2,0:0:0:0:
267,244,82909,1,2,3:2:0:0:
387,367,83137,5,10,0:0:0:0:
452,296,83359,1,10,0:0:0:0:
460,278,83470,1,8,0:0:0:0:
462,259,83581,2,0,L|441:174,1,88,6|2,3:2|0:0,0:0:0:0:
405,0,84025,1,10,0:0:0:0:
464,71,84248,2,0,P|424:89|380:87,1,88,2|2,0:0|3:2,0:0:0:0:
221,59,84692,1,2,3:2:0:0:
405,0,84914,5,10,0:0:0:0:
347,180,85141,2,0,B|239:206|239:206|201:190|204:148,1,176,6|2,3:2|3:2,0:0:0:0:
221,59,85823,1,10,0:0:0:0:
99,171,86050,2,0,P|102:128|124:90,1,88,10|0,0:0|3:2,0:0:0:0:
221,59,86504,1,2,3:2:0:0:
347,180,86732,5,10,0:0:0:0:
168,307,86957,1,2,0:0:0:0:
190,302,87070,1,0,0:0:0:0:
212,297,87183,2,0,L|297:276,1,88,2|2,3:2|0:0,0:0:0:0:
79,269,87634,1,10,0:0:0:0:
246,185,87859,2,0,L|161:206,1,88,10|2,0:0|3:2,0:0:0:0:
297,275,88310,1,10,0:0:0:0:
240,85,88536,5,10,0:0:0:0:
346,179,88759,2,0,P|391:227|402:291,1,132,6|0,3:2|0:0,0:0:0:0:
402,291,89207,2,0,L|310:268,1,88,8|10,0:0|0:2,0:0:0:0:
297,275,89543,1,8,0:3:0:0:
151,342,89767,1,8,0:3:0:0:
173,336,89879,2,0,P|187:294|183:251,1,88,8|4,0:3|0:3,0:0:0:0:
176,232,90215,1,0,3:2:0:0:
159,209,90327,5,10,0:0:0:0:
11,74,90781,6,0,P|60:113|123:112,1,128.480003528809,4|10,3:2|0:0,0:0:0:0:
284,60,91463,1,2,0:0:0:0:
197,54,91690,2,0,L|212:116,1,64.2400017644044,2|2,3:2|3:2,0:0:0:0:
258,303,92145,5,10,0:0:0:0:
380,242,92370,2,0,B|308:242|328:206|256:206,1,128.480003528809,2|2,3:2|3:2,0:0:0:0:
81,267,93047,1,10,0:0:0:0:
158,314,93272,2,0,L|174:252,1,64.2400017644044,10|0,0:0|3:2,0:0:0:0:
130,165,93723,1,2,3:2:0:0:
258,303,93949,6,0,P|304:292|340:261,1,96.3600026466065,10|0,0:0|0:0,0:0:0:0:
359,266,94400,2,0,P|378:240|388:210,1,64.2400017644044,2|2,3:2|0:0,0:0:0:0:
334,37,94851,1,10,0:0:0:0:
484,107,95077,1,2,0:0:0:0:
331,132,95302,2,0,L|393:116,1,64.2400017644044,2|2,3:2|3:2,0:0:0:0:
432,27,95754,5,10,0:0:0:0:
252,86,95979,2,0,P|206:129|199:192,1,128.480003528809,2|2,3:2|3:2,0:0:0:0:
244,278,96656,1,10,0:0:0:0:
113,226,96881,2,0,P|127:254|151:275,1,64.2400017644044,10|0,0:0|3:2,0:0:0:0:
244,278,97332,1,2,3:2:0:0:
342,156,97558,6,0,P|313:170|292:194,1,64.2400017644044,10|2,0:0|3:2,0:0:0:0:
341,279,98009,2,0,P|392:269|419:199,1,128.480003528809,0|10,3:2|0:0,0:0:0:0:
348,62,98686,1,2,0:0:0:0:
440,47,98911,2,0,L|424:109,1,64.2400017644044,2|2,3:2|3:2,0:0:0:0:
472,275,99363,5,10,0:0:0:0:
419,203,99586,2,0,P|387:245|401:329,1,128.480003528809,2|2,3:2|3:2,0:0:0:0:
510,193,100258,1,10,0:0:0:0:
341,152,100482,2,0,L|279:136,1,64.2400017644044,10|0,0:0|3:2,0:0:0:0:
91,86,100930,1,2,3:2:0:0:
185,76,101154,6,0,P|184:118|162:155,1,64.2400017644044,10|2,0:0|0:0,0:0:0:0:
147,318,101608,2,0,L|116:200,1,96.3600026466065,2|0,3:2|0:0,0:0:0:0:
116,206,102063,2,0,P|84:211|57:228,1,64.2400017644044,10|0,0:0|0:0,0:0:0:0:
6,314,102517,1,2,3:2:0:0:
7,142,102744,1,2,3:2:0:0:
215,250,102972,5,8,0:0:0:0:
281,178,103195,2,0,P|315:158|416:182,1,128.480003528809,6|0,3:2|3:2,0:0:0:0:
282,331,103867,1,8,0:0:0:0:
379,374,104091,2,0,L|341:232,1,128.480003528809,10|2,0:0|3:2,0:0:0:0:
184,346,104763,5,10,0:0:0:0:
120,278,104988,1,2,0:0:0:0:
109,262,105101,1,2,0:0:0:0:
105,243,105214,2,0,P|104:211|116:181,1,64.2400017644044,10|2,0:0|0:0,0:0:0:0:
270,66,105665,1,10,0:0:0:0:
96,0,105890,1,2,0:0:0:0:
187,116,106116,2,0,P|175:86|176:55,1,64.2400017644044,2|2,0:0|3:2,0:0:0:0:
370,105,106567,5,10,0:0:0:0:
302,190,106794,2,0,L|270:66,1,128.480003528809,2|2,3:2|3:2,0:0:0:0:
238,277,107476,1,10,0:0:0:0:
203,178,107703,2,0,L|183:103,1,64.2400017644044,2|0,0:0|0:0,0:0:0:0:
139,260,108157,1,2,3:2:0:0:
302,190,108385,6,0,P|327:208|340:237,1,64.2400017644044,10|2,0:0|0:0,0:0:0:0:
172,353,108836,1,8,0:0:0:0:
238,277,109061,1,2,3:2:0:0:
172,353,109287,2,0,L|47:320,1,128.480003528809,10|2,0:0|0:0,0:0:0:0:
238,277,109963,1,2,3:2:0:0:
158,51,110189,5,10,0:0:0:0:
116,135,110415,2,0,P|109:198|143:252,1,128.480003528809,2|2,3:2|3:2,0:0:0:0:
66,57,111091,1,10,0:0:0:0:
209,130,111346,2,0,L|295:107,1,64.2400017644044,2|0,0:0|0:0,0:0:0:0:
451,65,111769,1,2,3:2:0:0:
296,24,111994,5,10,0:0:0:0:
334,184,112220,1,2,0:0:0:0:
346,172,112333,1,2,0:0:0:0:
355,158,112445,2,0,P|366:128|362:96,1,64.2400017644044,10|2,0:0|0:0,0:0:0:0:
142,251,112896,2,0,P|185:235|267:255,1,128.480003528809,10|2,0:0|0:0,0:0:0:0:
419,354,113573,1,2,3:2:0:0:
381,167,113799,5,10,0:0:0:0:
353,255,114024,2,0,L|337:318,1,64.2400017644044,2|0,3:2|0:0,0:0:0:0:
287,165,114475,2,0,L|270:102,1,64.2400017644044,2|10,3:2|0:0,0:0:0:0:
447,238,114927,1,2,0:0:0:0:
243,345,115152,2,0,P|214:333|193:309,1,64.2400017644044,0|2,0:0|3:2,0:0:0:0:
287,165,115603,5,10,0:0:0:0:
263,252,115830,1,2,0:0:0:0:
69,147,116057,2,0,P|140:141|195:186,1,146.080002117554,6|10,3:2|0:0,0:0:0:0:
66,384,116739,1,0,0:0:0:0:
94,297,116966,2,0,L|115:216,1,73.0400010587769,2|2,3:2|3:2,0:0:0:0:
160,365,117417,5,8,0:0:0:0:
22,226,117640,2,0,L|-1:313,1,81.8400025599976,6|0,3:2|0:0,0:0:0:0:
69,147,118088,2,0,L|45:59,1,81.8400025599976,8|0,0:3|0:0,0:0:0:0:
191,277,118536,1,4,0:3:0:0:
242,106,118760,1,8,0:0:0:0:
112,226,118984,1,8,0:0:0:0:
191,277,119208,5,8,0:0:0:0:
218,269,119320,1,8,0:0:0:0:
246,262,119433,1,8,0:3:0:0:
274,254,119546,1,4,0:3:0:0:
301,246,119659,6,0,P|322:211|323:159,1,88,6|2,3:2|3:2,0:0:0:0:
96,67,120113,2,0,L|228:103,1,132,10|0,0:0|0:0,0:0:0:0:
242,106,120564,2,0,P|246:65|225:17,1,88,2|0,3:2|3:2,0:0:0:0:
81,157,121015,5,10,0:0:0:0:
154,211,121238,2,0,L|323:164,1,176,6|0,3:2|3:2,0:0:0:0:
344,159,121798,1,0,0:0:0:0:
362,154,121910,1,10,0:0:0:0:
358,348,122134,1,0,0:0:0:0:
275,306,122358,2,0,P|254:271|253:219,1,88,2|0,3:2|3:2,0:0:0:0:
447,120,122806,6,0,P|377:116|331:74,1,132,10|0,0:0|0:0,0:0:0:0:
325,63,123257,2,0,L|206:95,1,88,2|2,3:2|0:0,0:0:0:0:
50,248,123708,2,0,B|163:217|163:217|179:189|164:161,1,176,10|2,0:0|3:2,0:0:0:0:
72,119,124384,1,0,3:2:0:0:
110,322,124610,6,0,L|194:298,1,88,10|6,0:0|3:2,0:0:0:0:
370,342,125061,2,0,B|322:350|286:318|286:318|274:366|236:384,1,176,2|10,0:0|0:0,0:0:0:0:
354,248,125738,1,8,0:0:0:0:
284,142,125963,2,0,P|255:193|261:233,1,88,2|2,3:2|3:2,0:0:0:0:
446,281,126415,5,10,0:0:0:0:
500,202,126640,1,8,0:0:0:0:
506,190,126753,1,8,0:0:0:0:
512,178,126866,2,0,L|459:-16,1,176,6|8,3:2|0:0,0:0:0:0:
442,256,127542,1,2,0:0:0:0:
414,168,127768,2,0,L|390:84,1,88,2|0,3:2|3:2,0:0:0:0:
215,24,128219,5,8,0:0:0:0:
170,112,128445,2,0,P|249:113|306:30,1,176,0|0,3:2|3:2,0:0:0:0:
3,64,129121,1,8,0:0:0:0:
71,129,129347,2,0,L|95:45,1,88,10|2,0:0|3:2,0:0:0:0:
233,200,129798,1,0,3:2:0:0:
171,113,130024,6,0,L|127:265,1,132,8|0,0:0|0:0,0:0:0:0:
129,260,130475,2,0,P|180:289|220:283,1,88,6|0,3:2|0:0,0:0:0:0:
89,70,130926,2,0,P|30:76|1:104,1,88,10|10,0:0|0:0,0:0:0:0:
233,200,131377,2,0,P|276:160|282:120,1,88,2|0,3:2|3:2,0:0:0:0:
40,179,131828,2,0,P|28:236|46:272,1,88,10|0,0:0|0:0,0:0:0:0:
208,82,132279,2,0,P|183:28|147:9,1,88,2|8,3:2|0:0,0:0:0:0:
141,162,132730,5,10,0:0:0:0:
196,381,132956,1,6,3:2:0:0:
395,95,133407,5,8,0:0:0:0:
353,184,133633,1,8,0:0:0:0:
341,212,133745,1,8,0:0:0:0:
340,243,133858,1,4,0:3:0:0:
347,272,133971,1,0,0:0:0:0:
364,298,134084,6,0,L|448:274,1,88,6|2,3:2|0:0,0:0:0:0:
298,109,134535,2,0,L|150:66,1,132,10|0,0:0|0:0,0:0:0:0:
150,67,134986,2,0,P|133:107|137:150,1,88,2|0,3:2|3:2,0:0:0:0:
277,274,135437,5,10,0:0:0:0:
236,178,135663,1,6,3:2:0:0:
93,273,135888,2,0,L|211:239,1,88,2|0,0:0|3:2,0:0:0:0:
37,178,136339,1,10,0:0:0:0:
208,344,136565,1,8,0:0:0:0:
277,274,136790,2,0,P|318:259|361:264,1,88,2|0,3:2|3:2,0:0:0:0:
460,274,137242,6,0,B|460:193|417:228|417:148,1,132,10|0,0:0|0:0,0:0:0:0:
417,134,137693,2,0,L|501:158,1,88,2|2,3:2|0:0,0:0:0:0:
512,63,138144,2,0,L|427:38,1,88,10|0,0:0|0:0,0:0:0:0:
222,188,138595,1,2,3:2:0:0:
341,81,138821,1,0,3:2:0:0:
271,16,139046,6,0,P|247:59|255:112,1,88,10|6,0:0|3:2,0:0:0:0:
387,245,139497,2,0,B|500:214|500:214|516:186|501:158,1,176,2|10,0:0|0:0,0:0:0:0:
312,169,140174,1,8,0:0:0:0:
279,272,140399,2,0,L|254:356,1,88,2|2,3:2|3:2,0:0:0:0:
209,194,140851,6,0,L|124:218,1,88,10|8,0:0|0:0,0:0:0:0:
101,227,141189,1,8,0:0:0:0:
79,234,141302,2,0,P|30:162|44:76,1,176,6|8,3:2|0:0,0:0:0:0:
231,43,141978,1,2,0:0:0:0:
135,15,142204,2,0,P|133:58|147:100,1,88,2|0,3:2|3:2,0:0:0:0:
294,137,142655,5,8,0:0:0:0:
231,43,142881,1,2,0:0:0:0:
295,238,143106,1,2,3:2:0:0:
379,89,143332,1,0,3:2:0:0:
206,191,143557,2,0,L|256:210,1,44,8|8,0:0|0:0,0:0:0:0:
397,265,143783,2,0,P|318:264|261:347,1,176,6|8,3:2|0:3,0:0:0:0:
358,353,144460,5,8,0:3:0:0:
206,191,144685,1,4,0:3:0:0:
95,310,144911,2,0,L|180:286,1,88,4|2,3:2|0:0,0:0:0:0:
140,126,145362,2,0,L|55:150,1,88,8|2,0:0|0:0,0:0:0:0:
26,242,145813,1,2,3:2:0:0:
237,104,146039,1,2,3:2:0:0:
158,42,146264,6,0,P|140:82|140:126,1,88,10|6,0:0|3:2,0:0:0:0:
276,261,146718,2,0,L|461:208,1,176,2|10,0:0|0:0,0:0:0:0:
304,76,147400,1,8,0:0:0:0:
286,168,147627,2,0,L|397:136,1,88,2|2,3:2|3:2,0:0:0:0:
312,354,148082,6,0,P|262:285|177:283,1,176,10|0,0:0|3:2,0:0:0:0:
21,349,148758,1,2,0:0:0:0:
86,276,148984,2,0,L|109:360,1,88,8|2,0:0|0:0,0:0:0:0:
206,188,149435,1,2,3:2:0:0:
151,110,149660,6,0,P|123:143|115:186,1,88,2|10,3:2|0:0,0:0:0:0:
312,354,150112,1,6,3:2:0:0:
360,272,150337,2,0,L|412:86,1,176,2|10,0:0|0:0,0:0:0:0:
472,216,151014,1,8,0:0:0:0:
281,198,151239,2,0,L|305:114,1,88,2|2,3:2|3:2,0:0:0:0:
331,18,151691,5,10,0:0:0:0:
209,134,151916,1,8,0:0:0:0:
194,148,152029,1,8,0:0:0:0:
179,162,152142,2,0,P|94:160|44:91,1,176,6|8,3:2|0:0,0:0:0:0:
137,72,152818,1,0,0:0:0:0:
55,268,153044,2,0,L|79:184,1,88,2|2,3:2|3:2,0:0:0:0:
311,300,153495,5,10,0:0:0:0:
325,203,153718,2,0,B|224:203|257:259|162:258,1,176,2|2,3:2|3:2,0:0:0:0:
179,162,154390,1,8,0:0:0:0:
311,300,154614,2,0,L|335:384,1,88,10|0,0:0|3:2,0:0:0:0:
422,217,155062,1,2,3:2:0:0:
219,338,155286,5,10,0:0:0:0:
296,109,155513,1,2,0:0:0:0:
408,314,155740,5,14,0:0:0:0:
422,217,155967,1,0,3:2:0:0:
311,300,156195,5,10,0:0:0:0:
325,203,156422,1,2,3:2:0:0:
512,371,156649,5,10,0:0:0:0:
498,274,156876,1,0,3:2:0:0:
230,238,157104,5,8,0:0:0:0:
244,141,157329,1,2,3:2:0:0:
408,314,157555,5,14,0:0:0:0:
230,238,157780,1,0,3:2:0:0:
390,125,158006,1,2,3:2:0:0:
311,300,158231,1,10,0:0:0:0:
152,177,158457,2,0,L|135:235,3,44,8|8|8|0,0:0|0:2|0:3|0:0,0:0:0:0:
133,243,158908,5,8,0:0:0:0:
77,321,159134,1,10,0:0:0:0:
58,308,159246,1,8,0:0:0:0:
46,291,159359,6,0,L|18:198,1,88,6|2,3:2|0:0,0:0:0:0:
211,63,159810,1,10,0:0:0:0:
111,95,160036,2,0,P|195:96|245:165,1,176,2|2,0:0|3:2,0:0:0:0:
46,291,160713,5,10,0:0:0:0:
127,261,160940,2,0,L|152:177,1,88,6|0,3:2|0:0,0:0:0:0:
23,116,161394,1,2,3:2:0:0:
112,347,161622,1,8,0:0:0:0:
152,177,161849,1,10,0:0:0:0:
46,291,162076,1,2,3:2:0:0:
231,357,162303,1,2,3:2:0:0:
303,297,162531,6,0,B|375:297|350:254|424:254,1,132,10|0,0:0|0:0,0:0:0:0:
443,259,162978,2,0,L|467:343,1,88,2|2,3:2|0:0,0:0:0:0:
328,118,163426,5,10,0:0:0:0:
304,203,163650,1,2,0:0:0:0:
172,87,163874,5,2,3:2:0:0:
220,249,164098,1,2,3:2:0:0:
84,0,164322,5,10,0:0:0:0:
11,241,164547,2,0,L|96:217,1,88,6|0,3:2|0:0,0:0:0:0:
271,374,164998,6,0,P|186:373|137:304,1,176,2|10,3:2|0:0,0:0:0:0:
178,162,165675,1,2,3:2:0:0:
220,249,165900,6,0,B|287:230|287:230|319:234|319:234|389:211,1,176,2|8,3:2|0:0,0:0:0:0:
412,205,166464,1,8,0:0:0:0:
430,199,166577,1,6,3:2:0:0:
307,140,166803,1,2,0:0:0:0:
440,343,167028,2,0,L|355:319,1,88,10|2,0:0|0:0,0:0:0:0:
426,107,167479,2,0,L|511:131,1,88,2|2,3:2|3:2,0:0:0:0:
389,210,167931,5,10,0:0:0:0:
241,80,168156,2,0,B|213:65|185:81|185:81|154:194,1,176,6|2,3:2|3:2,0:0:0:0:
105,363,168833,1,10,0:0:0:0:
247,223,169058,1,10,0:0:0:0:
90,269,169284,2,0,L|175:293,1,88,2|2,3:2|3:2,0:0:0:0:
271,325,169735,5,8,0:0:0:0:
153,194,169961,1,2,0:0:0:0:
331,111,170186,2,0,B|426:110|393:166|494:166,1,176,6|10,3:2|0:0,0:0:0:0:
478,70,170863,1,0,0:0:0:0:
345,207,171088,2,0,B|329:246|329:246|346:294,1,88,2|2,3:2|3:2,0:0:0:0:
404,367,171539,5,10,0:0:0:0:
259,169,171762,2,0,P|174:170|125:239,1,176,6|2,3:2|3:2,0:0:0:0:
237,316,172434,1,10,0:0:0:0:
228,284,172546,1,8,0:0:0:0:
219,252,172658,1,6,3:2:0:0:
64,45,173557,5,10,0:2:0:0:
57,67,173670,1,10,0:0:0:0:
51,89,173784,2,0,L|27:174,1,88,6|2,3:2|0:0,0:0:0:0:
139,369,174231,2,0,P|161:308|137:248,1,132,10|0,0:0|0:0,0:0:0:0:
124,238,174685,2,0,P|88:262|71:302,1,88,2|0,3:2|0:0,0:0:0:0:
232,370,175132,5,10,0:0:0:0:
306,303,175356,2,0,L|496:249,1,176,6|0,3:2|3:2,0:0:0:0:
496,151,176028,1,10,0:0:0:0:
317,207,176255,2,0,L|412:180,1,88,0|2,0:0|3:2,0:0:0:0:
496,151,176709,1,0,3:2:0:0:
333,116,176937,5,10,0:0:0:0:
306,303,177162,1,0,0:0:0:0:
284,299,177275,1,0,0:0:0:0:
264,289,177388,2,0,P|230:250|225:193,1,88,2|2,3:2|0:0,0:0:0:0:
292,33,177839,2,0,P|376:33|425:102,1,176,10|2,0:0|3:2,0:0:0:0:
306,303,178515,1,0,0:0:0:0:
309,200,178741,6,0,L|333:116,1,88,10|6,0:0|3:2,0:0:0:0:
208,332,179192,2,0,B|138:309|138:309|106:313|106:313|39:294,1,176,2|10,0:0|0:0,0:0:0:0:
211,229,179869,1,8,0:0:0:0:
158,143,180094,2,0,P|123:173|110:218,1,88,2|2,3:2|3:2,0:0:0:0:
306,303,180546,5,10,0:0:0:0:
396,252,180771,1,8,0:0:0:0:
411,236,180884,1,8,0:0:0:0:
423,218,180997,2,0,L|368:24,1,176,6|8,3:2|0:0,0:0:0:0:
495,106,181673,1,2,0:0:0:0:
308,199,181899,2,0,L|284:115,1,88,2|0,3:2|3:2,0:0:0:0:
255,21,182350,5,8,0:0:0:0:
211,229,182576,2,0,B|110:229|143:173|47:173,1,176,2|0,3:2|3:2,0:0:0:0:
135,336,183252,1,8,0:0:0:0:
37,353,183478,2,0,P|38:310|60:272,1,88,10|2,0:0|3:2,0:0:0:0:
197,135,183929,1,0,3:2:0:0:
291,95,184155,6,0,P|342:104|388:187,1,132,8|0,0:0|0:0,0:0:0:0:
382,186,184606,2,0,L|406:102,1,88,6|0,3:2|0:0,0:0:0:0:
238,265,185057,2,0,L|268:348,1,88,10|0,0:0|0:0,0:0:0:0:
307,117,185508,2,0,L|235:69,1,88,2|0,3:2|3:2,0:0:0:0:
339,278,185959,2,0,L|427:275,1,88,10|0,0:0|0:0,0:0:0:0:
217,166,186410,2,0,L|149:220,1,88,2|8,3:2|0:0,0:0:0:0:
301,205,186861,5,10,0:0:0:0:
301,205,186974,1,8,0:0:0:0:
301,205,187087,1,6,3:2:0:0:
36,345,187538,5,8,0:0:0:0:
103,273,187764,1,8,0:0:0:0:
115,245,187876,1,8,0:0:0:0:
118,214,187989,1,4,0:3:0:0:
110,185,188102,1,0,0:0:0:0:
91,160,188215,6,0,L|207:127,1,88,6|2,3:2|0:0,0:0:0:0:
306,0,188666,2,0,P|224:10|197:52,1,132,10|0,0:0|0:0,0:0:0:0:
198,46,189117,2,0,P|238:62|262:98,1,88,2|0,3:2|3:2,0:0:0:0:
177,287,189568,5,10,0:0:0:0:
355,209,189794,1,6,3:2:0:0:
249,192,190019,2,0,L|273:276,1,88,2|0,0:0|3:2,0:0:0:0:
369,115,190470,1,10,0:0:0:0:
175,135,190696,1,10,0:0:0:0:
366,305,190921,2,0,P|406:291|438:259,1,88,2|0,3:2|3:2,0:0:0:0:
175,135,191373,6,0,B|100:134|135:177|54:177,1,132,10|0,0:0|0:0,0:0:0:0:
38,177,191824,2,0,L|62:261,1,88,2|2,3:2|0:0,0:0:0:0:
59,85,192275,2,0,L|34:0,1,88,10|2,0:0|0:0,0:0:0:0:
178,223,192726,1,2,3:2:0:0:
343,57,192952,1,0,3:2:0:0:
268,3,193177,6,0,P|249:54|267:115,1,88,10|6,0:0|3:2,0:0:0:0:
467,213,193628,2,0,P|412:148|327:150,1,176,2|10,0:0|0:0,0:0:0:0:
289,379,194305,1,8,0:0:0:0:
351,314,194530,2,0,L|375:229,1,88,2|2,3:2|3:2,0:0:0:0:
236,179,194982,6,0,L|260:263,1,88,10|8,0:0|0:0,0:0:0:0:
253,286,195320,1,8,0:0:0:0:
242,304,195433,2,0,B|129:273|129:273|113:245|128:217,1,176,6|8,3:2|0:0,0:0:0:0:
274,70,196109,1,2,0:0:0:0:
80,88,196335,2,0,L|164:112,1,88,2|0,3:2|3:2,0:0:0:0:
236,179,196786,5,8,0:0:0:0:
343,2,197012,1,2,0:0:0:0:
274,70,197237,5,2,3:2:0:0:
332,145,197463,1,8,0:0:0:0:
190,16,197688,5,10,0:0:0:0:
236,179,197914,1,10,0:0:0:0:
405,76,198140,5,8,0:0:0:0:
493,125,198365,5,8,0:3:0:0:
512,201,198591,5,4,0:3:0:0:
512,201,206036,5,2,0:2:0:0:
506,222,206149,1,2,0:2:0:0:
500,243,206263,2,0,L|482:304,1,64.2400017644044,6|0,3:2|0:0,0:0:0:0:
266,245,206718,2,0,P|308:225|340:229,1,64.2400017644044,0|2,3:2|0:2,0:0:0:0:
398,279,207172,2,0,L|416:218,1,64.2400017644044,2|0,3:2|0:0,0:0:0:0:
485,0,207627,6,0,L|467:61,1,64.2400017644044,0|0,3:2|0:0,0:0:0:0:
479,146,208078,2,0,P|415:125|383:74,1,128.480003528809,0|0,3:2|3:2,0:0:0:0:
362,0,208754,1,0,0:0:0:0:
188,164,208980,2,0,L|321:124,1,128.480003528809,0|0,3:2|3:2,0:0:0:0:
295,48,209657,1,2,0:2:0:0:
205,242,209882,6,0,L|338:202,1,128.480003528809,6|2,3:2|3:2,0:0:0:0:
420,177,210559,1,10,0:2:0:0:
188,164,210784,1,0,3:2:0:0:
328,205,211010,5,10,0:0:0:0:
311,127,211236,1,2,3:2:0:0:
292,305,211459,5,10,0:0:0:0:
294,49,211683,1,12,0:0:0:0:
420,177,211907,1,8,0:0:0:0:
205,242,212131,5,8,0:0:0:0:
383,76,212355,1,8,0:0:0:0:
437,313,212579,1,8,0:0:0:0:
311,127,212803,5,8,0:0:0:0:
365,360,213027,1,8,0:0:0:0:
136,290,213254,1,8,0:0:0:0:
115,283,213367,1,8,0:0:0:0:
94,276,213481,6,0,P|69:231|84:143,1,132,4|0,3:2|0:0,0:0:0:0:
86,140,213936,2,0,L|0:114,1,88,10|2,0:0|0:0,0:0:0:0:
161,203,214390,1,2,3:2:0:0:
231,25,214617,1,0,3:2:0:0:
175,107,214845,5,10,0:0:0:0:
293,266,215070,1,6,3:2:0:0:
394,229,215296,2,0,P|315:160|233:176,1,176,2|10,0:0|0:0,0:0:0:0:
372,340,215972,1,10,0:0:0:0:
293,266,216198,2,0,L|267:351,1,88,0|2,3:2|3:2,0:0:0:0:
491,248,216649,6,0,L|465:163,1,88,10|2,0:0|0:0,0:0:0:0:
188,255,217100,2,0,B|87:255|120:311|25:310,2,176,2|10|2,3:2|0:0|3:2,0:0:0:0:
173,352,218228,1,2,3:2:0:0:
35,214,218454,5,10,0:0:0:0:
166,68,218679,1,6,3:2:0:0:
202,163,218905,2,0,P|117:156|66:88,1,176,2|10,0:0|0:0,0:0:0:0:
302,184,219581,1,10,0:0:0:0:
266,85,219807,2,0,L|240:0,1,88,0|2,3:2|3:2,0:0:0:0:
202,163,220258,6,0,L|176:248,1,88,10|10,0:0|0:0,0:0:0:0:
169,268,220596,1,8,0:0:0:0:
162,289,220709,2,0,P|247:296|298:364,1,176,6|10,3:2|0:0,0:0:0:0:
199,384,221386,1,2,0:0:0:0:
381,209,221611,2,0,P|385:252|369:293,1,88,2|0,3:2|3:2,0:0:0:0:
299,364,222063,5,10,0:0:0:0:
107,129,222288,1,6,3:2:0:0:
86,225,222514,2,0,B|174:225|154:169|248:169,1,176,2|10,0:0|0:0,0:0:0:0:
236,269,223190,1,10,0:0:0:0:
107,129,223416,2,0,L|81:44,1,88,0|2,3:2|3:2,0:0:0:0:
30,303,223867,5,10,0:0:0:0:
86,225,224093,1,2,0:0:0:0:
236,269,224318,2,0,L|321:243,1,88,2|0,3:2|0:0,0:0:0:0:
489,63,224769,2,0,P|404:70|353:138,1,176,10|2,0:0|3:2,0:0:0:0:
423,218,225446,1,2,3:2:0:0:
253,162,225672,5,10,0:0:0:0:
149,342,225899,2,0,B|115:229|115:229|130:201|162:199,1,176,6|10,3:2|0:0,0:0:0:0:
320,243,226581,5,2,3:2:0:0:
352,138,226808,1,10,0:0:0:0:
423,218,227035,5,0,3:2:0:0:
253,162,227262,1,10,0:0:0:0:
512,182,227490,5,10,0:0:0:0:
162,199,227712,1,10,0:0:0:0:
371,379,227934,6,0,L|389:317,2,64.2400017644044,2|0|2,0:2|0:0|0:2,0:0:0:0:
342,239,228601,1,0,0:0:0:0:
148,342,228823,2,0,P|101:344|64:326,1,64.2400017644044,2|0,0:2|0:0,0:0:0:0:
24,266,229267,5,2,0:2:0:0:
83,123,229494,2,0,L|119:247,1,128.480003528809,2|2,0:2|0:2,0:0:0:0:
185,131,230176,2,0,L|205:202,1,64.2400017644044,2|0,0:2|0:0,0:0:0:0:
141,42,230630,5,2,0:2:0:0:
185,131,230857,1,2,0:2:0:0:
283,146,231085,1,2,0:2:0:0:
449,273,231536,6,0,L|466:211,2,64.2400017644044,2|0|2,0:2|0:0|0:2,0:0:0:0:
419,367,232212,1,0,0:0:0:0:
240,252,232438,2,0,P|312:257|357:302,1,128.480003528809,2|2,0:2|0:2,0:0:0:0:
7,288,233112,6,0,P|79:283|124:238,1,128.480003528809,2|2,0:2|0:2,0:0:0:0:
176,73,233784,1,2,0:2:0:0:
118,150,234008,2,0,L|179:167,2,64.2400017644044,2|2|0,0:2|0:2|0:0,0:0:0:0:
30,123,234680,1,2,0:2:0:0:
240,252,235124,6,0,P|269:203|257:111,1,146.080002117554,2|2,0:2|0:2,0:0:0:0:
353,79,235807,2,0,P|380:128|466:164,1,146.080002117554
410,359,236494,5,2,0:2:0:0:
446,263,236719,2,0,P|389:262|315:318,1,146.080002117554,2|2,0:2|0:2,0:0:0:0:
244,381,237396,1,0,0:0:0:0:
101,303,237621,2,0,L|181:326,2,73.0400010587769,2|2|2,0:2|0:2|0:2,0:0:0:0:
11,270,238298,5,0,0:0:0:0:
31,348,238524,1,2,0:2:0:0:
78,225,238749,2,0,P|78:168|22:94,1,146.080002117554,2|2,0:2|0:2,0:0:0:0:
226,34,239426,1,0,0:0:0:0:
133,37,239651,2,0,P|140:72|159:103,1,73.0400010587769,2|0,0:2|0:0,0:0:0:0:
345,190,240103,5,2,0:2:0:0:
393,89,240325,2,0,L|252:129,1,146.080002117554,2|2,0:2|0:2,0:0:0:0:
184,196,240991,1,2,0:2:0:0:
421,221,241214,6,0,B|435:206|447:177|447:177|459:198|444:235|413:255|445:239|453:269|493:276|493:276|477:293|435:289|410:266|432:293|410:309|416:349|416:349|394:339|381:300|399:266|377:296|358:278|323:297|323:297|325:272|358:247|396:253|359:241|373:220|343:190|343:190|368:185|371:194|371:194|377:192|377:192|382:197|382:197|387:195|387:195|389:202|389:202|391:196|391:196|398:206|398:206|403:214,1,667.91999796167,2|0,0:2|0:0,0:0:0:0:
