osu file format v14

[General]
AudioFilename: audio.mp3
AudioLeadIn: 0
PreviewTime: 51552
Countdown: 0
SampleSet: Soft
StackLeniency: 0.7
Mode: 0
LetterboxInBreaks: 0
WidescreenStoryboard: 0

[Editor]
DistanceSpacing: 1.5
BeatDivisor: 4
GridSize: 32
TimelineZoom: 2.2

[Metadata]
Title:One Step Ahead
TitleUnicode:One Step Ahead
Artist:Ito Kashitaro
ArtistUnicode:伊東歌詞太郎
Creator:Nikakis
Version:Move Forward!
Source:
Tags:Ichii Senshin Hayashi Kei IA Vocaloid utaite 一意専心 ハヤシケイ bossandy yahuri kyle_y darksonic
BeatmapID:1604315
BeatmapSetID:763116

[Difficulty]
HPDrainRate:6.5
CircleSize:4
OverallDifficulty:9
ApproachRate:9.2
SliderMultiplier:1.8
SliderTickRate:1

[Events]
//Background and Video events
0,0,"lalala.jpg",0,0
//Break Periods
//Storyboard Layer 0 (Background)
//Storyboard Layer 1 (Fail)
//Storyboard Layer 2 (Pass)
//Storyboard Layer 3 (Foreground)
//Storyboard Sound Samples

[TimingPoints]
-625,322.58064516129,4,2,1,50,1,0
10342,-117.647058823529,4,2,1,50,0,0
13810,-117.647058823529,4,2,1,5,0,0
13891,-117.647058823529,4,2,1,50,0,0
14939,-117.647058823529,4,2,1,5,0,0
15020,-117.647058823529,4,2,1,50,0,0
20100,-117.647058823529,4,2,1,5,0,0
20181,-117.647058823529,4,2,1,50,0,0
21068,-117.647058823529,4,2,1,5,0,0
21149,-100,4,2,1,50,0,0
31633,-133.333333333333,4,2,1,65,0,0
47116,-117.647058823529,4,2,1,65,0,0
51794,-153.846153846153,4,2,1,65,0,0
52116,-100,4,2,1,75,0,1
60987,-100,4,2,1,75,0,0
62439,-100,4,2,1,75,0,1
71471,-100,4,2,1,75,0,0
100826,-100,4,2,1,5,0,0
100987,-100,4,2,1,75,0,0

[Colours]
Combo1 : 187,94,0
Combo2 : 255,0,0
Combo3 : 96,128,0
Combo4 : 255,255,128

[HitObjects]
412,329,10342,6,0,L|403:253,1,76.5000014591217
317,374,10664,1,0,0:0:0:0:
348,178,10826,2,0,B|406:126|476:164|485:210|485:210|496:298,1,229.500004377365,6|0,0:0|0:0,0:0:0:0:
418,352,11471,1,0,0:0:0:0:
327,247,11633,2,0,P|329:206|354:172,1,76.5000014591217
402,232,11955,1,0,0:0:0:0:
230,147,12116,6,0,P|134:203|126:315,1,229.500004377365
248,367,12762,1,0,0:0:0:0:
284,250,12923,2,0,L|202:255,1,76.5000014591217
353,315,13245,1,8,0:0:0:0:
276,151,13407,6,0,L|61:167,1,191.250003647804,8|0,0:0|0:0,0:0:0:0:
54,167,13891,1,0,0:0:0:0:
133,11,14052,2,0,L|147:102,1,76.5000014591217
276,151,14374,2,0,L|262:242,1,76.5000014591217
345,96,14697,6,0,P|279:67|224:78,1,114.750002188683
208,88,15020,1,0,0:0:0:0:
364,177,15181,2,0,P|398:162|421:132,1,76.5000014591217
342,5,15504,1,0,0:0:0:0:
345,96,15665,1,0,0:0:0:0:
459,55,15826,1,8,0:0:0:0:
427,259,15987,6,0,P|346:271|261:159,1,229.500004377365,6|0,0:0|0:0,0:0:0:0:
304,12,16633,1,0,0:0:0:0:
364,177,16794,1,0,0:0:0:0:
210,88,16955,2,0,P|180:111|167:146,1,76.5000014591217
168,321,17278,6,0,L|402:299,1,229.500004377365
478,200,17923,1,0,0:0:0:0:
444,357,18084,1,0,0:0:0:0:
368,220,18245,2,0,L|360:131,1,76.5000014591217
223,17,18568,6,0,B|155:23|155:23|52:59,1,153.000002918243,2|0,0:0|0:0,0:0:0:0:
40,185,19052,1,0,0:0:0:0:
173,99,19213,2,0,P|207:114|228:146,1,76.5000014591217
202,285,19536,2,0,P|167:269|146:237,1,76.5000014591217
239,31,19858,6,0,L|225:174,1,114.750002188683,2|0,0:0|0:0,0:0:0:0:
224,180,20181,1,8,0:0:0:0:
355,138,20342,1,8,0:0:0:0:
202,285,20504,1,8,0:0:0:0:
239,31,20665,1,8,0:0:0:0:
330,328,20826,2,0,P|262:359|217:348,1,114.750002188683,8|0,0:0|0:0,0:0:0:0:
244,147,21149,6,0,L|264:286,1,135,6|0,0:0|0:0,0:0:0:0:
270,316,21471,1,8,0:3:0:0:
329,165,21633,2,0,P|280:144|239:149,1,90,2|0,0:0|0:0,0:0:0:0:
128,279,21955,2,0,L|136:180,1,90,2|0,0:0|0:0,0:0:0:0:
138,162,22197,1,8,0:3:0:0:
140,134,22278,1,2,0:0:0:0:
208,28,22439,1,8,0:3:0:0:
329,165,22600,6,0,L|337:255,1,90,2|8,0:0|0:3,0:0:0:0:
229,127,22923,2,0,L|139:134,1,90,2|0,0:0|0:0,0:0:0:0:
320,40,23245,2,0,L|417:32,1,90,2|0,0:0|0:0,0:0:0:0:
438,30,23487,1,8,0:3:0:0:
466,28,23568,1,2,0:0:0:0:
440,169,23729,1,8,0:3:0:0:
320,40,23891,6,0,P|281:20|236:21,1,90,2|8,0:0|0:3,0:0:0:0:
139,133,24213,1,2,0:0:0:0:
271,264,24374,2,0,P|291:225|287:178,1,90,0|2,0:0|0:0,0:0:0:0:
139,133,24697,2,0,L|142:181,1,45,0|8,0:0|0:3,0:0:0:0:
146,261,24858,1,2,0:0:0:0:
287,180,25020,6,0,L|282:90,1,90,8|2,0:3|0:0,0:0:0:0:
373,135,25342,1,8,0:3:0:0:
326,321,25504,2,0,P|286:341|242:336,1,90,2|0,0:0|0:0,0:0:0:0:
213,247,25826,1,8,0:3:0:0:
69,179,25987,2,0,L|81:315,1,135
85,347,26310,1,8,0:3:0:0:
144,188,26471,6,0,P|136:144|107:112,1,90,2|8,0:0|0:3,0:0:0:0:
0,207,26794,1,2,0:0:0:0:
90,38,26955,2,0,P|133:41|175:74,1,90,0|2,0:3|0:0,0:0:0:0:
164,228,27278,2,0,L|143:187,1,45,0|8,0:0|0:3,0:0:0:0:
106,111,27439,1,2,0:0:0:0:
79,274,27600,1,8,0:3:0:0:
231,180,27762,6,0,P|255:142|256:98,1,90,2|8,0:0|0:3,0:0:0:0:
90,38,28084,2,0,L|-3:46,1,90,2|0,0:0|0:0,0:0:0:0:
141,188,28407,2,0,L|230:180,1,90,2|0,0:0|0:0,0:0:0:0:
259,177,28649,1,8,0:3:0:0:
287,175,28729,1,2,0:0:0:0:
178,99,28891,1,8,0:3:0:0:
264,251,29052,6,0,P|308:249|345:225,1,90,2|8,0:0|0:3,0:0:0:0:
422,137,29374,1,2,0:0:0:0:
387,298,29536,2,0,P|387:342|412:382,1,90,0|2,0:3|0:0,0:0:0:0:
510,319,29858,2,0,L|489:278,1,45,0|8,0:0|0:3,0:0:0:0:
452,204,30020,1,2,0:0:0:0:
292,314,30181,6,0,L|202:323,1,90,8|2,0:3|0:0,0:0:0:0:
85,253,30504,1,8,0:3:0:0:
218,136,30665,1,2,0:0:0:0:
202,322,30826,1,8,0:3:0:0:
126,167,30987,6,8,L|119:108,1,45
218,136,31149,2,8,L|262:131,1,44.0999995962524
249,227,31310,2,8,L|256:286,1,45
157,258,31471,2,8,L|113:263,1,45
126,167,31633,6,0,L|107:9,1,135.000005149842,6|0,0:0|0:0,0:0:0:0:
39,104,32116,1,2,0:0:0:0:
196,91,32278,2,0,L|291:82,1,67.5000025749208,8|0,0:0|0:0,0:0:0:0:
220,0,32600,1,0,0:0:0:0:
220,171,32762,6,0,P|265:203|292:205,1,67.5000025749208,2|0,0:0|0:0,0:0:0:0:
410,151,33084,1,8,0:0:0:0:
353,292,33245,2,0,P|308:324|281:326,1,67.5000025749208,2|2,0:0|0:0,0:0:0:0:
275,204,33568,2,0,L|284:103,1,101.250003862381,8|0,0:0|0:0,0:0:0:0:
292,18,33891,2,0,B|348:11|348:11|395:32,1,101.250003862381,2|0,0:0|0:0,0:0:0:0:
461,65,34213,6,0,P|477:123|418:138,1,135.000005149842,2|0,0:0|0:0,0:0:0:0:
284,103,34697,1,2,0:0:0:0:
406,273,34858,2,0,L|419:124,1,135.000005149842,8|0,0:0|0:0,0:0:0:0:
284,103,35342,2,0,L|216:108,1,67.5000025749208,2|0,0:0|0:0,0:0:0:0:
296,189,35665,1,8,0:0:0:0:
240,20,35826,2,0,L|172:25,1,67.5000025749208,2|2,0:0|0:0,0:0:0:0:
60,86,36149,2,0,L|67:212,1,101.250003862381,8|0,0:0|0:0,0:0:0:0:
71,288,36471,2,0,L|65:186,1,101.250003862381,8|0,0:0|0:0,0:0:0:0:
12,338,36794,6,0,P|81:365|141:322,1,135.000005149842,6|0,0:0|0:0,0:0:0:0:
221,253,37278,1,2,0:0:0:0:
133,147,37439,2,0,L|65:151,1,67.5000025749208,8|0,0:0|0:0,0:0:0:0:
109,237,37762,1,0,0:0:0:0:
206,42,37923,6,0,L|216:164,1,101.250003862381,2|0,0:0|0:0,0:0:0:0:
217,176,38245,1,8,0:0:0:0:
285,74,38407,2,0,P|292:54|350:24,1,67.5000025749208,2|2,0:0|0:0,0:0:0:0:
373,150,38729,2,0,L|338:245,1,101.250003862381,8|0,0:0|0:0,0:0:0:0:
309,321,39052,2,0,B|257:315|257:315|215:286,1,101.250003862381,2|0,0:0|0:0,0:0:0:0:
156,235,39374,6,0,P|155:174|216:175,1,135.000005149842,2|0,0:0|0:0,0:0:0:0:
338,245,39858,1,2,0:0:0:0:
231,99,40020,2,0,P|191:89|98:128,1,135.000005149842,8|0,0:0|0:0,0:0:0:0:
172,259,40504,2,0,L|239:265,1,67.5000025749208,2|0,0:0|0:0,0:0:0:0:
183,170,40826,1,8,0:0:0:0:
200,348,40987,2,0,L|267:354,1,67.5000025749208,2|2,0:0|0:0,0:0:0:0:
380,285,41310,1,8,0:0:0:0:
302,142,41471,2,0,P|251:106|256:192,1,168.750006437302,2|0,0:0|0:0,0:0:0:0:
292,66,41955,6,0,P|249:61|179:166,1,168.750006437302,6|0,0:0|0:0,0:0:0:0:
177,181,42439,1,2,0:0:0:0:
254,304,42600,2,0,L|332:358,1,67.5000025749208,8|0,0:0|0:0,0:0:0:0:
334,240,42923,1,0,0:0:0:0:
187,346,43084,6,0,L|108:400,1,67.5000025749208,2|0,0:0|0:0,0:0:0:0:
23,307,43407,1,8,0:0:0:0:
126,234,43568,2,0,L|218:241,1,67.5000025749208,2|2,0:0|0:0,0:0:0:0:
297,135,43891,2,0,L|399:129,1,101.250003862381,8|0,0:0|0:0,0:0:0:0:
397,40,44213,2,0,L|295:33,1,101.250003862381,2|0,0:0|0:0,0:0:0:0:
208,25,44536,6,0,P|188:66|210:158,1,135.000005149842,2|0,0:0|0:0,0:0:0:0:
324,182,45020,1,2,0:0:0:0:
230,365,45181,2,0,L|81:378,1,135.000005149842,8|0,0:0|0:0,0:0:0:0:
42,256,45665,2,0,L|109:249,1,67.5000025749208,2|0,0:0|0:0,0:0:0:0:
301,227,45987,5,8,0:0:0:0:
152,113,46149,2,0,L|158:180,1,67.5000025749208,2|2,0:0|0:0,0:0:0:0:
301,227,46471,2,0,L|308:160,1,67.5000025749208,8|0,0:0|0:0,0:0:0:0:
180,32,46794,1,8,0:0:0:0:
155,20,46874,1,8,0:0:0:0:
129,15,46955,1,8,0:0:0:0:
102,17,47036,1,8,0:0:0:0:
76,25,47116,6,0,L|67:101,1,76.5000014591217,14|0,0:0|0:0,0:0:0:0:
211,203,47439,2,0,L|220:127,1,76.5000014591217,8|0,0:0|0:0,0:0:0:0:
225,51,47762,1,2,0:0:0:0:
133,180,47923,1,2,0:0:0:0:
291,199,48084,2,0,P|336:194|375:156,1,76.5000014591217,8|0,0:0|0:0,0:0:0:0:
304,123,48407,5,2,0:0:0:0:
338,275,48568,1,0,0:0:0:0:
449,174,48729,2,0,P|479:139|476:86,1,76.5000014591217,8|0,0:0|0:0,0:0:0:0:
290,47,49052,2,0,L|303:122,1,76.5000014591217,2|2,0:0|0:0,0:0:0:0:
437,250,49374,2,0,L|449:175,1,76.5000014591217,8|0,0:0|0:0,0:0:0:0:
303,122,49697,6,0,P|249:112|216:131,1,76.5000014591217,6|0,0:0|0:0,0:0:0:0:
195,252,50020,2,0,L|208:327,1,76.5000014591217,8|0,0:0|0:0,0:0:0:0:
18,173,50342,2,0,L|43:22,1,153.000002918243,2|8,0:0|0:0,0:0:0:0:
220,11,50826,2,0,P|272:25|292:57,1,76.5000014591217,2|0,0:0|0:0,0:0:0:0:
347,176,51068,1,8,0:0:0:0:
347,176,51149,2,8,L|350:138,1,38.2500007295609
359,29,51310,1,8,0:0:0:0:
340,253,51633,5,0,0:0:0:0:
242,127,51794,2,0,P|197:120|155:140,1,87.749995983124
219,284,52116,6,0,L|207:187,1,90,6|0,0:0|0:0,0:0:0:0:
196,47,52439,1,2,0:0:0:0:
125,235,52600,1,8,0:0:0:0:
221,120,52762,1,0,0:0:0:0:
296,312,52923,1,2,0:0:0:0:
144,152,53084,1,2,0:0:0:0:
94,373,53245,1,8,0:0:0:0:
304,192,53407,6,0,L|394:186,1,90,2|0,0:0|0:0,0:0:0:0:
113,66,53729,2,0,L|23:60,1,90,2|8,0:0|0:0,0:0:0:0:
0,185,54052,1,0,0:0:0:0:
113,66,54213,1,2,0:0:0:0:
105,283,54374,2,0,P|69:323|-1:319,1,90,2|8,0:0|0:0,0:0:0:0:
240,155,54697,6,0,L|330:149,1,90,2|0,0:0|0:0,0:0:0:0:
442,287,55020,1,2,0:0:0:0:
365,86,55181,1,8,0:0:0:0:
292,235,55342,1,0,0:0:0:0:
430,46,55504,2,0,P|401:17|351:12,1,90,2|2,0:0|0:0,0:0:0:0:
232,107,55826,1,8,0:0:0:0:
423,233,55987,6,0,L|513:227,1,90,2|0,0:0|0:0,0:0:0:0:
232,107,56310,2,0,L|142:101,1,90,2|8,0:0|0:0,0:0:0:0:
65,202,56633,1,0,0:0:0:0:
195,26,56794,1,2,0:0:0:0:
148,219,56955,2,0,P|104:224|65:202,1,90,2|8,0:0|0:0,0:0:0:0:
267,80,57278,6,0,L|245:213,1,135,6|0,0:0|0:0,0:0:0:0:
239,248,57600,1,2,0:0:0:0:
189,54,57762,1,8,0:0:0:0:
143,228,57923,1,0,0:0:0:0:
353,206,58084,1,2,0:0:0:0:
111,230,58245,2,0,L|21:236,1,90,2|8,0:0|0:0,0:0:0:0:
236,384,58568,6,0,L|326:378,1,90,2|0,0:0|0:0,0:0:0:0:
460,223,58891,2,0,P|461:181|436:132,1,90,2|8,0:0|0:0,0:0:0:0:
247,15,59213,2,0,L|157:21,1,90,0|2,0:0|0:0,0:0:0:0:
281,184,59536,2,0,L|371:190,1,90,2|8,0:0|0:0,0:0:0:0:
138,158,59858,6,0,P|137:200|162:249,1,90,2|0,0:0|0:0,0:0:0:0:
370,189,60181,1,2,0:0:0:0:
191,363,60342,2,0,L|-14:351,1,180,8|2,0:0|0:0,0:0:0:0:
138,158,60826,1,8,0:0:0:0:
103,357,60987,1,8,0:0:0:0:
308,344,61149,6,0,P|340:272|310:215,1,135,2|0,0:0|0:0,0:0:0:0:
364,340,61471,2,0,P|381:275|368:232,1,90,2|8,0:0|0:0,0:0:0:0:
181,91,61794,6,0,P|103:78|55:122,1,135,2|0,0:0|0:0,0:0:0:0:
156,34,62116,2,0,P|94:36|53:63,1,90,2|8,0:0|0:0,0:0:0:0:
46,76,62358,1,8,0:0:0:0:
62,110,62439,6,0,P|97:145|171:139,1,90,6|0,0:0|0:0,0:0:0:0:
282,67,62762,1,2,0:0:0:0:
171,249,62923,1,8,0:0:0:0:
186,37,63084,1,0,0:0:0:0:
298,272,63245,2,0,L|388:266,1,90,2|2,0:0|0:0,0:0:0:0:
325,128,63568,1,8,0:0:0:0:
107,256,63729,6,0,L|17:250,1,90,2|0,0:0|0:0,0:0:0:0:
235,133,64052,2,0,L|325:127,1,90,2|8,0:0|0:0,0:0:0:0:
435,22,64374,1,0,0:0:0:0:
334,208,64536,1,2,0:0:0:0:
155,44,64697,2,0,L|35:35,1,90,2|8,0:0|0:0,0:0:0:0:
256,102,65020,6,0,P|278:57|268:9,1,90,2|0,0:0|0:0,0:0:0:0:
66,38,65342,1,2,0:0:0:0:
186,216,65504,1,8,0:0:0:0:
201,47,65665,1,0,0:0:0:0:
88,268,65826,1,2,0:0:0:0:
66,38,65987,1,2,0:0:0:0:
160,303,66149,1,8,0:0:0:0:
283,90,66310,6,0,L|277:0,1,90,2|0,0:0|0:0,0:0:0:0:
165,213,66633,2,0,L|159:303,1,90,2|8,0:0|0:0,0:0:0:0:
58,116,66955,1,0,0:0:0:0:
234,310,67116,1,10,0:0:0:0:
269,323,67197,1,8,0:0:0:0:
307,328,67278,1,8,0:0:0:0:
345,325,67358,1,8,0:0:0:0:
382,314,67439,1,8,0:0:0:0:
415,296,67520,1,8,0:0:0:0:
444,271,67600,6,0,P|460:224|436:164,1,90,6|0,0:0|0:0,0:0:0:0:
312,98,67923,1,2,0:0:0:0:
345,325,68084,5,8,0:0:0:0:
185,183,68245,1,2,0:0:0:0:
451,185,68407,5,8,0:0:0:0:
157,154,68568,1,2,0:0:0:0:
371,351,68729,1,8,0:0:0:0:
125,128,68891,6,0,L|35:115,1,90,4|0,0:0|0:0,0:0:0:0:
210,263,69213,1,2,0:0:0:0:
94,44,69374,5,8,0:0:0:0:
52,290,69536,1,2,0:0:0:0:
98,6,69697,5,8,0:0:0:0:
166,346,69858,1,2,0:0:0:0:
0,84,70020,1,8,0:0:0:0:
192,373,70181,6,0,P|234:380|277:365,1,90,6|0,0:0|0:0,0:0:0:0:
361,240,70504,1,2,0:0:0:0:
68,298,70665,5,8,0:0:0:0:
389,350,70826,1,2,0:0:0:0:
119,120,70987,5,8,0:0:0:0:
313,310,71149,2,0,P|347:282|360:240,1,90,2|0,0:0|0:0,0:0:0:0:
156,39,71471,6,0,P|46:63|159:202,1,360,4|0,0:0|0:0,0:0:0:0:
376,155,72278,1,8,0:0:0:0:
119,120,72439,1,8,0:0:0:0:
256,192,72762,12,0,74052,0:0:0:0:
119,126,74213,6,0,L|125:171,1,45
99,48,74374,2,0,P|121:45|143:51,1,45
225,214,74536,2,0,L|231:259,1,45
205,136,74697,2,0,P|227:133|249:139,1,45
140,297,74858,2,0,L|134:252,1,45
330,247,75020,2,0,L|324:202,1,45
119,126,75181,2,0,L|124:170,1,45,8|0,0:0|0:0,0:0:0:0:
257,358,75342,6,0,L|452:341,1,180,6|2,0:0|0:0,0:0:0:0:
445,151,75826,1,8,0:0:0:0:
334,270,75987,1,0,0:0:0:0:
512,308,76149,1,2,0:0:0:0:
334,145,76310,1,2,0:0:0:0:
368,348,76471,1,8,0:0:0:0:
235,148,76633,6,0,L|225:44,1,90,2|0,0:0|0:0,0:0:0:0:
445,151,76955,2,0,L|453:240,1,90,2|8,0:0|0:0,0:0:0:0:
275,229,77278,2,0,L|208:225,1,45
333,178,77439,2,0,P|353:218|345:262,1,90,2|2,0:0|0:0,0:0:0:0:
257,338,77762,1,8,0:0:0:0:
134,180,77923,6,0,P|128:108|208:25,1,180,6|2,0:0|0:0,0:0:0:0:
357,53,78407,1,8,0:0:0:0:
194,29,78568,1,0,0:0:0:0:
277,200,78729,1,2,0:0:0:0:
134,180,78891,1,2,0:0:0:0:
272,346,79052,1,8,0:0:0:0:
134,180,79213,6,0,L|124:76,1,90,2|0,0:0|0:0,0:0:0:0:
264,257,79536,2,0,L|272:346,1,90,2|8,0:0|0:0,0:0:0:0:
138,224,79858,2,0,L|133:177,1,45
169,294,80020,2,0,P|125:302|86:283,1,90,2|2,0:0|0:0,0:0:0:0:
17,166,80342,1,8,0:0:0:0:
60,384,80504,6,0,L|255:367,1,180,6|2,0:0|0:0,0:0:0:0:
366,258,80987,1,8,0:0:0:0:
191,209,81149,1,0,0:0:0:0:
239,368,81310,1,2,0:0:0:0:
287,182,81471,1,2,0:0:0:0:
391,384,81633,1,8,0:0:0:0:
473,184,81794,6,0,P|476:128|438:81,1,90,2|0,0:0|0:0,0:0:0:0:
287,182,82116,2,0,P|284:238|322:285,1,90,2|8,0:0|0:0,0:0:0:0:
314,107,82439,2,0,P|258:104|211:142,1,90,0|2,0:0|0:0,0:0:0:0:
299,266,82762,2,0,P|355:269|402:231,1,90,2|8,0:0|0:0,0:0:0:0:
333,32,83084,6,0,P|278:25|162:77,1,180,2|2,0:0|0:0,0:0:0:0:
132,306,83568,2,0,P|220:308|298:265,1,180,8|2,0:0|0:0,0:0:0:0:
292,123,84052,1,8,0:0:0:0:
326,338,84213,1,8,0:0:0:0:
189,197,84374,6,0,P|183:163|302:135,1,180,2|2,0:0|0:0,0:0:0:0:
369,232,84858,1,8,0:0:0:0:
189,197,85020,1,2,0:0:0:0:
408,236,85181,1,0,0:0:0:0:
160,286,85342,1,2,0:0:0:0:
438,239,85504,2,8,L|432:194,1,45
410,29,85665,6,0,P|334:0|250:53,1,180,6|2,0:0|0:0,0:0:0:0:
331,174,86149,2,0,L|340:53,1,90,8|0,0:0|0:0,0:0:0:0:
231,121,86471,1,2,0:0:0:0:
414,177,86633,1,2,0:0:0:0:
343,8,86794,1,8,0:0:0:0:
253,199,86955,6,0,P|236:268|307:345,1,180,2|2,0:0|0:0,0:0:0:0:
306,145,87439,2,0,L|178:154,1,90,8|0,0:0|0:0,0:0:0:0:
64,131,87762,1,2,0:0:0:0:
135,266,87922,1,2,0:0:0:0:
177,65,88084,1,8,0:0:0:0:
125,354,88245,6,0,P|182:340|201:209,1,180,6|2,0:0|0:0,0:0:0:0:
177,65,88729,2,0,L|77:76,1,90,8|0,0:0|0:0,0:0:0:0:
285,17,89052,2,0,P|300:59|290:103,1,90,2|2,0:0|0:0,0:0:0:0:
177,65,89374,1,8,0:0:0:0:
325,199,89536,6,0,L|425:210,1,90,2|0,0:0|0:0,0:0:0:0:
302,353,89858,2,0,L|212:362,1,90,2|8,0:0|0:0,0:0:0:0:
91,254,90181,2,0,P|73:187|99:143,1,90,0|8,0:0|0:0,0:0:0:0:
95,135,90423,1,8,0:0:0:0:
118,105,90504,1,8,0:0:0:0:
149,82,90584,1,8,0:0:0:0:
185,70,90665,1,8,0:0:0:0:
223,67,90745,1,8,0:0:0:0:
260,76,90826,6,0,P|277:126|192:203,1,180,4|2,0:0|0:0,0:0:0:0:
64,35,91310,1,8,0:0:0:0:
79,265,91471,1,2,0:0:0:0:
172,11,91633,1,8,0:0:0:0:
207,282,91794,1,2,0:0:0:0:
4,138,91955,1,8,0:0:0:0:
167,352,92116,6,0,P|222:363|288:264,1,180,4|2,0:0|0:0,0:0:0:0:
274,44,92600,1,8,0:0:0:0:
289,274,92762,1,2,0:0:0:0:
382,20,92923,1,8,0:0:0:0:
417,291,93084,1,2,0:0:0:0:
170,217,93245,1,8,0:0:0:0:
454,371,93407,6,0,P|497:326|463:218,1,180,4|2,0:0|0:0,0:0:0:0:
268,102,93891,1,8,0:0:0:0:
417,291,94052,1,2,0:0:0:0:
369,11,94213,1,8,0:0:0:0:
233,301,94374,1,10,0:0:0:0:
210,270,94455,1,8,0:0:0:0:
198,234,94536,1,8,0:0:0:0:
195,196,94616,1,8,0:0:0:0:
204,159,94697,6,0,B|288:182|326:111|326:111|355:128|355:128|379:106|379:106|384:162|384:162|443:228|380:302,1,405,4|0,0:0|0:0,0:0:0:0:
370,313,95504,1,8,0:0:0:0:
131,210,95665,1,8,0:0:0:0:
482,14,95987,5,6,0:0:0:0:
256,192,96068,12,0,100826,0:0:0:0:
144,51,100987,5,8,0:0:0:0:
255,327,101149,1,8,0:0:0:0:
