osu file format v14

[General]
AudioFilename: audio.mp3
AudioLeadIn: 0
PreviewTime: 51552
Countdown: 0
SampleSet: Soft
StackLeniency: 0.7
Mode: 0
LetterboxInBreaks: 0
WidescreenStoryboard: 1

[Editor]
DistanceSpacing: 1.5
BeatDivisor: 4
GridSize: 4
TimelineZoom: 1.8

[Metadata]
Title:One Step Ahead
TitleUnicode:One Step Ahead
Artist:Ito Kashitaro
ArtistUnicode:伊東歌詞太郎
Creator:Nikakis
Version:DS' Insane
Source:
Tags:Ichii Senshin Hayashi Kei IA Vocaloid utaite 一意専心 ハヤシケイ bossandy yahuri kyle_y darksonic
BeatmapID:1621592
BeatmapSetID:763116

[Difficulty]
HPDrainRate:6
CircleSize:4
OverallDifficulty:8
ApproachRate:9
SliderMultiplier:1.7
SliderTickRate:1

[Events]
//Background and Video events
0,0,"lalala.jpg",0,0
//Break Periods
//Storyboard Layer 0 (Background)
//Storyboard Layer 1 (Fail)
//Storyboard Layer 2 (Pass)
//Storyboard Layer 3 (Foreground)
//Storyboard Sound Samples

[TimingPoints]
-625,322.58064516129,4,2,1,50,1,0
10342,-125,4,2,1,50,0,0
21068,-125,4,2,1,5,0,0
21139,-100,4,2,1,65,0,0
31633,-133.333333333333,4,2,1,65,0,0
47116,-117.647058823529,4,2,1,68,0,0
51633,-200,4,2,1,30,0,0
52116,-100,4,2,1,65,0,1
60987,-100,4,2,1,65,0,0
62439,-100,4,2,1,65,0,1
71471,-200,4,2,1,65,0,0
72762,-100,4,2,1,30,0,0
74213,-100,4,2,1,35,0,0
74374,-100,4,2,1,40,0,0
74536,-100,4,2,1,45,0,0
74697,-100,4,2,1,50,0,0
74858,-100,4,2,1,55,0,0
75020,-100,4,2,1,60,0,0
75181,-100,4,2,1,65,0,0
94697,-200,4,2,1,65,0,0
95342,-200,4,2,1,30,0,0
95504,-200,4,2,1,65,0,0
100826,-100,4,2,1,5,0,0
100987,-100,4,2,1,65,0,0

[Colours]
Combo1 : 187,94,0
Combo2 : 255,0,0
Combo3 : 96,128,0
Combo4 : 255,255,128

[HitObjects]
132,228,10342,5,0,0:0:0:0:
204,320,10504,2,0,L|271:327,1,68
79,160,10826,6,0,P|48:218|64:283,1,136,6|0,0:0|0:0,0:0:0:0:
132,328,11310,1,2,0:0:0:0:
160,183,11471,2,0,P|159:150|149:117,1,68
109,47,11794,1,0,0:0:0:0:
109,47,12116,6,0,B|152:32|188:48|188:48|212:64|241:50,1,136
288,120,12600,2,0,L|353:102,1,68,2|0,0:0|0:0,0:0:0:0:
436,100,12923,1,0,0:0:0:0:
456,224,13084,1,0,0:0:0:0:
336,184,13245,1,10,0:0:0:0:
343,20,13407,6,0,P|406:40|436:100,1,136,10|0,0:0|0:0,0:0:0:0:
312,100,13891,1,2,0:0:0:0:
312,100,14052,2,0,P|279:101|245:94,1,68
104,144,14374,2,0,P|137:142|171:149,1,68,0|2,0:0|0:0,0:0:0:0:
316,288,14697,6,0,P|272:237|269:170,1,136
311,100,15181,1,2,0:0:0:0:
311,100,15503,5,0,0:0:0:0:
311,100,15665,2,0,P|344:109|373:126,1,68
216,333,15987,6,0,B|152:320|152:264|152:264|176:214|131:161,1,204,6|2,0:0|0:0,0:0:0:0:
88,72,16633,1,0,0:0:0:0:
28,194,16794,2,0,P|51:219|84:228,2,68,0|0|2,0:0|0:0|0:0,0:0:0:0:
243,234,17278,6,0,P|203:181|138:170,1,136
80,228,17762,1,2,0:0:0:0:
208,320,17923,1,0,0:0:0:0:
208,320,18084,2,0,L|275:322,1,68
424,124,18568,6,0,L|288:118,1,136,2|0,0:0|0:0,0:0:0:0:
200,196,19052,1,2,0:0:0:0:
303,247,19213,2,0,P|337:255|371:256,1,68
200,196,19536,2,0,P|166:188|132:187,1,68,0|2,0:0|0:0,0:0:0:0:
216,348,19858,5,2,0:0:0:0:
216,348,20181,5,8,0:0:0:0:
320,268,20342,1,8,0:0:0:0:
200,216,20503,1,8,0:0:0:0:
380,180,20665,1,8,0:0:0:0:
212,108,20826,2,0,P|161:103|110:103,1,102,8|0,0:0|0:0,0:0:0:0:
107,192,21149,6,0,P|51:226|20:336,1,170,6|0,0:0|0:0,0:0:0:0:
116,344,21633,2,0,L|200:348,1,85,2|0,0:0|0:0,0:0:0:0:
344,260,21955,2,0,L|260:256,1,85,2|0,0:0|0:0,0:0:0:0:
232,256,22197,1,2,0:0:0:0:
204,256,22278,1,2,0:0:0:0:
168,160,22439,1,0,0:0:0:0:
371,183,22600,6,0,P|405:210|422:248,1,85,2|0,0:0|0:0,0:0:0:0:
288,188,22923,2,0,P|254:161|237:123,1,85,2|0,0:0|0:0,0:0:0:0:
284,40,23245,2,0,L|368:32,1,85,2|0,0:0|0:0,0:0:0:0:
396,28,23487,1,2,0:0:0:0:
424,24,23568,1,2,0:0:0:0:
480,108,23729,1,0,0:0:0:0:
288,187,23891,6,0,P|245:185|207:167,1,85,2|0,0:0|0:0,0:0:0:0:
172,48,24213,1,2,0:0:0:0:
288,188,24374,2,0,P|307:225|312:267,1,85,0|2,0:0|0:0,0:0:0:0:
152,264,24697,1,2,0:0:0:0:
152,264,24778,1,2,0:0:0:0:
152,264,24858,2,0,P|192:249|235:247,1,85,2|0,0:0|0:0,0:0:0:0:
344,336,25181,5,2,0:0:0:0:
452,248,25342,1,0,0:0:0:0:
319,207,25504,2,0,P|298:171|295:129,1,85,2|0,0:0|0:0,0:0:0:0:
364,52,25826,1,2,0:0:0:0:
319,207,25987,2,0,L|236:226,1,85,0|2,0:0|0:0,0:0:0:0:
92,327,26310,6,0,P|127:252|121:168,1,170
84,72,26794,1,2,0:0:0:0:
254,127,26955,2,0,P|211:122|172:108,1,85,0|2,0:0|0:0,0:0:0:0:
304,48,27278,1,2,0:0:0:0:
332,56,27358,1,2,0:0:0:0:
360,64,27439,1,2,0:0:0:0:
484,144,27600,1,0,0:0:0:0:
376,247,27762,6,0,P|317:200|370:146,1,170,2|2,0:0|0:0,0:0:0:0:
468,168,28245,1,0,0:0:0:0:
364,320,28407,2,0,P|322:312|286:290,1,85,2|0,0:0|0:0,0:0:0:0:
264,272,28649,1,2,0:0:0:0:
248,248,28729,1,2,0:0:0:0:
152,132,28891,6,0,P|174:209|114:263,1,170
24,212,29374,1,2,0:0:0:0:
64,68,29536,2,0,L|148:56,1,85,0|2,0:0|0:0,0:0:0:0:
272,100,29858,1,0,0:0:0:0:
300,256,30020,6,0,P|264:232|242:196,1,85,2|0,0:0|0:0,0:0:0:0:
272,100,30342,1,2,0:0:0:0:
416,68,30504,1,0,0:0:0:0:
272,100,30665,2,0,L|189:120,1,85,2|0,0:0|0:0,0:0:0:0:
112,188,30987,5,8,0:0:0:0:
112,216,31068,1,8,0:0:0:0:
112,244,31149,1,8,0:0:0:0:
112,272,31229,1,8,0:0:0:0:
112,300,31310,2,0,P|142:329|182:340,1,85,8|0,0:0|0:0,0:0:0:0:
368,308,31633,6,0,P|318:269|256:260,1,127.500004863739,6|0,0:0|0:0,0:0:0:0:
192,204,32116,1,2,0:0:0:0:
192,204,32278,2,0,L|178:141,1,63.7500024318696,8|0,0:0|0:0,0:0:0:0:
152,60,32600,1,0,0:0:0:0:
51,207,32762,6,0,P|74:266|129:295,1,127.500004863739,0|8,0:0|0:0,0:0:0:0:
200,344,33245,2,0,L|262:331,1,63.7500024318696,2|2,0:0|0:0,0:0:0:0:
280,224,33568,2,0,L|342:211,1,63.7500024318696,8|0,0:0|0:0,0:0:0:0:
328,104,33891,2,0,L|390:91,1,63.7500024318696,2|0,0:0|0:0,0:0:0:0:
228,143,34213,6,0,P|190:194|188:257,1,127.500004863739,2|0,0:0|0:0,0:0:0:0:
276,256,34697,1,2,0:0:0:0:
276,256,34858,2,0,L|402:244,1,127.500004863739,8|0,0:0|0:0,0:0:0:0:
455,130,35342,2,0,L|392:136,1,63.7500024318696,2|0,0:0|0:0,0:0:0:0:
300,44,35665,5,8,0:0:0:0:
392,136,35826,1,2,0:0:0:0:
267,170,35987,1,2,0:0:0:0:
152,108,36149,2,0,P|121:100|89:96,1,63.7500024318696,8|0,0:0|0:0,0:0:0:0:
267,170,36471,2,0,P|297:177|329:181,1,63.7500024318696,8|0,0:0|0:0,0:0:0:0:
172,246,36794,6,0,P|230:222|267:171,1,127.500004863739,4|0,0:0|0:0,0:0:0:0:
228,96,37278,1,2,0:0:0:0:
228,96,37439,2,0,P|197:88|165:87,1,63.7500024318696,8|0,0:0|0:0,0:0:0:0:
108,152,37762,1,0,0:0:0:0:
288,160,37923,6,0,P|344:187|407:184,1,127.500004863739,2|8,0:0|0:0,0:0:0:0:
430,103,38407,2,0,P|422:72|405:45,1,63.7500024318696,2|2,0:0|0:0,0:0:0:0:
256,32,38729,2,0,P|225:40|198:57,1,63.7500024318696,8|0,0:0|0:0,0:0:0:0:
152,200,39052,2,0,P|183:192|210:175,1,63.7500024318696,2|0,0:0|0:0,0:0:0:0:
128,76,39374,6,0,P|65:75|19:117,1,127.500004863739,2|0,0:0|0:0,0:0:0:0:
32,204,39858,1,2,0:0:0:0:
164,148,40020,2,0,P|221:178|283:187,1,127.500004863739,8|0,0:0|0:0,0:0:0:0:
408,84,40504,6,0,P|376:81|345:90,1,63.7500024318696
384,168,40826,1,8,0:0:0:0:
272,296,40987,2,0,L|334:284,1,63.7500024318696,2|2,0:0|0:0,0:0:0:0:
384,168,41310,1,8,0:0:0:0:
176,175,41471,2,0,P|141:228|150:289,1,127.500004863739,2|0,0:0|0:0,0:0:0:0:
248,132,41955,6,0,P|195:97|134:106,1,127.500004863739,6|0,0:0|0:0,0:0:0:0:
72,168,42439,1,2,0:0:0:0:
72,168,42600,2,0,L|64:240,1,63.7500024318696,8|0,0:0|0:0,0:0:0:0:
56,316,42923,1,0,0:0:0:0:
188,193,43084,6,0,P|134:161|72:168,1,127.500004863739,2|8,0:0|0:0,0:0:0:0:
119,239,43568,2,0,P|142:261|171:274,1,63.7500024318696,2|2,0:0|0:0,0:0:0:0:
268,232,43891,2,0,P|298:239|330:235,1,63.7500024318696,8|0,0:0|0:0,0:0:0:0:
392,148,44213,2,0,P|422:139|447:120,1,63.7500024318696,2|0,0:0|0:0,0:0:0:0:
312,36,44536,6,0,P|268:81|242:139,1,127.500004863739,2|0,0:0|0:0,0:0:0:0:
300,204,45020,1,2,0:0:0:0:
300,204,45181,2,0,P|346:244|401:219,1,127.500004863739,8|0,0:0|0:0,0:0:0:0:
344,136,45665,2,0,P|312:124|280:128,1,63.7500024318696
192,204,45987,5,8,0:0:0:0:
132,319,46149,1,2,0:0:0:0:
260,340,46310,1,2,0:0:0:0:
132,319,46471,2,0,P|102:307|75:290,1,63.7500024318696,8|0,0:0|0:0,0:0:0:0:
143,137,46794,1,8,0:0:0:0:
162,147,46874,1,8,0:0:0:0:
177,162,46955,1,8,0:0:0:0:
185,181,47036,1,8,0:0:0:0:
192,204,47116,6,0,P|200:238|192:274,1,72.2500013780594,4|0,0:0|0:0,0:0:0:0:
60,212,47439,2,0,P|51:177|59:141,1,72.2500013780594,8|0,0:0|0:0,0:0:0:0:
144,52,47762,1,2,0:0:0:0:
256,132,47923,1,2,0:0:0:0:
368,52,48084,1,8,0:0:0:0:
392,188,48245,6,0,P|401:222|393:257,1,72.2500013780594,0|2,0:0|0:0,0:0:0:0:
332,320,48568,1,0,0:0:0:0:
188,252,48729,2,0,L|259:243,1,72.2500013780594,8|0,0:0|0:0,0:0:0:0:
332,132,49052,2,0,L|260:140,1,72.2500013780594,2|2,0:0|0:0,0:0:0:0:
160,52,49374,2,0,L|231:43,1,72.2500013780594,8|0,0:0|0:0,0:0:0:0:
412,92,49697,6,0,P|416:162|372:217,1,144.500002756119,6|8,0:0|0:0,0:0:0:0:
248,176,50181,1,0,0:0:0:0:
320,352,50342,1,2,0:0:0:0:
192,292,50504,1,2,0:0:0:0:
248,176,50665,1,8,0:0:0:0:
390,345,50826,6,0,P|355:354|320:352,1,72.2500013780594,2|0,0:0|0:0,0:0:0:0:
296,352,51068,1,8,0:0:0:0:
274,344,51149,1,8,0:0:0:0:
254,332,51229,1,8,0:0:0:0:
240,314,51310,1,8,0:0:0:0:
258,90,51633,5,0,0:0:0:0:
258,90,51794,2,0,L|253:132,1,42.5
276,252,52116,6,0,P|344:224|376:136,1,170,6|0,0:0|0:0,0:0:0:0:
248,40,52600,2,0,P|206:39|170:61,1,85,8|0,0:0|0:0,0:0:0:0:
276,164,52923,1,2,0:0:0:0:
392,72,53084,1,2,0:0:0:0:
248,40,53245,1,8,0:0:0:0:
384,156,53407,6,0,P|425:149|457:122,1,85
324,28,53729,1,2,0:0:0:0:
384,156,53891,2,0,L|373:240,1,85,8|0,0:0|0:0,0:0:0:0:
264,352,54213,2,0,L|274:267,1,85,2|2,0:0|0:0,0:0:0:0:
296,168,54536,1,8,0:0:0:0:
220,20,54697,6,0,B|252:56|248:100|248:100|213:125|212:171,1,170,2|2,0:0|0:0,0:0:0:0:
373,181,55181,2,0,P|332:188|296:168,1,85,8|0,0:0|0:0,0:0:0:0:
396,60,55504,1,2,0:0:0:0:
468,188,55665,1,2,0:0:0:0:
368,296,55826,1,8,0:0:0:0:
296,168,55987,6,0,P|283:127|286:85,1,85
380,196,56310,1,2,0:0:0:0:
244,252,56471,2,0,P|256:292|254:334,1,85,8|0,0:0|0:0,0:0:0:0:
152,340,56794,1,2,0:0:0:0:
48,184,56955,2,0,P|45:226|58:266,1,85,2|8,0:0|0:0,0:0:0:0:
204,184,57278,6,0,P|126:156|47:183,1,170,6|2,0:0|0:0,0:0:0:0:
176,264,57762,1,8,0:0:0:0:
316,312,57923,1,0,0:0:0:0:
228,192,58084,1,2,0:0:0:0:
231,339,58245,2,0,P|191:351|149:353,1,85,2|8,0:0|0:0,0:0:0:0:
308,232,58568,6,0,P|348:219|390:218,1,85
228,288,58891,2,0,P|187:300|145:301,1,85,2|8,0:0|0:0,0:0:0:0:
220,140,59213,2,0,P|190:213|112:201,1,170,0|2,0:0|0:0,0:0:0:0:
72,108,59697,1,8,0:0:0:0:
236,44,59858,6,0,P|320:44|403:63,1,170
464,200,60342,2,0,P|422:209|380:209,1,85,8|0,0:0|0:0,0:0:0:0:
268,128,60665,1,2,0:0:0:0:
332,288,60826,1,8,0:0:0:0:
164,256,60987,1,8,0:0:0:0:
199,87,61149,6,0,P|272:51|340:96,1,170
320,240,61633,1,8,0:0:0:0:
199,87,61794,6,0,P|126:123|59:79,1,170
252,32,62278,1,8,0:0:0:0:
281,33,62358,1,8,0:0:0:0:
309,32,62439,6,0,P|385:59|401:139,1,170,6|2,0:0|0:0,0:0:0:0:
276,224,62923,2,0,L|360:216,1,85,8|0,0:0|0:0,0:0:0:0:
200,188,63245,1,2,0:0:0:0:
92,288,63407,1,2,0:0:0:0:
232,336,63568,1,8,0:0:0:0:
94,204,63729,6,0,P|53:215|21:243,1,85
104,368,64052,1,2,0:0:0:0:
176,236,64213,2,0,L|155:153,1,85,8|0,0:0|0:0,0:0:0:0:
280,48,64536,2,0,L|300:130,1,85,2|2,0:0|0:0,0:0:0:0:
320,232,64858,1,8,0:0:0:0:
196,340,65020,6,0,B|180:292|144:276|144:276|144:190,1,170,0|2,0:0|0:0,0:0:0:0:
280,132,65504,2,0,L|280:224,1,85,8|0,0:0|0:0,0:0:0:0:
196,340,65826,1,2,0:0:0:0:
196,192,65987,1,2,0:0:0:0:
316,280,66149,1,8,0:0:0:0:
135,247,66310,6,0,P|117:210|119:168,1,85
192,48,66633,1,2,0:0:0:0:
296,152,66794,2,0,L|213:132,1,85,8|0,0:0|0:0,0:0:0:0:
336,232,67116,1,8,0:0:0:0:
353,211,67197,1,8,0:0:0:0:
365,188,67278,1,8,0:0:0:0:
373,162,67358,1,8,0:0:0:0:
372,135,67439,1,8,0:0:0:0:
363,110,67520,1,8,0:0:0:0:
346,89,67600,6,0,P|269:55|177:65,1,170,6|0,0:0|0:0,0:0:0:0:
68,144,68084,1,8,0:0:0:0:
220,192,68245,1,0,0:0:0:0:
152,336,68407,1,8,0:0:0:0:
312,320,68568,1,0,0:0:0:0:
168,252,68729,1,8,0:0:0:0:
386,359,68891,6,0,B|407:287|353:251|353:251|351:218|365:206,1,170,6|0,0:0|0:0,0:0:0:0:
422,80,69374,1,8,0:0:0:0:
292,172,69536,1,0,0:0:0:0:
429,159,69697,1,8,0:0:0:0:
284,94,69858,1,0,0:0:0:0:
365,206,70020,1,8,0:0:0:0:
348,48,70181,6,0,P|280:96|188:88,1,170,6|0,0:0|0:0,0:0:0:0:
68,40,70665,1,8,0:0:0:0:
136,184,70826,1,2,0:0:0:0:
292,218,70987,1,8,0:0:0:0:
200,88,71149,1,8,0:0:0:0:
200,88,71229,1,8,0:0:0:0:
200,88,71310,1,8,0:0:0:0:
180,288,71471,6,0,L|347:319,1,170,6|0,0:0|0:0,0:0:0:0:
464,220,72278,1,8,0:0:0:0:
320,80,72439,1,8,0:0:0:0:
256,192,72762,12,0,74052,0:0:0:0:
72,264,74213,6,0,L|114:260,1,42.5
136,184,74374,2,0,L|178:180,1,42.5
204,256,74536,2,0,L|246:252,1,42.5
260,156,74697,2,0,L|302:152,1,42.5
332,244,74858,2,0,L|374:240,1,42.5
376,128,75020,2,0,L|418:124,1,42.5
464,228,75181,2,0,L|506:224,1,42.5,8|0,0:0|0:0,0:0:0:0:
464,329,75342,6,0,P|390:368|306:367,1,170,6|2,0:0|0:0,0:0:0:0:
195,256,75826,2,0,P|236:244|279:246,1,85,8|0,0:0|0:0,0:0:0:0:
168,356,76149,1,2,0:0:0:0:
60,244,76310,1,2,0:0:0:0:
196,168,76471,1,8,0:0:0:0:
168,356,76633,6,0,L|83:344,1,85
216,256,76955,2,0,L|300:267,1,85,2|8,0:0|0:0,0:0:0:0:
404,176,77278,1,0,0:0:0:0:
268,84,77439,2,0,P|240:115|230:156,1,85,2|2,0:0|0:0,0:0:0:0:
216,256,77762,1,8,0:0:0:0:
364,308,77923,6,0,B|416:284|428:248|428:248|396:212|404:176,1,170,2|2,0:0|0:0,0:0:0:0:
318,45,78407,2,0,P|332:84|338:126,1,85,8|0,0:0|0:0,0:0:0:0:
484,188,78729,1,2,0:0:0:0:
332,216,78891,1,2,0:0:0:0:
244,88,79052,1,8,0:0:0:0:
404,190,79213,6,0,P|412:232|412:275,1,85
276,352,79536,2,0,P|268:310|268:267,1,85,2|8,0:0|0:0,0:0:0:0:
192,148,79858,1,0,0:0:0:0:
348,108,80020,2,0,L|260:100,1,85,2|2,0:0|0:0,0:0:0:0:
176,48,80342,1,8,0:0:0:0:
124,196,80504,6,0,B|160:236|212:228|212:228|240:248|232:293,1,170,6|2,0:0|0:0,0:0:0:0:
76,268,80987,2,0,P|49:235|41:194,1,85,8|0,0:0|0:0,0:0:0:0:
164,100,81310,1,2,0:0:0:0:
280,208,81471,1,2,0:0:0:0:
124,196,81633,1,8,0:0:0:0:
288,116,81794,6,0,L|372:127,1,85,2|0,0:0|0:0,0:0:0:0:
464,256,82116,2,0,L|379:244,1,85,2|8,0:0|0:0,0:0:0:0:
256,344,82439,2,0,L|340:355,1,85,0|2,0:0|0:0,0:0:0:0:
244,232,82762,1,2,0:0:0:0:
88,208,82923,1,8,0:0:0:0:
246,147,83084,6,0,P|316:191|315:272,1,170,2|2,0:0|0:0,0:0:0:0:
163,238,83568,2,0,P|204:245|244:231,1,85,8|0,0:0|0:0,0:0:0:0:
224,76,83891,1,2,0:0:0:0:
71,111,84052,1,8,0:0:0:0:
163,238,84213,1,8,0:0:0:0:
135,52,84374,6,0,P|71:105|55:186,1,170,2|2,0:0|0:0,0:0:0:0:
132,324,84858,2,0,P|171:339|213:341,1,85,8|0,0:0|0:0,0:0:0:0:
296,208,85181,2,0,P|256:192|214:190,1,85,0|2,0:0|0:0,0:0:0:0:
368,160,85504,1,8,0:0:0:0:
368,160,85584,1,8,0:0:0:0:
368,160,85665,6,0,P|294:121|209:113,1,170,6|2,0:0|0:0,0:0:0:0:
92,216,86149,2,0,L|176:228,1,85,8|0,0:0|0:0,0:0:0:0:
316,244,86471,1,2,0:0:0:0:
204,352,86633,2,0,L|120:340,1,85,2|8,0:0|0:0,0:0:0:0:
16,180,86955,6,0,B|37:135|93:131|93:131|133:143|164:123,1,170,2|2,0:0|0:0,0:0:0:0:
300,44,87439,2,0,P|258:44|218:56,1,85,8|0,0:0|0:0,0:0:0:0:
248,192,87762,1,2,0:0:0:0:
400,152,87923,2,0,P|412:111|411:69,1,85,2|8,0:0|0:0,0:0:0:0:
335,243,88245,6,0,P|372:318|451:340,1,170,2|2,0:0|0:0,0:0:0:0:
432,184,88729,2,0,P|396:160|355:151,1,85,8|0,0:0|0:0,0:0:0:0:
232,216,89052,1,2,0:0:0:0:
120,328,89213,2,0,L|203:341,1,85,2|8,0:0|0:0,0:0:0:0:
176,155,89536,6,0,P|154:191|154:233,1,85,2|0,0:0|0:0,0:0:0:0:
276,136,89858,2,0,P|275:93|254:58,1,85,2|8,0:0|0:0,0:0:0:0:
96,52,90181,2,0,P|131:73|173:73,1,85,0|8,0:0|0:0,0:0:0:0:
200,64,90423,1,8,0:0:0:0:
226,54,90504,1,8,0:0:0:0:
254,53,90584,1,8,0:0:0:0:
281,57,90665,1,8,0:0:0:0:
431,172,90826,6,0,P|379:236|297:243,1,170,6|0,0:0|0:0,0:0:0:0:
172,151,91310,2,0,P|214:150|253:165,1,85,8|0,0:0|0:0,0:0:0:0:
220,320,91633,1,8,0:0:0:0:
80,192,91794,2,0,L|97:108,1,85,0|8,0:0|0:0,0:0:0:0:
235,32,92116,6,0,P|318:44|370:109,1,170,6|0,0:0|0:0,0:0:0:0:
295,247,92600,2,0,P|281:208|280:166,1,85,8|0,0:0|0:0,0:0:0:0:
424,224,92923,1,8,0:0:0:0:
276,344,93084,2,0,L|191:340,1,85,0|8,0:0|0:0,0:0:0:0:
72,240,93407,6,0,L|241:247,1,170,6|0,0:0|0:0,0:0:0:0:
352,136,93891,2,0,L|267:132,1,85,8|0,0:0|0:0,0:0:0:0:
140,40,94213,1,8,0:0:0:0:
168,41,94294,1,8,0:0:0:0:
196,42,94374,1,8,0:0:0:0:
224,43,94455,1,8,0:0:0:0:
252,44,94536,1,8,0:0:0:0:
280,45,94616,1,8,0:0:0:0:
308,46,94697,6,0,P|387:64|417:140,1,170,6|0,0:0|0:0,0:0:0:0:
372,280,95504,1,8,0:0:0:0:
178,308,95665,1,8,0:0:0:0:
466,201,95987,5,4,0:0:0:0:
256,192,96068,12,0,100826,0:0:0:0:
169,181,100987,5,8,0:0:0:0:
359,153,101149,1,8,0:0:0:0:
