osu file format v14

[General]
AudioFilename: audio.mp3
AudioLeadIn: 0
PreviewTime: 74288
Countdown: 0
SampleSet: Soft
StackLeniency: 0.9
Mode: 0
LetterboxInBreaks: 0
WidescreenStoryboard: 1

[Editor]
Bookmarks: 45255,74395,161824,190967
DistanceSpacing: 1.3
BeatDivisor: 4
GridSize: 32
TimelineZoom: 2.2

[Metadata]
Title:Melancholic
TitleUnicode:メランコリック
Artist:Ito Kashitaro
ArtistUnicode:伊東歌詞太郎
Creator:Basensorex
Version:Aku & Basen's Hard
Source:
Tags:utaite vocaloid 鏡音リン Kagamine Rin 一意専心 -aku bad_mapper bad mapper tanzeem my_angel_ram my angel ram japanese male vocalist pop rock
BeatmapID:2478917
BeatmapSetID:1189709

[Difficulty]
HPDrainRate:4
CircleSize:3.6
OverallDifficulty:6.4
ApproachRate:7.2
SliderMultiplier:1.37
SliderTickRate:1

[Events]
//Background and Video events
0,0,"BG.jpg",0,0
//Break Periods
2,143177,153668
//Storyboard Layer 0 (Background)
//Storyboard Layer 1 (Fail)
//Storyboard Layer 2 (Pass)
//Storyboard Layer 3 (Foreground)
//Storyboard Layer 4 (Overlay)
//Storyboard Sound Samples

[TimingPoints]
684,428.571428571429,4,2,22,50,1,0
16969,-100,4,2,22,60,0,0
17826,-90.0900900900901,4,2,22,70,0,0
31541,-90.0900900900901,4,2,22,50,0,0
31969,-100,4,2,22,50,0,0
44398,-100,4,2,22,55,0,0
44612,-100,4,2,22,55,0,0
45255,-100,4,2,22,60,0,0
45684,-90.0900900900901,4,2,22,60,0,0
56826,-90.0900900900901,4,2,22,70,0,0
57255,-90.0900900900901,4,2,22,65,0,0
60682,416.666666666667,4,2,22,70,1,0
60682,-90.0900900900901,4,2,22,70,0,0
62171,422.535211267606,4,2,22,70,1,8
62396,428.571428571429,4,2,22,70,1,8
64110,-90.0900900900901,4,2,22,60,0,0
67538,-90.0900900900901,4,2,22,60,0,0
67752,-90.0900900900901,4,2,22,70,0,0
70967,-90.0900900900901,4,2,22,70,0,0
71181,-90.0900900900901,4,2,22,65,0,0
74396,-83.3333333333333,4,2,22,75,0,1
101824,-90.0900900900901,4,2,22,65,0,0
115538,-90.0900900900901,4,2,22,60,0,0
129252,-90.0900900900901,4,2,22,75,0,0
135252,-100,4,2,22,75,0,0
139538,-100,4,2,22,65,0,0
142967,-100,4,2,22,50,0,0
154967,-100,4,2,22,55,0,0
155824,-100,4,2,22,60,0,0
156681,-100,4,2,22,65,0,0
157538,-100,4,2,22,70,0,0
158395,-100,4,2,22,75,0,0
161824,-76.9230769230769,4,2,22,85,0,1
187538,-111.111111111111,4,2,22,60,0,1
190538,-111.111111111111,4,2,22,70,0,1
190967,-90.0900900900901,4,2,22,75,0,0
216895,-90.0900900900901,4,2,22,85,0,0
218395,-90.0900900900901,4,2,22,60,0,0

[Colours]
Combo1 : 255,128,64
Combo2 : 4,126,249
Combo3 : 192,192,192
Combo4 : 18,63,216

[HitObjects]
480,212,4112,6,0,P|405:211|361:250,1,137.045666666667,2|2,2:2|2:2,0:0:0:0:
233,354,4969,2,0,P|192:364|154:363,1,68.6826666666668,2|2,2:2|2:2,0:0:0:0:
107,306,5398,2,0,P|73:309|41:319,1,68.6826666666668,2|2,2:2|2:2,0:0:0:0:
205,196,6041,6,0,B|219:155|200:129|197:129|192:128|177:99|188:53,1,137.045666666667,2|2,2:2|2:2,0:0:0:0:
269,3,6684,2,0,P|340:-1|396:56,1,137.045666666667,2|2,2:2|2:2,0:0:0:0:
459,120,7326,1,2,2:2:0:0:
459,120,7541,6,0,L|465:266,1,137.045666666667,2|2,2:2|2:2,0:0:0:0:
341,365,8398,2,0,P|284:357|258:342,1,68.6826666666668,2|2,2:2|2:2,0:0:0:0:
207,305,8826,2,0,P|175:316|141:318,1,68.6826666666668,2|2,2:2|2:2,0:0:0:0:
290,177,9469,6,0,L|284:76,1,68.6826666666668,2|2,2:2|2:2,0:0:0:0:
231,21,9898,2,0,P|172:-15|94:20,1,137.045666666667,2|0,2:2|0:0,0:0:0:0:
68,96,10541,2,0,P|35:104|1:104,1,68.6826666666668,2|2,2:2|2:2,0:0:0:0:
3,206,10969,6,0,L|10:288,1,68.6826666666668,2|2,2:2|2:2,0:0:0:0:
52,344,11398,2,0,P|86:353|120:353,1,68.6826666666668,2|2,2:2|2:2,0:0:0:0:
177,295,11826,2,0,P|211:286|245:286,2,68.5228333333335,2|2|2,2:2|2:2|2:2,0:0:0:0:
119,353,12469,1,2,2:2:0:0:
323,328,12898,6,0,B|327:272|327:272|337:249|337:249|344:177,1,137.045666666667,2|2,2:2|2:2,0:0:0:0:
294,102,13541,2,0,P|343:48|415:57,1,137.045666666667,2|2,2:2|2:2,0:0:0:0:
496,104,14184,1,2,2:2:0:0:
496,104,14398,6,0,L|499:273,1,137.045666666667,2|2,2:2|2:2,0:0:0:0:
384,359,15255,2,0,P|329:324|242:338,1,137.045666666667,2|2,2:2|2:2,0:0:0:0:
123,236,16112,2,0,L|19:246,2,102.864166666667,2|2|2,2:2|2:2|2:2,0:0:0:0:
225,226,16969,5,10,2:2:0:0:
64,97,17398,1,8,2:2:0:0:
273,7,17826,6,0,P|349:-3|412:51,1,152.120693712647,6|10,1:2|2:2,0:0:0:0:
470,122,18469,1,0,3:2:0:0:
470,122,18684,2,0,P|460:162|460:197,1,76.2377618563235,2|2,1:2|3:2,0:0:0:0:
485,291,19112,1,10,2:2:0:0:
396,335,19326,2,0,B|350:322|323:336|323:340|323:347|292:366|222:342,1,152.120693712647,2|2,3:2|3:2,0:0:0:0:
171,287,19969,6,0,P|167:253|161:210,1,76.2377618563235,10|2,2:2|3:2,0:0:0:0:
239,150,20398,2,0,P|243:116|249:73,1,76.2377618563235,2|10,1:2|2:2,0:0:0:0:
175,8,20826,1,10,2:2:0:0:
4,108,21255,6,0,L|173:100,1,152.120693712647,2|10,1:2|2:2,0:0:0:0:
242,158,21898,1,0,3:2:0:0:
242,158,22112,2,0,P|285:166|321:192,1,76.2377618563235,2|2,1:2|3:2,0:0:0:0:
369,263,22541,1,10,2:2:0:0:
453,212,22755,2,0,L|442:31,1,152.120693712647,2|2,3:2|3:2,0:0:0:0:
353,19,23398,6,0,P|316:29|268:29,1,76.2377618563235,10|2,2:2|3:2,0:0:0:0:
206,97,23826,1,10,1:3:0:0:
206,97,24041,1,10,0:0:0:0:
120,59,24255,1,10,0:0:0:0:
120,59,24469,1,10,0:0:0:0:
36,147,24684,6,0,P|3:239|44:300,1,152.120693712647,2|10,1:2|2:2,0:0:0:0:
106,347,25326,1,0,3:2:0:0:
106,347,25541,2,0,L|199:339,1,76.2377618563235,2|2,1:2|3:2,0:0:0:0:
277,364,25969,1,10,2:2:0:0:
311,270,26184,2,0,P|380:223|459:259,1,152.120693712647,2|2,3:2|3:2,0:0:0:0:
502,163,26826,6,0,L|512:76,1,76.2377618563235,10|2,2:2|3:2,0:0:0:0:
427,34,27255,2,0,L|417:121,1,76.2377618563235,2|10,1:2|3:2,0:0:0:0:
327,148,27684,1,10,2:2:0:0:
415,324,28112,6,0,B|369:311|342:325|342:329|342:336|311:355|241:331,1,152.120693712647,2|10,1:2|2:2,0:0:0:0:
204,268,28755,1,0,3:2:0:0:
204,268,28969,2,0,P|200:231|176:187,1,76.2377618563235,2|2,1:2|3:2,0:0:0:0:
231,109,29398,1,10,2:2:0:0:
169,32,29612,2,0,P|74:9|28:66,1,152.120693712647,2|2,3:2|3:2,0:0:0:0:
65,134,30255,6,0,L|57:226,1,76.2377618563235,10|2,2:2|3:2,0:0:0:0:
106,296,30684,1,8,2:2:0:0:
284,212,31112,1,10,2:2:0:0:
299,223,31969,6,0,L|308:388,2,137.045666666667,2|2|2,3:2|3:2|3:2,0:0:0:0:
332,75,33255,2,0,P|410:41|468:75,1,137.045666666667,2|2,3:2|3:2,0:0:0:0:
499,119,33898,2,0,B|495:175|495:175|485:198|485:198|478:270,1,137.045666666667,2|0,3:2|3:2,0:0:0:0:
374,361,34755,1,2,3:2:0:0:
374,361,34969,6,0,P|288:349|245:403,1,137.045666666667,2|2,3:2|3:2,0:0:0:0:
125,301,35826,2,0,L|117:218,1,68.6826666666668,2|0,3:2|3:2,0:0:0:0:
145,157,36255,1,2,3:2:0:0:
145,157,36469,2,0,P|246:152|281:208,1,137.045666666667,2|0,3:2|3:2,0:0:0:0:
310,315,37326,1,0,3:2:0:0:
436,233,37755,6,0,L|444:150,1,68.6826666666668,2|2,3:2|3:2,0:0:0:0:
464,92,38184,2,0,P|400:44|309:91,1,137.045666666667,2|0,3:2|3:2,0:0:0:0:
287,97,38826,1,2,3:2:0:0:
151,31,39255,6,0,L|-2:25,2,137.045666666667,2|2|2,3:2|3:2|3:2,0:0:0:0:
233,163,40541,1,2,3:2:0:0:
233,163,40755,2,0,P|195:242|212:308,1,137.045666666667,2|0,3:2|3:2,0:0:0:0:
338,363,41612,1,2,3:2:0:0:
338,363,41826,6,0,L|509:354,1,137.045666666667,2|2,3:2|3:2,0:0:0:0:
505,207,42684,2,0,B|519:166|500:140|497:140|492:139|477:110|488:64,1,137.045666666667,2|2,3:2|3:2,0:0:0:0:
415,49,43326,2,0,P|311:26|256:71,1,137.045666666667,2|0,3:2|3:2,0:0:0:0:
225,174,44184,1,0,3:2:0:0:
358,243,44612,2,0,L|444:253,2,68.5228333333335,10|6|6,2:3|2:3|2:3,0:0:0:0:
336,146,45255,5,4,1:2:0:0:
349,343,45684,2,0,B|298:355|272:330|272:330|247:304|196:317,1,152.120693712647,2|2,1:2|1:2,0:0:0:0:
119,357,46326,1,0,3:2:0:0:
119,357,46541,2,0,P|72:351|41:332,1,76.2377618563235,2|0,1:2|3:2,0:0:0:0:
2,249,46969,1,2,1:2:0:0:
177,154,47398,5,2,1:2:0:0:
177,154,47612,2,0,L|194:313,1,152.120693712647,2|0,3:2|3:2,0:0:0:0:
290,324,48255,2,0,P|322:304|359:299,1,76.2377618563235,0|2,1:2|3:2,0:0:0:0:
425,372,48684,6,0,P|459:294|432:230,1,152.120693712647,2|2,1:2|1:2,0:0:0:0:
348,203,49326,1,0,3:2:0:0:
348,203,49541,2,0,L|358:107,1,76.2377618563235,2|0,1:2|3:2,0:0:0:0:
372,33,49969,1,2,1:2:0:0:
372,33,50184,1,2,3:2:0:0:
280,70,50398,6,0,B|229:82|203:57|203:57|178:31|127:44,1,152.120693712647,0|0,1:2|1:2,0:0:0:0:
50,89,51041,2,0,P|55:126|59:164,1,76.2377618563235,0|0,3:2|1:2,0:0:0:0:
125,237,51469,2,0,P|119:274|115:312,2,76.0603468563235,2|2|2,3:2|1:2|3:2,0:0:0:0:
201,174,52112,5,0,1:2:0:0:
298,346,52541,2,0,B|361:340|361:340|385:322|385:322|457:312,1,152.120693712647,2|2,1:2|1:2,0:0:0:0:
511,242,53184,1,0,3:2:0:0:
511,242,53398,2,0,L|500:146,1,76.2377618563235,2|0,1:2|3:2,0:0:0:0:
489,68,53826,1,2,1:2:0:0:
378,233,54255,5,2,1:2:0:0:
378,233,54469,2,0,B|327:221|301:246|301:246|276:272|225:259,1,152.120693712647,2|0,3:2|3:2,0:0:0:0:
155,320,55112,2,0,P|135:288|130:251,1,76.2377618563235,0|2,1:2|3:2,0:0:0:0:
191,172,55541,2,0,L|172:-4,2,152.120693712647,2|2|2,1:2|1:2|1:2,0:0:0:0:
281,210,56612,1,10,2:2:0:0:
347,136,56826,5,8,2:2:0:0:
436,312,57255,2,0,L|511:304,2,76.0603468563235,4|0|8,1:2|1:2|2:2,0:0:0:0:
351,360,57898,1,0,3:2:0:0:
351,360,58112,2,0,L|275:352,2,76.0603468563235,0|0|8,1:2|1:2|2:2,0:0:0:0:
440,315,58755,1,0,1:2:0:0:
440,315,58969,2,0,P|435:278|431:240,1,76.2377618563235,0|0,1:2|1:2,0:0:0:0:
337,207,59398,2,0,P|342:170|346:132,1,76.2377618563235,8|0,2:2|1:2,0:0:0:0:
399,48,59826,1,8,2:2:0:0:
399,48,59934,1,8,2:2:0:0:
399,48,60041,1,2,1:2:0:0:
449,132,60255,1,14,2:2:0:0:
360,312,60682,6,0,P|322:315|281:304,1,76.2783138563235,6|10,1:2|2:2,0:0:0:0:
201,255,61098,1,10,2:2:0:0:
118,322,61307,2,0,L|124:385,2,38.0175009281616,2|2|2,3:2|2:2|2:2,0:0:0:0:
34,259,61723,1,2,3:2:0:0:
105,63,62171,5,2,2:2:0:0:
105,63,62276,1,2,2:2:0:0:
105,63,62396,2,0,P|137:83|174:88,1,68.5456685229902,6|10,1:2|2:2,0:0:0:0:
239,171,62824,2,0,P|271:151|308:146,1,68.5456685229902,10|2,2:2|3:2,0:0:0:0:
379,66,63253,2,0,L|373:3,2,34.272834261495,2|2|2,2:2|2:2|3:2,0:0:0:0:
476,120,63681,1,2,2:2:0:0:
476,120,63896,1,2,2:2:0:0:
404,199,64110,6,0,P|393:272|384:357,1,152.120693712647,6|8,1:2|2:2,0:0:0:0:
283,372,64752,1,2,3:2:0:0:
283,372,64967,2,0,B|232:384|206:359|206:359|181:333|130:346,1,152.120693712647,2|8,1:2|2:2,0:0:0:0:
37,358,65610,1,2,3:2:0:0:
37,358,65824,2,0,P|33:320|27:282,1,76.2377618563235,2|0,1:2|1:2,0:0:0:0:
99,204,66252,2,0,P|102:166|108:128,1,76.2377618563235,8|0,2:2|1:2,0:0:0:0:
175,56,66681,1,8,2:2:0:0:
175,56,66788,2,0,L|270:63,1,76.2377618563235,8|8,2:2|2:2,0:0:0:0:
283,98,67110,2,0,L|378:91,1,76.2377618563235,8|8,3:2|2:2,0:0:0:0:
433,27,67538,6,0,P|453:59|458:96,1,76.2377618563235,6|10,1:2|2:2,0:0:0:0:
510,189,67967,2,0,P|490:221|485:258,1,76.2377618563235,10|2,2:2|3:2,0:0:0:0:
416,340,68395,1,2,2:2:0:0:
310,351,68610,2,0,L|246:357,2,38.1188809281616,2|2|2,2:2|2:2|2:2,0:0:0:0:
353,255,69038,1,2,2:2:0:0:
353,255,69252,6,0,L|362:175,1,76.2377618563235,6|10,1:2|2:2,0:0:0:0:
461,141,69681,2,0,L|452:61,1,76.2377618563235,10|2,2:2|3:2,0:0:0:0:
366,2,70110,1,2,2:2:0:0:
262,26,70324,2,0,L|198:20,2,38.1188809281616,2|2|2,2:2|2:2|2:2,0:0:0:0:
267,136,70752,1,2,2:2:0:0:
267,136,70967,6,0,L|282:279,2,114.179227784485,6|2|2,1:2|2:2|2:2,0:0:0:0:
262,26,71824,2,0,P|223:26|190:43,1,76.2377618563235,2|0,1:2|1:2,0:0:0:0:
128,130,72252,1,10,2:2:0:0:
128,130,72467,1,2,2:2:0:0:
52,54,72681,6,0,P|18:132|45:196,1,152.120693712647,2|8,1:2|2:2,0:0:0:0:
138,232,73324,1,0,1:2:0:0:
142,236,73538,1,8,2:2:0:0:
279,74,73967,1,8,2:2:0:0:
417,237,74396,6,0,P|347:245|302:264,1,82.4191974914554,6|0,1:2|3:2,0:0:0:0:
282,340,74824,2,0,P|242:330|201:327,1,82.4191974914554,10|0,2:2|3:2,0:0:0:0:
102,370,75252,1,2,1:2:0:0:
106,374,75467,1,2,3:2:0:0:
32,295,75681,1,10,2:2:0:0:
115,229,75895,2,0,L|122:123,1,82.4191974914554,2|0,3:2|1:2,0:0:0:0:
26,55,76324,6,0,P|107:4|189:50,1,164.45479498291,2|2,3:2|3:2,0:0:0:0:
244,97,76967,1,2,1:2:0:0:
333,38,77181,1,8,2:2:0:0:
418,102,77395,2,0,L|422:205,1,82.4191974914554,10|2,2:2|3:2,0:0:0:0:
460,309,77824,6,0,P|428:329|374:331,1,82.4191974914554,2|0,1:2|3:2,0:0:0:0:
289,284,78252,2,0,L|175:266,1,82.4191974914554,10|0,2:2|3:2,0:0:0:0:
112,315,78681,1,2,1:2:0:0:
112,315,78895,1,2,3:2:0:0:
39,236,79110,1,10,2:2:0:0:
104,152,79324,2,0,L|218:134,1,82.4191974914554,2|0,3:2|1:2,0:0:0:0:
264,67,79752,6,0,P|303:90|340:92,1,82.4191974914554,2|10,3:2|2:2,0:0:0:0:
426,154,80181,2,0,B|430:221|430:221|442:249|442:249|451:336,1,164.45479498291,2|8,3:2|2:2,0:0:0:0:
360,375,80824,1,10,2:2:0:0:
252,370,81038,1,10,2:2:0:0:
165,270,81252,6,0,P|157:230|157:176,1,82.4191974914554,2|2,1:2|3:2,0:0:0:0:
68,127,81681,2,0,P|76:86|77:45,1,82.4191974914554,10|2,2:2|3:2,0:0:0:0:
176,0,82110,1,2,1:2:0:0:
176,0,82324,1,2,3:2:0:0:
252,75,82538,1,10,2:2:0:0:
344,22,82752,2,0,L|431:16,1,82.4191974914554,2|0,3:2|1:2,0:0:0:0:
506,120,83181,6,0,B|486:159|498:196|502:197|510:197|535:234|489:305,1,164.45479498291,2|2,3:2|3:2,0:0:0:0:
428,354,83824,1,2,1:2:0:0:
374,261,84038,1,8,2:2:0:0:
276,305,84252,2,0,L|156:314,1,82.4191974914554,10|2,2:2|3:2,0:0:0:0:
72,258,84681,6,0,P|40:164|66:100,1,164.45479498291,2|10,1:2|2:2,0:0:0:0:
156,55,85324,1,0,3:2:0:0:
156,55,85538,2,0,L|246:60,1,82.4191974914554,2|0,1:2|3:2,0:0:0:0:
303,143,85967,2,0,L|385:138,1,82.4191974914554,10|0,2:2|3:2,0:0:0:0:
483,225,86395,6,0,P|512:311|501:364,2,123.436996237183,2|2|2,1:2|2:2|3:2,0:0:0:0:
494,118,87252,2,0,P|498:71|518:23,1,82.4191974914554,10|0,2:2|3:2,0:0:0:0:
407,5,87681,1,8,2:2:0:0:
293,185,88110,6,0,L|187:195,1,82.4191974914554,6|0,1:2|3:2,0:0:0:0:
139,113,88538,2,0,P|105:111|51:94,1,82.4191974914554,10|0,2:2|3:2,0:0:0:0:
4,191,88967,1,2,1:2:0:0:
4,191,89181,1,2,3:2:0:0:
100,237,89395,1,10,2:2:0:0:
16,302,89610,2,0,L|8:388,1,82.4191974914554,2|0,3:2|1:2,0:0:0:0:
134,345,90038,6,0,B|174:329|210:344|210:349|210:357|244:385|319:347,1,164.45479498291,2|2,3:2|3:2,0:0:0:0:
389,314,90681,1,2,1:2:0:0:
320,232,90895,1,8,2:2:0:0:
414,182,91110,2,0,P|405:145|404:89,1,82.4191974914554,10|2,2:2|3:2,0:0:0:0:
295,24,91538,6,0,P|253:20|195:36,1,82.4191974914554,2|0,1:2|3:2,0:0:0:0:
136,101,91967,2,0,L|144:194,1,82.4191974914554,10|0,2:2|3:2,0:0:0:0:
162,292,92395,1,2,1:2:0:0:
162,292,92610,1,2,3:2:0:0:
257,245,92824,1,10,2:2:0:0:
313,335,93038,2,0,L|411:344,1,82.4191974914554,2|0,3:2|1:2,0:0:0:0:
490,294,93467,6,0,P|504:248|501:196,1,82.4191974914554,2|10,3:2|2:2,0:0:0:0:
439,128,93895,2,0,P|339:147|251:129,1,164.45479498291,2|10,3:2|2:2,0:0:0:0:
191,201,94538,1,10,2:2:0:0:
140,106,94752,1,10,2:2:0:0:
26,172,94967,6,0,P|30:216|41:254,1,82.4191974914554,2|0,1:2|3:2,0:0:0:0:
58,358,95395,2,0,P|100:371|139:376,1,82.4191974914554,10|0,2:2|3:2,0:0:0:0:
222,309,95824,1,2,1:2:0:0:
222,309,96038,1,2,3:2:0:0:
303,377,96252,1,10,2:2:0:0:
407,356,96467,2,0,L|415:265,1,82.4191974914554,2|0,3:2|1:2,0:0:0:0:
505,178,96895,6,0,B|498:111|498:111|486:83|486:83|482:16,1,164.45479498291,2|2,3:2|3:2,0:0:0:0:
381,72,97538,1,2,1:2:0:0:
294,9,97752,1,8,2:2:0:0:
244,103,97967,2,0,L|251:191,1,82.4191974914554,10|2,2:2|3:2,0:0:0:0:
315,281,98395,6,0,P|276:301|219:295,1,82.4191974914554,2|0,1:2|3:2,0:0:0:0:
144,352,98824,2,0,P|105:332|48:338,1,82.4191974914554,10|0,2:2|3:2,0:0:0:0:
23,234,99252,2,0,P|17:140|71:109,1,164.45479498291,2|10,1:2|2:2,0:0:0:0:
143,31,99895,1,0,3:2:0:0:
250,107,100110,6,0,L|399:119,2,123.436996237183,2|2|2,1:2|2:2|3:2,0:0:0:0:
157,52,100967,2,0,P|144:99|151:161,1,82.4191974914554,10|0,2:2|1:2,0:0:0:0:
186,230,101395,1,8,2:2:0:0:
34,356,101824,6,0,P|117:313|198:361,1,152.120693712647,6|10,1:2|2:2,0:0:0:0:
359,275,102681,2,0,P|413:288|478:282,1,76.2377618563235,2|2,1:2|3:2,0:0:0:0:
489,208,103110,1,10,2:2:0:0:
489,208,103324,2,0,L|494:118,1,76.2377618563235,2|0,3:2|1:2,0:0:0:0:
416,37,103752,6,0,B|375:23|343:41|343:45|343:52|314:79|242:53,1,152.120693712647,2|2,3:2|3:2,0:0:0:0:
194,123,104395,2,0,P|158:121|110:98,1,76.2377618563235,0|8,1:2|2:2,0:0:0:0:
38,156,104824,1,10,2:2:0:0:
38,156,105038,6,0,L|52:319,1,152.120693712647,2|0,3:2|3:2,0:0:0:0:
129,367,105681,1,8,2:2:0:0:
269,228,106110,2,0,P|306:228|345:244,1,76.2377618563235,2|2,1:2|3:2,0:0:0:0:
397,330,106538,1,10,2:2:0:0:
397,330,106752,2,0,P|452:252|428:182,1,152.120693712647,2|0,1:2|3:2,0:0:0:0:
361,143,107395,1,8,2:2:0:0:
253,308,107824,2,0,P|198:319|157:308,1,76.2377618563235,2|10,1:2|3:2,0:0:0:0:
92,278,108252,1,10,2:2:0:0:
92,278,108467,6,0,B|96:216|96:216|107:191|107:191|113:112,1,152.120693712647,10|0,3:2|3:2,0:0:0:0:
70,38,109110,1,10,2:2:0:0:
269,9,109538,1,2,1:2:0:0:
269,9,109752,2,0,P|322:17|365:42,1,76.2377618563235,2|8,3:2|2:2,0:0:0:0:
399,133,110181,6,0,B|352:122|326:137|326:141|326:148|296:169|225:149,1,152.120693712647,2|2,3:2|3:2,0:0:0:0:
202,69,110824,2,0,P|154:125|162:199,1,152.120693712647,10|2,2:2|1:2,0:0:0:0:
215,288,111467,1,10,3:2:0:0:
215,288,111574,1,2,1:2:0:0:
215,288,111681,2,0,L|321:295,1,76.2377618563235,10|2,2:2|3:2,0:0:0:0:
349,213,112110,6,0,P|443:221|478:288,1,152.120693712647,2|8,1:2|2:2,0:0:0:0:
337,119,112967,2,0,L|324:-15,2,114.179227784485,2|2|2,1:2|2:2|3:2,0:0:0:0:
258,179,113824,2,0,L|252:283,1,76.2377618563235,0|0,1:2|3:2,0:0:0:0:
318,337,114252,1,10,2:2:0:0:
318,337,114467,1,2,3:2:0:0:
226,375,114681,5,12,2:2:0:0:
95,226,115110,2,0,L|-16:235,1,76.2377618563235,8|2,2:2|3:2,0:0:0:0:
6,110,115538,6,0,P|59:41|130:58,1,152.120693712647,6|8,1:2|2:2,0:0:0:0:
188,123,116181,1,2,3:2:0:0:
188,123,116395,2,0,L|282:128,2,76.0603468563235,2|2|10,1:2|3:2|2:2,0:0:0:0:
122,198,117038,1,2,3:2:0:0:
122,198,117145,1,2,1:2:0:0:
122,198,117252,2,0,P|111:243|120:302,1,76.2377618563235,2|2,1:2|3:2,0:0:0:0:
171,358,117681,1,10,2:2:0:0:
171,358,117895,2,0,L|270:352,1,76.2377618563235,2|0,3:2|1:2,0:0:0:0:
307,275,118324,6,0,B|354:262|378:278|379:282|379:289|408:311|480:294,1,152.120693712647,2|2,3:2|3:2,0:0:0:0:
512,116,119181,1,2,3:2:0:0:
512,116,119288,1,2,1:2:0:0:
512,116,119395,1,8,2:2:0:0:
452,37,119610,1,2,3:2:0:0:
374,97,119824,2,0,P|329:86|270:95,1,76.2377618563235,2|2,1:2|3:2,0:0:0:0:
255,176,120252,2,0,P|258:214|266:273,1,76.2377618563235,10|2,2:2|3:2,0:0:0:0:
176,301,120681,2,0,P|173:339|165:398,2,76.0603468563235,2|2|10,1:2|3:2|1:2,0:0:0:0:
180,179,121324,6,0,P|108:118|37:143,1,152.120693712647,2|10,3:2|3:2,0:0:0:0:
6,214,121967,1,10,2:2:0:0:
6,214,122181,1,8,3:2:0:0:
38,307,122395,1,0,1:2:0:0:
140,286,122610,1,2,3:2:0:0:
140,286,122717,1,2,1:2:0:0:
140,286,122824,2,0,P|185:297|244:288,1,76.2377618563235,10|2,1:2|3:2,0:0:0:0:
276,373,123252,2,0,P|338:337|446:375,1,152.120693712647,2|10,1:2|1:2,0:0:0:0:
488,167,124110,1,2,1:2:0:0:
488,167,124324,6,0,B|484:105|484:105|473:80|473:80|467:1,1,152.120693712647,2|2,3:2|3:2,0:0:0:0:
369,20,124967,2,0,P|269:31|246:123,1,152.120693712647,0|8,1:2|2:2,0:0:0:0:
245,171,125610,1,2,3:2:0:0:
245,171,125717,1,2,2:2:0:0:
245,171,125824,6,0,L|149:176,1,76.2377618563235,2|2,1:2|3:2,0:0:0:0:
115,258,126252,2,0,L|211:253,1,76.2377618563235,10|2,1:2|3:2,0:0:0:0:
245,336,126681,2,0,L|169:339,1,76.2377618563235,2|2,1:2|3:2,0:0:0:0:
75,361,127110,1,10,1:2:0:0:
75,361,127324,1,2,3:2:0:0:
28,248,127538,6,0,P|19:206|45:141,2,101.532072475098,0|2|2,1:2|2:2|2:2,0:0:0:0:
147,304,128395,2,0,L|255:312,1,76.2377618563235,14|14,2:0|2:3,0:0:0:0:
320,319,128824,1,14,2:2:0:0:
458,206,129252,5,8,2:2:0:0:
458,206,129467,1,8,2:2:0:0:
81,93,130967,5,8,2:2:0:0:
81,93,131181,1,8,2:2:0:0:
401,11,132681,5,8,2:2:0:0:
401,11,132895,1,8,2:2:0:0:
214,354,134395,5,8,2:2:0:0:
214,354,134610,1,8,2:2:0:0:
466,215,135252,6,0,L|472:276,2,34.3413333333334,8|8|2,2:2|2:2|2:2,0:0:0:0:
419,131,135681,2,0,L|424:47,1,68.6826666666668,10|2,2:2|2:2,0:0:0:0:
352,15,136110,5,8,2:2:0:0:
352,15,136324,1,8,2:2:0:0:
352,15,136538,2,0,L|207:26,2,137.045666666667,2|0|0,1:2|1:2|1:2,0:0:0:0:
238,171,137824,5,8,2:2:0:0:
238,171,138038,1,8,2:2:0:0:
238,171,138252,2,0,L|93:160,2,137.045666666667,2|0|10,1:2|1:2|2:2,0:0:0:0:
348,310,139538,6,0,P|266:303|209:361,1,137.045666666667,6|8,1:2|2:2,0:0:0:0:
55,275,140395,2,0,L|41:105,1,137.045666666667,2|8,1:2|2:2,0:0:0:0:
179,22,141252,2,0,P|211:11|245:13,1,68.6826666666668,2|8,1:2|3:2,0:0:0:0:
297,91,141681,1,8,2:2:0:0:
297,91,141895,1,10,3:2:0:0:
366,34,142110,2,0,L|490:29,2,102.864166666666,10|10|2,2:2|3:0|3:2,0:0:0:0:
297,91,142967,5,6,1:2:0:0:
439,348,154538,6,0,P|400:357|350:356,1,68.6826666666668,10|10,2:3|2:3,0:0:0:0:
304,299,154967,6,0,B|261:282|236:297|236:300|235:305|206:320|160:309,1,137.045666666666,6|0,1:2|1:2,0:0:0:0:
39,237,155824,2,0,P|34:151|84:120,1,137.045666666666,2|0,1:2|1:2,0:0:0:0:
213,81,156681,2,0,L|378:93,1,137.045666666667,2|0,1:2|1:2,0:0:0:0:
435,214,157538,2,0,L|270:226,1,137.045666666667,2|0,1:2|1:2,0:0:0:0:
162,289,158395,6,0,P|151:251|149:203,1,68.6826666666668,10|0,2:2|1:2,0:0:0:0:
69,167,158824,2,0,P|80:129|82:81,1,68.6826666666668,8|0,2:2|1:2,0:0:0:0:
152,33,159252,2,0,L|220:30,1,68.6826666666668,8|0,2:2|1:2,0:0:0:0:
279,105,159681,2,0,L|347:107,1,68.6826666666668,8|0,2:2|1:2,0:0:0:0:
428,55,160110,1,10,2:2:0:0:
443,62,160967,6,0,P|461:118|459:154,1,68.6826666666668,14|0,2:2|1:2,0:0:0:0:
397,198,161395,2,0,P|379:254|381:290,1,68.6826666666668,14|0,2:2|0:0,0:0:0:0:
433,364,161824,6,0,L|337:374,1,89.2874625902816,6|0,1:2|3:2,0:0:0:0:
260,293,162252,2,0,L|164:282,1,89.2874625902816,10|0,2:2|3:2,0:0:0:0:
59,297,162681,1,2,1:2:0:0:
59,297,162895,1,2,3:2:0:0:
0,197,163110,1,10,2:2:0:0:
62,100,163324,2,0,P|124:88|180:122,1,89.2874625902816,2|0,3:2|1:2,0:0:0:0:
287,69,163752,6,0,B|343:82|372:54|372:54|399:25|456:40,1,178.159358513896,2|2,3:2|3:2,0:0:0:0:
502,145,164395,1,2,1:2:0:0:
432,237,164610,1,8,2:2:0:0:
476,343,164824,2,0,P|414:355|358:321,1,89.2874625902816,10|2,2:2|3:2,0:0:0:0:
278,259,165252,6,0,L|288:163,1,89.2874625902816,2|0,1:2|3:2,0:0:0:0:
397,133,165681,2,0,L|386:37,1,89.2874625902816,10|0,2:2|3:2,0:0:0:0:
283,5,166110,1,2,1:2:0:0:
283,5,166324,1,2,3:2:0:0:
220,102,166538,1,10,2:2:0:0:
124,37,166752,2,0,P|62:25|6:59,1,89.2874625902816,2|0,3:2|1:2,0:0:0:0:
14,146,167181,6,0,L|24:241,1,89.2874625902816,2|10,3:2|2:2,0:0:0:0:
5,348,167610,2,0,B|76:341|76:341|104:320|104:320|186:309,1,178.159358513897,2|8,3:2|2:2,0:0:0:0:
283,268,168252,1,10,2:2:0:0:
348,363,168467,1,10,2:2:0:0:
480,308,168681,6,0,P|492:269|496:215,1,89.2874625902816,2|2,1:2|3:2,0:0:0:0:
411,142,169110,2,0,P|371:149|321:174,1,89.2874625902816,10|2,2:2|3:2,0:0:0:0:
246,252,169538,1,2,1:2:0:0:
246,252,169752,1,2,3:2:0:0:
146,192,169967,1,10,2:2:0:0:
53,262,170181,2,0,L|42:166,1,89.2874625902816,2|0,3:2|1:2,0:0:0:0:
18,33,170610,6,0,B|74:19|103:47|103:47|130:76|187:61,1,178.159358513897,2|2,3:2|3:2,0:0:0:0:
297,30,171252,1,2,1:2:0:0:
368,121,171467,1,8,2:2:0:0:
463,54,171681,2,0,L|473:149,1,89.2874625902816,10|2,2:2|3:2,0:0:0:0:
366,238,172110,6,0,B|294:231|294:231|266:210|266:210|184:199,1,178.159358513897,2|10,1:2|2:2,0:0:0:0:
104,137,172752,1,0,3:2:0:0:
104,137,172967,2,0,P|85:197|113:256,1,89.2874625902816,2|0,1:2|3:2,0:0:0:0:
165,309,173395,2,0,L|260:319,1,89.2874625902816,10|0,2:2|3:2,0:0:0:0:
362,226,173824,6,0,B|396:260|396:260|398:356,2,133.723410552088,2|2|2,1:2|2:2|3:2,0:0:0:0:
247,202,174681,2,0,P|246:161|231:109,1,89.2874625902816,12|10,2:0|2:3,0:0:0:0:
286,12,175110,1,14,2:0:0:0:
507,80,175538,6,0,L|497:176,1,89.2874625902816,6|0,1:2|3:2,0:0:0:0:
404,236,175967,2,0,L|414:332,1,89.2874625902816,10|0,2:2|3:2,0:0:0:0:
314,383,176395,1,2,1:2:0:0:
314,383,176610,1,2,3:2:0:0:
251,285,176824,1,10,2:2:0:0:
153,348,177038,2,0,P|91:360|35:326,1,89.2874625902816,2|0,3:2|1:2,0:0:0:0:
5,261,177467,5,2,3:2:0:0:
5,261,177681,1,10,2:2:0:0:
12,145,177895,2,0,L|22:49,1,89.2874625902816,2|0,3:2|1:2,0:0:0:0:
126,8,178324,1,10,2:2:0:0:
200,103,178538,1,10,2:2:0:0:
200,103,178752,1,2,3:2:0:0:
314,18,178967,6,0,P|376:6|432:40,1,89.2874625902816,2|0,1:2|3:2,0:0:0:0:
479,97,179395,2,0,L|470:192,1,89.2874625902816,10|0,2:2|3:2,0:0:0:0:
371,245,179824,2,0,L|379:340,1,89.2874625902816,2|0,1:2|3:2,0:0:0:0:
271,378,180252,2,0,P|227:386|185:373,1,89.2874625902816,10|0,2:2|3:2,0:0:0:0:
52,319,180681,6,0,P|41:220|26:122,1,178.159358513896,2|8,1:2|2:2,0:0:0:0:
70,36,181324,1,2,3:2:0:0:
70,36,181538,2,0,P|112:22|155:31,1,89.2874625902816,2|8,1:2|2:2,0:0:0:0:
223,123,181967,1,8,2:2:0:0:
133,197,182181,1,8,2:2:0:0:
193,325,182395,6,0,L|288:333,1,89.2874625902816,2|0,1:2|3:2,0:0:0:0:
386,381,182824,2,0,L|481:373,1,89.2874625902816,10|0,2:2|3:2,0:0:0:0:
511,266,183252,1,2,1:2:0:0:
511,266,183467,1,2,3:2:0:0:
423,189,183681,1,10,2:2:0:0:
471,83,183895,2,0,P|429:69|386:78,1,89.2874625902816,2|0,3:2|1:2,0:0:0:0:
305,160,184324,5,2,3:2:0:0:
305,160,184538,1,10,2:2:0:0:
216,85,184752,2,0,P|174:71|131:80,1,89.2874625902816,2|0,3:2|1:2,0:0:0:0:
35,146,185181,1,10,2:2:0:0:
81,251,185395,2,0,P|86:291|82:345,1,89.2874625902816,8|0,2:2|3:2,0:0:0:0:
221,373,185824,6,0,L|316:365,1,89.2874625902816,0|0,1:2|3:2,0:0:0:0:
365,263,186252,2,0,L|460:271,1,89.2874625902816,8|0,2:2|3:2,0:0:0:0:
498,163,186681,2,0,P|507:85|418:27,1,178.159358513896,0|10,1:2|2:2,0:0:0:0:
339,90,187324,1,2,3:2:0:0:
339,90,187538,6,0,B|264:82|264:82|234:60|234:60|147:48,1,185.155494355774,2|2,2:2|2:2,0:0:0:0:
53,44,188395,1,2,2:2:0:0:
256,192,188502,12,12,190538,2:2:0:0:
25,358,190967,6,0,P|138:329|227:336,1,152.120693712647,6|10,1:2|2:2,0:0:0:0:
253,270,191610,1,0,3:2:0:0:
253,270,191824,2,0,L|246:170,1,76.2377618563235,2|2,1:2|3:2,0:0:0:0:
184,117,192252,1,10,2:2:0:0:
281,99,192467,2,0,B|320:83|355:98|355:102|355:110|388:138|461:100,1,152.120693712647,2|2,3:2|3:2,0:0:0:0:
499,181,193110,6,0,P|496:222|479:267,1,76.2377618563235,10|2,2:2|3:2,0:0:0:0:
397,301,193538,2,0,P|400:342|417:387,1,76.2377618563235,2|10,1:2|3:2,0:0:0:0:
509,383,193967,1,10,2:2:0:0:
315,340,194395,6,0,P|224:341|172:402,1,152.120693712647,2|10,1:2|2:2,0:0:0:0:
107,322,195038,1,0,3:2:0:0:
107,322,195252,2,0,P|58:319|15:304,1,76.2377618563235,2|2,1:2|3:2,0:0:0:0:
3,216,195681,1,10,2:2:0:0:
81,155,195895,2,0,B|85:92|85:92|96:66|96:66|104:-17,1,152.120693712647,2|2,3:2|3:2,0:0:0:0:
183,61,196538,6,0,P|224:72|281:63,1,76.2377618563235,10|2,2:2|3:2,0:0:0:0:
351,34,196967,1,2,1:2:0:0:
351,34,197181,1,10,3:2:0:0:
427,104,197395,1,10,2:2:0:0:
427,104,197610,1,10,3:2:0:0:
336,144,197824,6,0,P|337:234|364:306,1,152.120693712647,2|10,1:2|2:2,0:0:0:0:
291,367,198467,1,0,3:2:0:0:
291,367,198681,2,0,L|192:356,1,76.2377618563235,2|2,1:2|3:2,0:0:0:0:
140,294,199110,1,10,2:2:0:0:
73,366,199324,2,0,P|43:274|80:218,1,152.120693712647,2|2,3:2|3:2,0:0:0:0:
160,198,199967,2,0,L|151:104,1,76.2377618563235,10|2,2:2|3:2,0:0:0:0:
201,35,200395,2,0,P|234:25|297:40,1,76.2377618563235,2|10,1:2|3:2,0:0:0:0:
350,93,200824,1,10,2:2:0:0:
508,210,201252,6,0,L|493:388,1,152.120693712647,2|10,1:2|2:2,0:0:0:0:
399,368,201895,1,0,3:2:0:0:
399,368,202110,2,0,P|348:374|305:366,1,76.2377618563235,2|2,1:2|3:2,0:0:0:0:
268,288,202538,1,10,2:2:0:0:
346,227,202752,2,0,P|284:156|208:163,1,152.120693712647,2|10,3:2|2:3,0:0:0:0:
162,225,203395,6,0,P|125:238|50:233,1,76.2377618563235,14|6,2:0|2:3,0:0:0:0:
0,219,203824,1,14,2:2:0:0:
0,219,204038,1,8,2:3:0:0:
21,315,204252,1,12,2:2:0:0:
211,250,204681,6,0,P|204:188|181:71,1,152.120693712647,6|10,1:2|2:2,0:0:0:0:
245,19,205324,1,0,3:2:0:0:
245,19,205538,2,0,P|288:9|356:17,1,76.2377618563235,2|2,1:2|3:2,0:0:0:0:
403,62,205967,1,10,2:2:0:0:
353,147,206181,6,0,B|348:207|348:207|337:233|337:233|333:296,1,152.120693712647,2|2,3:2|3:2,0:0:0:0:
239,326,206824,2,0,P|227:293|226:226,1,76.2377618563235,10|2,2:2|3:2,0:0:0:0:
155,180,207252,2,0,L|55:164,1,76.2377618563235,2|10,1:2|3:2,0:0:0:0:
4,231,207681,1,10,2:2:0:0:
149,365,208110,6,0,L|346:372,1,152.120693712647,2|10,1:2|2:2,0:0:0:0:
368,303,208752,1,0,3:2:0:0:
368,303,208967,2,0,P|354:267|355:213,1,76.2377618563235,2|2,1:2|3:2,0:0:0:0:
410,149,209395,1,10,2:2:0:0:
362,63,209610,6,0,B|323:47|288:62|288:66|288:74|255:102|182:64,1,152.120693712647,2|2,3:2|3:2,0:0:0:0:
149,5,210252,2,0,P|106:12|66:42,1,76.2377618563235,10|2,2:2|3:2,0:0:0:0:
10,107,210681,1,2,1:2:0:0:
10,107,210895,1,10,3:2:0:0:
97,151,211110,1,10,2:2:0:0:
97,151,211324,1,10,3:2:0:0:
33,226,211538,6,0,B|39:286|39:286|50:312|50:312|54:375,1,152.120693712647,2|10,1:2|2:2,0:0:0:0:
150,378,212181,1,0,3:2:0:0:
150,378,212395,2,0,P|188:367|256:360,1,76.2377618563235,2|2,1:2|3:2,0:0:0:0:
322,378,212824,1,10,2:2:0:0:
391,306,213038,2,0,P|401:219|337:179,1,152.120693712647,2|2,3:2|3:2,0:0:0:0:
265,146,213681,6,0,L|275:59,1,76.2377618563235,10|2,2:2|3:2,0:0:0:0:
188,23,214110,2,0,L|180:98,1,76.2377618563235,2|10,1:2|3:2,0:0:0:0:
127,182,214538,1,10,2:2:0:0:
274,314,214967,6,0,P|381:309|404:259,1,152.120693712647,2|10,1:2|2:2,0:0:0:0:
461,209,215610,1,0,3:2:0:0:
461,209,215824,2,0,L|452:121,1,76.2377618563235,2|2,1:2|3:2,0:0:0:0:
380,66,216252,1,10,2:2:0:0:
357,161,216467,6,0,L|362:215,2,38.1188809281616,0|0|2,3:2|3:2|1:2,0:0:0:0:
263,223,216895,1,8,2:2:0:0:
247,247,217002,1,10,2:2:0:0:
239,275,217110,1,8,2:2:0:0:
241,304,217217,1,8,2:2:0:0:
252,331,217324,1,2,3:2:0:0:
341,288,217538,5,14,2:2:0:0:
130,198,217967,1,12,2:2:0:0:
