osu file format v14

[General]
AudioFilename: ito.mp3
AudioLeadIn: 0
PreviewTime: 69609
Countdown: 0
SampleSet: None
StackLeniency: 0.4
Mode: 0
LetterboxInBreaks: 0
WidescreenStoryboard: 1

[Editor]
Bookmarks: 33028,57802,70190,94964,132125,150706,159996,170448,181673,189996,209544
DistanceSpacing: 0.6
BeatDivisor: 4
GridSize: 32
TimelineZoom: 2.7

[Metadata]
Title:Kyouhansha
TitleUnicode:共犯者
Artist:Ito Kashitaro
ArtistUnicode:伊東歌詞太郎
Creator:Vad2009
Version:Hard
Source:
Tags:Conspirators, Karasuyasabou, Don, utaite, カラスヤサボウ , どん, 共犯者
BeatmapID:1801085
BeatmapSetID:860842

[Difficulty]
HPDrainRate:5
CircleSize:3.5
OverallDifficulty:7
ApproachRate:8
SliderMultiplier:2.4
SliderTickRate:1

[Events]
//Background and Video events
0,0,"d.jpg",0,0
//Break Periods
2,95164,99246
2,160196,171633
//Storyboard Layer 0 (Background)
//Storyboard Layer 1 (Fail)
//Storyboard Layer 2 (Pass)
//Storyboard Layer 3 (Foreground)
//Storyboard Sound Samples

[TimingPoints]
2061,387.096774193548,4,3,1,70,1,0
5157,-166.666666666667,4,3,1,70,0,0
7480,-250,4,3,1,70,0,0
7867,-166.666666666667,4,3,1,70,0,0
8157,-166.666666666667,4,3,1,5,0,0
8254,-125,4,3,1,70,0,0
10770,-250,4,3,1,70,0,0
11351,-125,4,3,1,70,0,0
16577,-166.666666666667,4,3,1,70,0,0
16964,-250,4,3,1,70,0,0
17544,-125,4,3,1,70,0,0
23157,-250,4,3,1,70,0,0
23738,-125,4,3,1,70,0,0
27802,-250,4,3,1,70,0,0
28383,-125,4,3,1,70,0,0
29931,-100,4,3,1,70,0,0
32254,-250,4,3,1,70,0,0
32641,-125,4,3,1,70,0,0
33028,-166.666666666667,4,3,1,70,0,0
57802,-100,4,3,1,70,0,0
58383,-166.666666666667,4,3,1,70,0,0
60899,-100,4,3,1,70,0,0
61480,-166.666666666667,4,3,1,70,0,0
70190,-125,4,3,1,70,0,0
91867,-100,4,3,1,70,0,0
93222,-166.666666666667,4,3,1,70,0,0
101157,-125,4,3,1,70,0,0
104254,-100,4,3,1,70,0,0
106190,-125,4,3,1,70,0,0
129028,-100,4,3,1,70,0,0
132125,-166.666666666667,4,3,1,70,0,0
144512,-125,4,3,1,70,0,0
150706,-250,4,3,1,70,0,0
153802,-125,4,3,1,70,0,0
184770,-100,4,3,1,70,0,1
209544,-125,4,3,1,70,0,0
218641,-250,4,3,1,70,0,0
219028,-250,4,3,1,30,0,0

[Colours]
Combo1 : 198,0,0
Combo2 : 219,206,174
Combo3 : 255,167,34

[HitObjects]
205,259,2060,6,0,P|215:290|218:320,1,60,8|8,2:3|2:3,0:0:0:0:
232,276,2254,2,0,P|234:308|229:338,1,60,8|2,2:3|2:3,0:0:0:0:
234,216,2641,6,0,P|235:249|230:278,1,60,8|8,2:3|2:3,0:0:0:0:
255,239,2835,2,0,P|248:271|236:298,1,60,8|2,2:3|2:3,0:0:0:0:
273,181,3222,6,0,P|265:213|253:240,1,60,8|8,2:3|2:3,0:0:0:0:
287,208,3416,2,0,P|272:237|253:260,1,60,8|2,2:3|2:3,0:0:0:0:
319,157,3803,6,0,P|303:186|284:209,1,60,8|8,2:3|2:3,0:0:0:0:
326,187,3996,2,0,P|304:211|280:228,1,60,8|2,2:3|2:3,0:0:0:0:
333,332,4383,5,0,2:3:0:0:
417,292,4577,1,8,2:3:0:0:
417,292,4673,1,8,2:3:0:0:
417,292,4770,2,0,L|423:221,3,60,8|8|8|0,2:3|2:3|2:3|2:3,0:0:0:0:
425,196,5157,6,0,B|405:118|405:118|395:151,1,107.999996704102,2|2,2:3|2:3,0:0:0:0:
444,163,5738,2,0,B|374:121|374:121|390:152,1,107.999996704102,2|2,2:3|2:3,0:0:0:0:
434,126,6319,2,0,B|356:145|356:145|388:155,1,107.999996704102,2|2,2:3|2:3,0:0:0:0:
400,106,6899,2,0,B|358:175|358:175|389:159,1,107.999996704102,2|2,2:3|2:3,0:0:0:0:
411,186,7480,6,0,L|405:214,3,24,0|0|0|0,2:3|2:3|2:3|2:3,0:0:0:0:
401,230,7867,2,0,P|352:237|339:293,1,107.999996704102,0|0,2:3|0:0,0:0:0:0:
385,348,8254,6,0,L|240:321,1,144,4|0,2:3|2:3,0:0:0:0:
215,316,8641,1,8,2:3:0:0:
124,231,8835,2,0,P|119:181|145:140,1,96,2|0,2:3|2:3,0:0:0:0:
244,67,9222,1,2,2:3:0:0:
257,233,9415,2,0,L|265:334,1,96,8|2,2:3|2:3,0:0:0:0:
420,80,9802,6,0,B|372:92|372:92|270:68,1,144,0|0,2:3|2:3,0:0:0:0:
251,63,10190,1,8,2:3:0:0:
360,235,10383,2,0,P|401:203|418:156,1,96,2|0,2:3|2:3,0:0:0:0:
290,297,10770,2,0,L|277:277,5,24,2|0|8|0|2|0,2:3|2:3|2:3|2:3|2:3|2:3,0:0:0:0:
260,253,11351,6,0,P|194:264|145:329,1,144,4|0,2:3|2:3,0:0:0:0:
140,349,11738,1,8,2:3:0:0:
275,238,11931,2,0,L|261:142,1,96,2|0,2:3|2:3,0:0:0:0:
163,72,12319,1,2,2:3:0:0:
340,101,12512,2,0,L|353:195,1,96,8|2,2:3|2:3,0:0:0:0:
284,356,12899,5,0,2:3:0:0:
191,249,13093,2,0,L|158:295,2,48,10|8|0,2:3|2:3|2:3,0:0:0:0:
136,123,13480,2,0,L|112:71,2,48,10|8|0,2:3|2:3|2:3,0:0:0:0:
273,138,13867,2,0,L|329:142,5,48,10|8|8|8|10|8,2:3|2:3|2:3|2:3|2:3|2:3,0:0:0:0:
348,133,14448,6,0,P|363:201|408:267,1,144,4|0,2:3|2:3,0:0:0:0:
425,280,14835,1,8,2:3:0:0:
289,258,15028,2,0,P|241:263|192:279,1,96,2|0,2:3|2:3,0:0:0:0:
63,350,15415,1,2,2:3:0:0:
112,136,15609,2,0,L|128:234,1,96,8|2,2:3|2:3,0:0:0:0:
233,53,15996,6,0,L|217:151,1,96,0|2,2:3|0:0,0:0:0:0:
187,317,16383,1,8,2:3:0:0:
109,178,16577,2,0,P|84:146|82:191,1,107.999996704102,2|0,2:3|0:0,0:0:0:0:
85,210,16964,2,0,L|90:233,5,24,2|0|8|0|2|0,2:3|2:3|2:3|2:3|2:3|2:3,0:0:0:0:
88,261,17544,6,0,L|245:239,1,144,0|0,2:3|2:3,0:0:0:0:
259,237,17931,1,8,2:3:0:0:
238,372,18125,2,0,P|198:345|175:296,1,96,2|0,2:3|2:3,0:0:0:0:
195,137,18512,1,2,2:3:0:0:
262,289,18706,1,8,2:3:0:0:
284,191,18899,1,2,2:3:0:0:
74,220,19093,5,0,2:3:0:0:
80,94,19286,2,0,P|94:69|101:39,1,48,2|0,2:3|2:3,0:0:0:0:
110,23,19480,2,0,P|111:112|82:210,1,192,12|0,2:3|2:3,0:0:0:0:
178,348,20060,1,10,2:3:0:0:
190,337,20156,1,8,2:3:0:0:
200,325,20253,1,8,2:3:0:0:
208,311,20350,1,8,2:3:0:0:
214,296,20447,1,10,2:3:0:0:
217,281,20543,1,8,2:3:0:0:
218,265,20641,6,0,B|202:215|202:215|236:125,1,144,4|0,2:3|2:3,0:0:0:0:
246,103,21028,1,8,2:3:0:0:
391,208,21222,2,0,P|343:227|293:219,1,96,2|0,2:3|2:3,0:0:0:0:
144,131,21609,1,2,2:3:0:0:
354,48,21802,2,0,L|334:142,1,96,8|2,2:3|2:3,0:0:0:0:
441,272,22190,6,0,P|377:302|292:303,1,144,0|0,2:3|2:3,0:0:0:0:
277,296,22577,1,8,2:3:0:0:
420,183,22770,2,0,B|438:136|438:136|428:82,1,96,2|0,2:3|2:3,0:0:0:0:
290,199,23157,2,0,L|287:231,5,24,2|0|8|0|2|0,2:3|2:3|2:3|2:3|2:3|2:3,0:0:0:0:
296,249,23738,6,0,B|250:244|250:244|152:282,1,144,0|0,2:3|2:3,0:0:0:0:
132,290,24125,1,8,2:3:0:0:
152,121,24319,2,0,P|175:165|184:223,1,96,2|0,2:3|2:3,0:0:0:0:
212,352,24706,1,2,2:3:0:0:
277,192,24899,1,8,2:3:0:0:
370,176,25093,1,2,2:3:0:0:
189,160,25286,5,0,2:3:0:0:
378,223,25480,2,0,L|370:176,2,48,10|8|0,2:3|2:3|2:3,0:0:0:0:
261,135,25867,2,0,L|269:182,2,48,10|8|0,2:3|2:3|2:3,0:0:0:0:
201,302,26254,2,0,L|193:255,5,48,10|8|8|8|10|8,2:3|2:3|2:3|2:3|2:3|2:3,0:0:0:0:
167,267,26835,6,0,P|112:212|141:108,1,192,4|8,2:3|2:3,0:0:0:0:
221,67,27415,2,0,P|148:72|79:36,1,144,2|0,2:3|0:0,0:0:0:0:
73,33,27802,2,0,L|69:60,5,24,2|0|8|0|2|0,2:3|2:3|2:3|2:3|2:3|2:3,0:0:0:0:
66,85,28383,6,0,P|123:136|100:242,1,192,0|8,2:3|2:3,0:0:0:0:
34,306,28964,2,0,P|93:262|172:259,1,144,2|0,2:3|0:0,0:0:0:0:
188,265,29351,1,2,2:3:0:0:
355,134,29544,1,8,2:3:0:0:
248,169,29738,1,2,2:3:0:0:
450,217,29931,6,0,P|449:251|437:281,1,60,8|8,2:3|2:3,0:0:0:0:
470,244,30125,2,0,P|460:276|440:302,1,60,8|2,2:3|2:3,0:0:0:0:
329,357,30512,6,0,P|330:323|342:293,1,60,8|8,2:3|2:3,0:0:0:0:
309,330,30706,2,0,P|318:297|338:271,1,60,8|2,2:3|2:3,0:0:0:0:
466,235,31093,6,0,P|456:267|436:293,1,60,8|8,2:3|2:3,0:0:0:0:
478,266,31287,2,0,P|460:294|434:314,1,60,8|2,2:3|2:3,0:0:0:0:
312,338,31674,6,0,P|322:306|342:280,1,60,8|8,2:3|2:3,0:0:0:0:
300,307,31868,2,0,P|317:278|343:258,1,60,8|2,2:3|2:3,0:0:0:0:
211,364,32254,6,0,L|186:369,3,24,0|0|0|0,2:3|2:3|2:3|2:3,0:0:0:0:
158,372,32641,2,0,P|166:302|152:221,1,144,0|0,2:3|2:3,0:0:0:0:
123,159,33028,6,0,L|193:128,1,71.9999978027344,4|0,2:3|2:3,0:0:0:0:
203,105,33319,2,0,L|273:74,1,71.9999978027344,0|0,2:3|0:0,0:0:0:0:
283,51,33609,2,0,L|274:127,1,71.9999978027344,0|2,2:3|2:3,0:0:0:0:
263,213,33996,1,0,2:3:0:0:
379,174,34190,1,8,2:3:0:0:
403,259,34383,1,0,2:3:0:0:
427,344,34577,6,0,P|387:346|345:359,1,71.9999978027344,0|0,2:3|2:3,0:0:0:0:
332,338,34867,2,0,P|293:350|256:373,1,71.9999978027344,0|0,2:3|0:0,0:0:0:0:
234,366,35157,2,0,P|242:326|240:282,1,71.9999978027344,0|2,2:3|2:3,0:0:0:0:
225,215,35544,1,0,2:3:0:0:
350,238,35738,1,8,2:3:0:0:
453,140,35931,1,2,2:3:0:0:
453,140,36028,1,2,2:3:0:0:
453,140,36125,6,0,B|428:140|428:140|370:114,1,71.9999978027344,2|0,2:3|2:3,0:0:0:0:
358,122,36415,2,0,B|333:122|333:122|290:102,1,71.9999978027344,0|0,2:3|0:0,0:0:0:0:
263,104,36706,2,0,B|275:125|275:125|280:172,1,71.9999978027344,0|2,2:3|2:3,0:0:0:0:
291,255,37093,1,0,2:3:0:0:
206,348,37286,1,8,2:3:0:0:
177,264,37480,1,0,2:3:0:0:
148,180,37673,6,0,L|166:97,1,71.9999978027344,0|0,2:3|2:3,0:0:0:0:
181,92,37964,2,0,L|199:9,1,71.9999978027344,0|0,2:3|0:0,0:0:0:0:
220,24,38254,2,0,L|298:37,1,71.9999978027344,0|2,2:3|2:3,0:0:0:0:
331,103,38641,1,2,2:3:0:0:
355,99,38738,1,2,2:3:0:0:
379,95,38835,2,0,P|402:101|423:111,3,35.9999989013672,2|2|2|0,2:3|2:3|2:3|0:0,0:0:0:0:
427,123,39222,6,0,P|421:164|426:204,1,71.9999978027344,0|0,2:3|2:3,0:0:0:0:
434,220,39512,2,0,P|436:255|430:291,1,71.9999978027344,0|0,2:3|0:0,0:0:0:0:
417,317,39802,2,0,P|389:294|356:278,1,71.9999978027344,0|2,2:3|2:3,0:0:0:0:
274,269,40190,1,0,2:3:0:0:
156,322,40383,1,8,2:3:0:0:
101,248,40577,1,0,2:3:0:0:
114,156,40770,6,0,B|154:152|154:152|188:135,1,71.9999978027344,0|0,2:3|2:3,0:0:0:0:
198,120,41060,2,0,B|226:105|226:105|266:101,1,71.9999978027344,0|0,2:3|0:0,0:0:0:0:
290,88,41351,2,0,B|291:119|291:119|308:156,1,71.9999978027344,0|2,2:3|2:3,0:0:0:0:
350,225,41738,1,0,2:3:0:0:
403,335,41931,1,8,2:3:0:0:
443,207,42125,1,2,2:3:0:0:
443,207,42222,1,2,2:3:0:0:
443,207,42319,6,0,L|450:123,1,71.9999978027344,2|0,2:3|2:3,0:0:0:0:
441,116,42609,2,0,L|448:32,1,71.9999978027344,0|0,2:3|0:0,0:0:0:0:
439,25,42899,2,0,L|362:60,1,71.9999978027344,0|2,2:3|2:3,0:0:0:0:
301,93,43286,1,0,2:3:0:0:
182,60,43480,1,8,2:3:0:0:
210,155,43673,1,0,2:3:0:0:
177,276,43867,6,0,P|227:285|229:334,1,107.999996704102,2|2,2:3|2:3,0:0:0:0:
234,267,44448,2,0,P|259:311|222:344,1,107.999996704102,2|2,2:3|2:3,0:0:0:0:
378,198,45028,5,8,2:3:0:0:
387,182,45124,1,8,2:3:0:0:
394,166,45221,1,8,2:3:0:0:
398,148,45318,1,8,2:3:0:0:
398,130,45415,6,0,P|361:121|329:100,1,71.9999978027344,4|0,2:3|2:3,0:0:0:0:
317,81,45706,2,0,P|286:62|251:54,1,71.9999978027344,0|0,2:3|0:0,0:0:0:0:
230,73,45996,2,0,P|205:99|174:116,1,71.9999978027344,0|2,2:3|2:3,0:0:0:0:
95,135,46383,1,0,2:3:0:0:
172,233,46577,2,0,L|158:306,1,71.9999978027344,8|0,2:3|2:3,0:0:0:0:
289,284,46964,6,0,L|301:213,1,71.9999978027344,0|0,2:3|2:3,0:0:0:0:
317,195,47254,2,0,L|329:124,1,71.9999978027344,0|0,2:3|0:0,0:0:0:0:
345,106,47544,2,0,L|400:152,1,71.9999978027344,0|2,2:3|2:3,0:0:0:0:
465,203,47931,1,0,2:3:0:0:
388,303,48125,1,8,2:3:0:0:
325,202,48319,1,2,2:3:0:0:
325,202,48415,1,2,2:3:0:0:
325,202,48512,6,0,P|288:213|254:233,1,71.9999978027344,2|0,2:3|2:3,0:0:0:0:
247,254,48802,2,0,P|215:271|181:281,1,71.9999978027344,0|0,2:3|0:0,0:0:0:0:
156,281,49093,2,0,P|155:245|146:210,1,71.9999978027344,0|2,2:3|2:3,0:0:0:0:
117,137,49480,1,0,2:3:0:0:
238,100,49673,2,0,P|250:66|254:30,1,71.9999978027344,8|0,2:3|2:3,0:0:0:0:
355,113,50060,6,0,L|368:186,1,71.9999978027344,0|0,2:3|2:3,0:0:0:0:
382,205,50351,2,0,L|395:278,1,71.9999978027344,0|0,2:3|0:0,0:0:0:0:
409,297,50641,2,0,L|339:271,1,71.9999978027344,0|2,2:3|2:3,0:0:0:0:
256,241,51028,1,2,2:3:0:0:
229,238,51124,1,2,2:3:0:0:
202,240,51222,2,0,L|167:252,3,35.9999989013672,2|2|2|0,2:3|2:3|2:3|0:0,0:0:0:0:
149,263,51609,6,0,P|133:228|128:183,1,71.9999978027344,0|0,2:3|2:3,0:0:0:0:
135,169,51899,2,0,P|129:133|113:101,1,71.9999978027344,0|0,2:3|0:0,0:0:0:0:
98,78,52190,2,0,P|135:70|180:76,1,71.9999978027344,0|2,2:3|2:3,0:0:0:0:
250,99,52577,1,0,2:3:0:0:
374,74,52770,2,0,P|400:42|412:3,1,71.9999978027344,8|0,2:3|2:3,0:0:0:0:
287,50,53157,6,0,L|279:132,1,71.9999978027344,0|0,2:3|2:3,0:0:0:0:
288,141,53448,2,0,L|280:223,1,71.9999978027344,0|0,2:3|0:0,0:0:0:0:
289,232,53738,2,0,L|364:197,1,71.9999978027344,0|2,2:3|2:3,0:0:0:0:
432,169,54125,1,0,2:3:0:0:
408,293,54319,1,8,2:3:0:0:
291,339,54512,1,2,2:3:0:0:
291,339,54609,1,2,2:3:0:0:
291,339,54706,6,0,P|251:330|216:309,1,71.9999978027344,2|0,2:3|2:3,0:0:0:0:
199,323,54996,2,0,P|177:289|167:249,1,71.9999978027344,0|0,2:3|0:0,0:0:0:0:
145,246,55286,2,0,P|153:206|174:171,1,71.9999978027344,0|2,2:3|2:3,0:0:0:0:
226,121,55673,1,0,2:3:0:0:
341,92,55867,1,8,2:3:0:0:
189,44,56060,6,0,P|123:37|58:103,1,143.999995605469,4|0,2:3|2:3,0:0:0:0:
25,202,56641,1,8,2:3:0:0:
159,198,56835,1,0,2:3:0:0:
155,215,56932,1,0,2:3:0:0:
152,232,57028,2,0,P|176:232|197:236,3,35.9999989013672,0|0|8|8,2:3|2:3|2:3|2:3,0:0:0:0:
208,246,57415,2,0,P|225:262|239:281,3,35.9999989013672,8|8|8|8,2:3|2:3|2:3|2:3,0:0:0:0:
167,310,57802,6,0,P|256:301|351:332,1,180,2|2,2:3|2:3,0:0:0:0:
99,225,58383,2,0,L|70:371,1,143.999995605469,2|0,2:3|2:3,0:0:0:0:
171,315,58964,1,8,2:3:0:0:
167,172,59254,1,8,2:3:0:0:
167,172,59351,2,0,L|211:164,4,35.9999989013672,0|8|8|8|4,2:3|2:3|2:3|2:3|2:3,0:0:0:0:
69,189,59931,5,0,2:3:0:0:
77,163,60027,1,0,2:3:0:0:
80,137,60125,2,0,L|72:93,3,35.9999989013672,0|8|8|8,2:3|2:3|2:3|2:3,0:0:0:0:
54,63,60512,2,0,L|62:19,3,35.9999989013672,8|8|0|0,2:3|2:3|2:3|2:3,0:0:0:0:
75,2,60899,6,0,P|151:42|253:43,1,180,2|2,2:3|2:3,0:0:0:0:
422,123,61480,2,0,B|382:115|382:115|320:14,1,143.999995605469,2|0,2:3|2:3,0:0:0:0:
290,135,62060,1,8,2:3:0:0:
387,201,62254,1,0,2:3:0:0:
385,218,62350,1,0,2:3:0:0:
383,236,62448,6,0,L|379:278,3,35.9999989013672,0|8|8|0,2:3|2:3|2:3|2:3,0:0:0:0:
366,284,62835,2,0,L|333:310,3,35.9999989013672,8|8|0|8,2:3|2:3|2:3|2:3,0:0:0:0:
319,306,63222,2,0,L|277:302,3,35.9999989013672,0|0|8|8,2:3|2:3|2:3|2:3,0:0:0:0:
270,289,63609,2,0,L|243:256,3,35.9999989013672,0|8|8|8,2:3|2:3|2:3|2:3,0:0:0:0:
234,243,63996,6,0,P|263:192|239:98,1,143.999995605469,4|8,2:3|2:3,0:0:0:0:
169,169,64577,2,0,L|97:159,1,71.9999978027344,0|2,2:3|2:3,0:0:0:0:
139,262,64964,1,0,2:3:0:0:
198,372,65157,1,8,2:3:0:0:
242,251,65351,1,0,2:3:0:0:
242,251,65448,1,8,2:3:0:0:
242,251,65544,6,0,B|275:244|275:244|348:264,1,107.999996704102,0|0,2:3|2:3,0:0:0:0:
367,269,65931,1,8,2:3:0:0:
350,180,66125,2,0,L|329:103,1,71.9999978027344,0|2,2:3|2:3,0:0:0:0:
203,26,66512,1,0,2:3:0:0:
79,63,66706,1,8,2:3:0:0:
220,120,66899,1,0,2:3:0:0:
220,120,66996,1,0,2:3:0:0:
220,120,67093,6,0,L|201:189,1,71.9999978027344,0|0,2:3|2:3,0:0:0:0:
163,313,67480,1,8,2:3:0:0:
313,264,67673,1,4,2:3:0:0:
97,145,68060,2,0,B|74:142|74:142|59:125|59:125|61:99,2,71.9999978027344,0|0|0,2:3|2:3|2:3,0:0:0:0:
97,145,69415,5,0,2:3:0:0:
102,162,69511,1,0,2:3:0:0:
107,179,69609,2,0,L|98:226,5,35.9999989013672,8|8|8|0|0|8,2:3|2:3|2:3|0:0|0:0|2:3,0:0:0:0:
87,290,70190,6,0,P|137:280|194:283,1,96,4|2,2:3|2:3,0:0:0:0:
181,281,70480,1,0,2:3:0:0:
181,281,70577,1,8,2:3:0:0:
320,313,70770,1,2,2:3:0:0:
359,180,70964,2,0,P|311:192|270:227,1,96,0|2,2:3|2:3,0:0:0:0:
228,54,71351,2,0,P|202:96|198:150,1,96,8|2,2:3|2:3,0:0:0:0:
243,308,71738,6,0,P|268:267|274:220,1,96,0|2,2:3|2:3,0:0:0:0:
274,220,72028,1,0,2:3:0:0:
274,220,72125,1,0,2:3:0:0:
209,111,72319,1,0,2:3:0:0:
77,167,72512,2,0,L|94:268,1,96,0|2,2:3|2:3,0:0:0:0:
237,350,72899,2,0,L|253:255,1,96,8|2,2:3|2:3,0:0:0:0:
263,245,73190,1,0,0:0:0:0:
273,235,73286,6,0,L|257:140,1,96,0|2,2:3|2:3,0:0:0:0:
153,32,73673,1,8,2:3:0:0:
262,49,73867,2,0,P|312:63|356:97,1,96,2|0,2:3|2:3,0:0:0:0:
418,177,74254,1,2,2:3:0:0:
274,141,74448,2,0,L|173:163,1,96,8|2,2:3|2:3,0:0:0:0:
30,119,74835,5,0,2:3:0:0:
105,253,75028,2,0,L|150:235,2,48,10|8|0,2:3|2:3|2:3,0:0:0:0:
183,122,75415,2,0,L|221:152,2,48,10|8|0,2:3|2:3|2:3,0:0:0:0:
335,125,75802,2,0,L|328:173,5,48,10|8|8|8|8|8,2:3|2:3|2:3|2:3|2:3|2:3,0:0:0:0:
324,202,76383,6,0,P|273:221|234:253,1,96,4|2,2:3|2:3,0:0:0:0:
240,246,76673,1,0,2:3:0:0:
240,246,76770,1,8,2:3:0:0:
175,359,76964,1,2,2:3:0:0:
57,284,77157,2,0,L|166:272,1,96,0|2,2:3|2:3,0:0:0:0:
306,203,77544,2,0,L|210:213,1,96,8|2,2:3|2:3,0:0:0:0:
99,101,77931,6,0,P|82:148|86:199,1,96,0|2,2:3|2:3,0:0:0:0:
84,193,78222,1,0,2:3:0:0:
84,193,78319,1,8,2:3:0:0:
183,300,78512,1,2,2:3:0:0:
280,168,78706,2,0,L|184:162,1,96,0|2,2:3|2:3,0:0:0:0:
53,65,79093,1,8,2:3:0:0:
104,217,79286,1,2,2:3:0:0:
104,217,79383,1,0,0:0:0:0:
104,217,79480,6,0,P|122:257|118:318,1,96,0|2,2:3|2:3,0:0:0:0:
247,245,79867,2,0,L|359:237,1,96,8|2,2:3|2:3,0:0:0:0:
436,162,80254,1,0,2:3:0:0:
455,282,80448,1,2,2:3:0:0:
347,154,80641,2,0,P|299:137|262:98,1,96,8|2,2:3|2:3,0:0:0:0:
105,166,81028,6,0,B|139:196|139:196|121:295,1,144,0|0,2:3|2:3,0:0:0:0:
116,321,81415,1,12,2:3:0:0:
257,270,81609,1,0,2:3:0:0:
177,234,81802,1,0,2:3:0:0:
339,237,81996,1,10,2:3:0:0:
344,213,82092,1,8,2:3:0:0:
348,189,82190,2,0,L|358:140,3,48,8|8|0|0,2:3|2:3|0:0|0:0,0:0:0:0:
363,113,82577,6,0,P|312:111|261:93,1,96,4|2,2:3|2:3,0:0:0:0:
269,97,82867,1,0,2:3:0:0:
269,97,82964,1,8,2:3:0:0:
146,54,83157,1,2,2:3:0:0:
170,182,83351,2,0,L|152:282,1,96,0|2,2:3|2:3,0:0:0:0:
271,383,83738,2,0,L|253:288,1,96,8|2,2:3|2:3,0:0:0:0:
126,104,84125,6,0,P|87:155|80:196,1,96,0|2,2:3|2:3,0:0:0:0:
157,326,84512,1,8,2:3:0:0:
40,260,84706,1,2,2:3:0:0:
170,182,84899,2,0,P|220:172|262:142,1,96,0|2,2:3|2:3,0:0:0:0:
380,32,85286,2,0,L|398:134,1,96,8|2,2:3|2:3,0:0:0:0:
404,138,85577,1,2,2:3:0:0:
411,149,85673,6,0,L|392:251,1,96,0|2,2:3|2:3,0:0:0:0:
241,288,86060,2,0,P|262:239|303:205,1,96,8|2,2:3|2:3,0:0:0:0:
439,186,86448,1,0,2:3:0:0:
338,295,86641,1,2,2:3:0:0:
366,138,86835,2,0,P|362:90|380:42,1,96,8|2,2:3|2:3,0:0:0:0:
302,214,87222,5,0,2:3:0:0:
200,223,87415,2,0,P|176:212|156:192,2,48,10|8|0,2:3|2:3|2:3,0:0:0:0:
306,121,87802,2,0,P|308:146|301:174,2,48,10|8|0,2:3|2:3|2:3,0:0:0:0:
165,80,88190,2,0,P|186:65|213:57,5,48,10|8|8|8|10|8,2:3|2:3|2:3|2:3|2:3|2:3,0:0:0:0:
235,58,88770,6,0,P|282:74|341:70,1,96,4|2,2:3|2:3,0:0:0:0:
327,73,89060,1,0,2:3:0:0:
327,73,89157,1,8,2:3:0:0:
471,55,89351,1,2,2:3:0:0:
398,179,89544,2,0,L|385:275,1,96,0|2,2:3|2:3,0:0:0:0:
242,371,89931,2,0,L|255:275,1,96,8|2,2:3|2:3,0:0:0:0:
298,103,90319,5,0,2:3:0:0:
237,176,90512,1,2,2:3:0:0:
392,120,90706,1,8,2:3:0:0:
424,209,90899,1,2,2:3:0:0:
280,256,91093,2,0,P|246:219|237:170,1,96,0|2,2:3|2:3,0:0:0:0:
266,14,91480,1,8,2:3:0:0:
193,84,91673,1,2,2:3:0:0:
46,53,91867,6,0,P|33:167|137:152,1,240,4|2,2:3|2:3,0:0:0:0:
193,84,92448,2,0,P|298:90|275:193,1,240,4|2,2:3|2:3,0:0:0:0:
187,245,93028,1,2,2:3:0:0:
332,281,93222,6,0,P|402:291|455:345,1,143.999995605469,4|0,2:3|2:3,0:0:0:0:
499,238,93802,1,0,2:3:0:0:
461,133,93996,1,0,2:3:0:0:
359,85,94190,2,0,L|313:80,3,35.9999989013672,0|8|8|8,2:3|2:3|2:3|2:3,0:0:0:0:
303,89,94577,2,0,L|257:84,3,35.9999989013672,8|8|10|8,2:3|2:3|2:3|2:3,0:0:0:0:
247,93,94964,5,4,2:3:0:0:
93,290,99996,6,0,P|148:299|190:265,1,107.999996704102,0|0,2:3|2:3,0:0:0:0:
201,252,100383,1,2,2:3:0:0:
162,162,100577,2,0,P|155:145|154:124,4,35.9999989013672,2|0|2|0|2,2:3|2:3|2:3|2:3|2:3,0:0:0:0:
314,88,101157,5,2,2:3:0:0:
289,209,101351,1,2,2:3:0:0:
389,158,101738,5,2,2:3:0:0:
414,279,101932,1,0,2:3:0:0:
314,88,102319,5,0,2:3:0:0:
289,209,102513,1,2,2:3:0:0:
389,158,102900,5,2,2:3:0:0:
414,279,103094,1,0,0:0:0:0:
314,88,103480,6,0,L|265:84,3,48,0|0|8|8,2:3|2:3|2:3|2:3,0:0:0:0:
241,99,103867,2,0,L|193:102,3,48,8|8|8|8,2:3|2:3|2:3|2:3,0:0:0:0:
166,112,104254,6,0,P|155:143|152:173,1,60,8|8,2:3|2:3,0:0:0:0:
139,129,104448,2,0,P|136:161|141:191,1,60,8|2,2:3|2:3,0:0:0:0:
166,76,104835,6,0,P|148:103|137:132,1,60,8|8,2:3|2:3,0:0:0:0:
135,85,105029,2,0,P|124:116|121:145,1,60,8|2,2:3|2:3,0:0:0:0:
175,41,105415,6,0,P|150:63|132:87,1,60,8|8,2:3|2:3,0:0:0:0:
142,41,105609,2,0,P|123:68|113:96,1,60,8|2,2:3|2:3,0:0:0:0:
264,134,105996,5,0,2:3:0:0:
287,129,106092,1,0,2:3:0:0:
311,125,106190,2,0,L|302:172,3,48,8|8|0|0,2:3|2:3|2:3|2:3,0:0:0:0:
322,192,106577,2,0,L|282:219,3,48,12|8|8|8,2:3|2:3|2:3|2:3,0:0:0:0:
282,247,106964,2,0,L|234:238,3,48,8|8|8|8,2:3|2:3|2:3|2:3,0:0:0:0:
159,222,107351,5,4,2:3:0:0:
133,366,107544,1,0,0:0:0:0:
133,366,107641,1,0,2:3:0:0:
133,366,107738,2,0,P|121:314|93:272,1,96,8|2,2:3|2:3,0:0:0:0:
15,191,108125,1,0,2:3:0:0:
184,132,108319,1,2,2:3:0:0:
207,134,108415,1,0,2:3:0:0:
231,136,108512,2,0,L|282:140,3,48,8|0|2|0,2:3|2:3|2:3|2:3,0:0:0:0:
307,142,108899,6,0,L|406:129,1,96,0|2,2:3|2:3,0:0:0:0:
402,129,109190,1,0,2:3:0:0:
402,129,109286,1,8,2:3:0:0:
385,269,109480,1,2,2:3:0:0:
254,299,109673,2,0,P|205:309|152:299,1,96,0|2,2:3|2:3,0:0:0:0:
10,243,110060,2,0,P|59:233|112:243,1,96,8|2,2:3|2:3,0:0:0:0:
254,299,110448,5,0,2:3:0:0:
212,182,110641,1,0,0:0:0:0:
277,41,110835,2,0,P|299:82|293:141,1,96,8|2,2:3|2:3,0:0:0:0:
410,189,111222,2,0,P|385:228|331:252,1,96,0|2,2:3|2:3,0:0:0:0:
195,332,111609,2,0,L|176:224,1,96,8|2,2:3|2:3,0:0:0:0:
275,100,111996,5,0,2:3:0:0:
125,90,112190,2,0,L|173:93,2,48,10|8|0,2:3|2:3|2:3,0:0:0:0:
70,213,112577,2,0,L|22:218,2,48,10|8|0,2:3|2:3|2:3,0:0:0:0:
125,336,112964,2,0,L|173:341,5,48,10|8|8|8|10|8,2:3|2:3|2:3|2:3|2:3|2:3,0:0:0:0:
201,345,113544,6,0,P|252:339|292:307,1,96,4|2,2:3|2:3,0:0:0:0:
287,313,113835,1,0,2:3:0:0:
287,313,113931,1,8,2:3:0:0:
437,261,114125,2,0,L|347:227,1,96,2|0,2:3|0:0,0:0:0:0:
210,171,114512,1,2,2:3:0:0:
186,176,114608,1,0,2:3:0:0:
163,182,114706,2,0,L|117:193,3,48,8|0|2|0,2:3|2:3|2:3|2:3,0:0:0:0:
88,201,115093,6,0,L|104:95,2,96,0|2|8,2:3|2:3|2:3,0:0:0:0:
130,287,115673,2,0,P|186:264|161:359,1,192,2|2,2:3|2:3,0:0:0:0:
297,369,116254,2,0,P|309:319|301:264,1,96,8|2,2:3|2:3,0:0:0:0:
258,107,116641,6,0,P|246:157|254:212,1,96,0|2,2:3|2:3,0:0:0:0:
250,200,116931,1,0,2:3:0:0:
250,200,117028,1,8,2:3:0:0:
290,361,117222,2,0,L|386:351,1,96,2|0,2:3|0:0,0:0:0:0:
501,338,117609,1,2,0:0:0:0:
360,264,117802,2,0,P|377:219|364:161,1,96,8|2,2:3|0:0,0:0:0:0:
262,14,118190,6,0,L|159:34,1,96,0|2,2:3|2:3,0:0:0:0:
160,44,118480,1,8,2:3:0:0:
152,56,118577,2,0,P|147:153|67:169,1,192,12|0,2:3|2:3,0:0:0:0:
219,259,119157,1,10,2:3:0:0:
223,282,119253,1,8,2:3:0:0:
227,306,119351,2,0,L|235:356,3,48,8|8|10|8,2:3|2:3|2:3|2:3,0:0:0:0:
240,381,119738,6,0,B|273:359|273:359|343:349,1,96,4|2,2:3|2:3,0:0:0:0:
501,335,120125,2,0,B|468:357|468:357|398:367,1,96,0|2,2:3|2:3,0:0:0:0:
310,270,120512,2,0,L|337:175,1,96,0|2,2:3|2:3,0:0:0:0:
272,17,120899,2,0,L|245:109,1,96,8|2,2:3|2:3,0:0:0:0:
152,263,121286,6,0,P|111:290|59:299,1,96,0|2,2:3|2:3,0:0:0:0:
236,266,121673,2,0,P|276:238|328:229,1,96,8|2,2:3|2:3,0:0:0:0:
211,152,122060,2,0,L|108:143,1,96,0|2,2:3|2:3,0:0:0:0:
278,82,122448,2,0,L|381:73,1,96,8|2,2:3|2:3,0:0:0:0:
490,202,122835,5,0,2:3:0:0:
459,293,123028,1,2,2:3:0:0:
321,247,123222,1,8,2:3:0:0:
352,338,123415,1,2,2:3:0:0:
257,319,123609,2,0,P|208:317|161:295,1,96,0|2,2:3|2:3,0:0:0:0:
24,210,123996,2,0,P|73:212|120:234,1,96,8|2,2:3|2:3,0:0:0:0:
143,91,124383,5,0,2:3:0:0:
304,79,124577,2,0,L|272:118,2,48,10|8|0,2:3|2:3|2:3,0:0:0:0:
180,200,124964,2,0,L|229:207,2,48,10|8|0,2:3|2:3|2:3,0:0:0:0:
348,245,125351,2,0,L|329:198,5,48,10|8|8|8|10|8,2:3|2:3|2:3|2:3|2:3|2:3,0:0:0:0:
320,174,125931,6,0,B|334:79,1,96,4|2,2:3|2:3,0:0:0:0:
212,135,126319,1,8,2:3:0:0:
290,263,126512,2,0,P|345:263|392:234,1,96,2|0,2:3|0:0,0:0:0:0:
446,127,126899,1,2,2:3:0:0:
305,25,127093,2,0,L|208:44,1,96,8|2,2:3|2:3,0:0:0:0:
39,75,127480,5,0,0:0:0:0:
165,121,127673,1,2,2:3:0:0:
83,272,127867,2,0,P|58:230|64:176,1,96,8|2,2:3|2:3,0:0:0:0:
192,215,128254,2,0,P|217:257|211:311,1,96,0|2,0:0|2:3,0:0:0:0:
171,126,128641,2,0,L|182:75,3,48,8|8|8|8,2:3|2:3|2:3|2:3,0:0:0:0:
189,51,129028,6,0,B|251:86|251:86|422:100,1,240,4|0,2:3|2:3,0:0:0:0:
468,183,129609,2,0,B|336:172|336:172|366:281,1,240,4|0,2:3|2:3,0:0:0:0:
280,322,130190,2,0,P|228:241|204:346,1,240,4|0,2:3|2:3,0:0:0:0:
98,338,130770,1,0,2:3:0:0:
34,237,130964,1,0,2:3:0:0:
89,131,131157,1,0,2:3:0:0:
208,125,131351,2,0,L|272:142,3,60,0|8|8|0,2:3|2:3|2:3|2:3,0:0:0:0:
289,169,131738,2,0,L|353:186,3,60,0|8|2|0,2:3|2:3|2:3|2:3,0:0:0:0:
370,213,132125,6,0,L|348:108,1,107.999996704102,4|0,2:3|2:3,0:0:0:0:
272,30,132706,2,0,L|250:135,1,107.999996704102,0|0,2:3|2:3,0:0:0:0:
228,241,133286,2,0,L|185:255,3,35.9999989013672,2|0|2|0,2:3|2:3|2:3|2:3,0:0:0:0:
158,263,133673,6,0,P|156:207|122:159,1,107.999996704102,0|0,2:3|2:3,0:0:0:0:
231,112,134254,2,0,P|189:73|132:63,1,107.999996704102,0|0,2:3|2:3,0:0:0:0:
53,128,134835,1,8,2:3:0:0:
181,205,135028,1,8,2:3:0:0:
177,222,135124,1,8,2:3:0:0:
173,240,135222,6,0,B|212:233|212:233|275:257,1,107.999996704102,0|0,2:3|2:3,0:0:0:0:
325,353,135802,2,0,B|286:360|286:360|223:336,1,107.999996704102,0|0,2:3|2:3,0:0:0:0:
290,251,136383,2,0,L|306:212,3,35.9999989013672,8|0|2|0,2:3|2:3|2:3|2:3,0:0:0:0:
318,184,136770,6,0,B|349:191|349:191|387:180|387:180|414:204,2,107.999996704102,0|0|0,2:3|2:3|2:3,0:0:0:0:
268,89,137641,2,0,P|248:96|229:107,6,35.9999989013672,0|8|8|8|8|8|8,2:3|2:3|2:3|2:3|2:3|2:3|2:3,0:0:0:0:
304,91,138319,6,0,L|325:215,1,107.999996704102,4|0,2:3|2:3,0:0:0:0:
429,188,138899,2,0,L|408:312,1,107.999996704102,0|0,2:3|2:3,0:0:0:0:
306,321,139480,2,0,L|251:332,3,35.9999989013672,8|0|2|0,2:3|2:3|2:3|0:0,0:0:0:0:
235,334,139867,6,0,P|212:284|214:228,1,107.999996704102,0|0,2:3|2:3,0:0:0:0:
105,223,140448,2,0,P|124:171|165:133,1,107.999996704102,0|0,2:3|2:3,0:0:0:0:
269,141,141028,1,8,2:3:0:0:
415,71,141222,1,2,2:3:0:0:
418,88,141318,1,0,2:3:0:0:
422,106,141415,6,0,L|411:216,1,107.999996704102,0|0,2:3|2:3,0:0:0:0:
303,217,141996,2,0,L|292:327,1,107.999996704102,0|0,2:3|2:3,0:0:0:0:
208,256,142577,2,0,L|165:247,3,35.9999989013672,2|0|2|0,2:3|2:3|2:3|0:0,0:0:0:0:
137,240,142964,5,0,2:3:0:0:
144,111,143254,1,0,2:3:0:0:
259,52,143544,1,4,2:3:0:0:
367,122,143835,2,0,L|413:117,6,35.9999989013672,0|8|8|8|8|8|8,2:3|2:3|2:3|2:3|2:3|2:3|2:3,0:0:0:0:
331,126,144512,6,0,B|336:167|336:167|316:272,2,144,0|2|0,2:3|2:3|2:3,0:0:0:0:
198,332,145383,1,2,2:3:0:0:
219,205,145673,2,0,L|166:216,3,48,8|0|0|0,2:3|2:3|2:3|2:3,0:0:0:0:
134,224,146060,6,0,P|142:152|108:82,2,144,0|2|0,2:3|2:3|2:3,0:0:0:0:
279,47,146931,1,2,2:3:0:0:
371,90,147222,1,8,2:3:0:0:
369,101,147318,1,8,2:3:0:0:
368,113,147415,1,8,2:3:0:0:
367,125,147512,1,8,2:3:0:0:
366,137,147609,6,0,B|308:143|308:143|278:154|278:154|218:159,2,144,0|2|0,2:3|2:3|2:3,0:0:0:0:
465,312,148480,1,2,2:3:0:0:
264,255,148770,1,8,2:3:0:0:
361,169,148964,1,0,2:3:0:0:
363,153,149060,1,0,2:3:0:0:
366,137,149157,6,0,B|339:93|339:93|302:177,1,144,0|2,2:3|2:3,0:0:0:0:
312,111,149738,2,0,B|261:98|261:98|295:184,1,144,0|2,2:3|2:3,0:0:0:0:
113,46,150319,1,8,2:3:0:0:
112,53,150415,1,8,2:3:0:0:
111,61,150512,1,8,2:3:0:0:
110,69,150609,1,8,2:3:0:0:
109,77,150706,6,0,P|145:73|185:80,2,64,12|8|8,2:3|2:3|2:3,0:0:0:0:
231,5,151480,2,0,P|252:34|266:72,2,64,0|8|8,2:3|2:3|2:3,0:0:0:0:
354,74,152254,2,0,P|339:107|313:138,2,64,0|8|8,2:3|2:3|2:3,0:0:0:0:
355,215,153028,2,0,P|319:219|279:212,2,64,4|8|8,2:3|2:3|2:3,0:0:0:0:
217,179,153802,6,0,P|169:165|112:170,1,96,4|2,2:3|2:3,0:0:0:0:
62,251,154190,2,0,P|108:264|156:263,1,96,8|2,2:3|2:3,0:0:0:0:
262,266,154577,1,0,2:3:0:0:
332,345,154770,1,2,2:3:0:0:
296,166,154964,2,0,L|312:72,1,96,8|2,2:3|2:3,0:0:0:0:
189,125,155351,6,0,L|95:141,1,96,0|2,2:3|2:3,0:0:0:0:
28,301,155738,1,8,2:3:0:0:
104,236,155931,1,2,2:3:0:0:
203,243,156125,1,8,2:3:0:0:
287,106,156319,2,0,P|264:58|217:29,1,96,0|8,2:3|2:3,0:0:0:0:
38,51,156706,1,4,2:3:0:0:
46,49,157093,5,8,2:3:0:0:
46,135,157286,1,8,2:3:0:0:
127,86,157480,1,8,2:3:0:0:
128,189,157673,1,8,2:3:0:0:
224,130,157867,1,8,2:3:0:0:
226,254,158060,1,8,2:3:0:0:
342,184,158254,1,4,2:3:0:0:
336,187,158641,5,0,2:3:0:0:
400,74,158835,1,10,2:3:0:0:
491,128,159028,1,0,2:3:0:0:
486,151,159124,1,8,2:3:0:0:
482,175,159222,2,0,L|491:223,3,48,0|8|8|8,2:3|2:3|2:3|2:3,0:0:0:0:
478,248,159609,2,0,L|469:296,3,48,8|8|8|8,2:3|2:3|2:3|2:3,0:0:0:0:
482,321,159996,1,8,2:3:0:0:
74,153,172383,5,0,2:3:0:0:
169,93,172577,2,0,L|364:119,1,192,4|0,2:3|2:3,0:0:0:0:
369,127,173351,1,0,2:3:0:0:
379,136,173738,5,0,2:3:0:0:
410,237,173931,1,0,2:3:0:0:
325,335,174125,2,0,P|242:306|132:316,1,192,4|0,2:3|2:3,0:0:0:0:
52,142,174899,2,0,L|61:86,2,48,0|0|8,2:3|2:3|2:3,0:0:0:0:
167,56,175286,2,0,L|174:103,2,48,0|0|0,2:3|2:3|2:3,0:0:0:0:
331,88,175673,6,0,B|371:123|371:123|354:263,1,192,4|0,2:3|2:3,0:0:0:0:
348,271,176448,1,0,2:3:0:0:
174,103,176835,1,8,2:3:0:0:
171,113,176931,1,8,2:3:0:0:
169,125,177028,1,0,2:3:0:0:
39,34,177222,6,0,L|51:230,1,192,4|0,2:3|2:3,0:0:0:0:
58,237,177996,1,0,2:3:0:0:
66,249,178383,1,0,2:3:0:0:
216,184,178577,5,0,2:3:0:0:
331,242,178770,2,0,L|384:253,2,48,10|8|0,2:3|2:3|2:3,0:0:0:0:
372,166,179157,2,0,L|414:132,2,48,10|8|0,2:3|2:3|2:3,0:0:0:0:
340,85,179544,2,0,L|341:30,2,48,10|8|0,2:3|2:3|2:3,0:0:0:0:
257,57,179931,2,0,L|216:20,2,48,10|8|0,2:3|2:3|2:3,0:0:0:0:
182,102,180319,2,0,L|128:109,2,48,10|8|0,2:3|2:3|2:3,0:0:0:0:
168,188,180706,2,0,L|139:234,2,48,10|8|0,2:3|2:3|2:3,0:0:0:0:
224,254,181093,2,0,L|240:305,6,48,10|8|8|8|10|8|0,2:3|2:3|2:3|2:3|2:3|2:3|2:3,0:0:0:0:
224,254,183222,5,0,2:3:0:0:
318,313,183512,1,0,2:3:0:0:
318,313,183609,2,0,P|385:277|385:198,1,144,12|0,2:3|2:3,0:0:0:0:
382,188,183996,2,0,L|390:136,3,48,8|8|8|8,2:3|2:3|2:3|2:3,0:0:0:0:
374,115,184383,2,0,L|342:72,3,48,8|8|8|8,2:3|2:3|2:3|2:3,0:0:0:0:
317,54,184770,6,0,P|228:53|144:88,1,180,4|0,2:3|2:3,0:0:0:0:
119,112,185157,1,8,2:3:0:0:
19,280,185351,2,0,B|72:255|72:255|194:270,1,180,2|0,2:3|2:3,0:0:0:0:
228,275,185738,1,2,2:3:0:0:
441,331,185931,6,0,P|472:231|435:102,1,240,0|0,2:3|2:3,0:0:0:0:
482,239,186512,2,0,P|468:136|380:34,1,240,2|2,2:3|2:3,0:0:0:0:
481,139,187093,2,0,P|424:51|302:-2,1,240,0|8,2:3|2:3,0:0:0:0:
213,340,187867,6,0,B|233:294|233:294|191:170,1,180,0|0,2:3|2:3,0:0:0:0:
179,136,188254,1,8,2:3:0:0:
113,244,188448,2,0,P|204:242|279:198,1,180,2|0,2:3|2:3,0:0:0:0:
302,170,188835,1,2,2:3:0:0:
443,242,189028,2,0,L|421:364,2,120,8|0|0,2:3|0:0|2:3,0:0:0:0:
246,334,189609,6,0,L|314:315,2,60,10|8|0,2:3|2:3|2:3,0:0:0:0:
250,239,189996,2,0,L|192:223,2,60,10|8|0,2:3|2:3|2:3,0:0:0:0:
246,144,190383,2,0,L|303:128,5,60,10|8|8|8|10|8,2:3|2:3|2:3|2:3|2:3|2:3,0:0:0:0:
339,121,190964,6,0,B|382:150|382:150|351:277,1,180,4|0,2:3|2:3,0:0:0:0:
342,309,191351,1,8,2:3:0:0:
472,284,191544,2,0,B|511:255|511:255|380:225,1,180,2|0,2:3|2:3,0:0:0:0:
347,217,191931,1,2,2:3:0:0:
221,48,192125,6,0,L|200:286,1,240,0|0,2:3|2:3,0:0:0:0:
172,97,192706,2,0,L|192:335,1,240,2|2,2:3|2:3,0:0:0:0:
132,153,193286,2,0,L|193:383,1,240,0|8,2:3|2:3,0:0:0:0:
426,213,194060,6,0,P|365:185|284:250,1,180,0|0,2:3|2:3,0:0:0:0:
274,283,194448,1,8,2:3:0:0:
416,292,194641,2,0,P|347:221|393:141,1,180,2|0,2:3|2:3,0:0:0:0:
401,133,195028,1,2,2:3:0:0:
289,47,195222,2,0,B|255:43|255:43|301:138,2,120,8|0|0,2:3|0:0|2:3,0:0:0:0:
193,119,195802,5,0,2:3:0:0:
190,136,195899,1,0,2:3:0:0:
187,153,195996,2,0,P|224:186|116:207,1,240,4|0,2:3|2:3,0:0:0:0:
36,349,196577,1,8,2:3:0:0:
52,343,196673,1,8,2:3:0:0:
69,337,196770,2,0,L|132:342,3,60,8|8|8|8,2:3|2:3|2:3|2:3,0:0:0:0:
164,344,197157,6,0,P|255:336|344:344,1,180,4|0,2:3|2:3,0:0:0:0:
378,352,197544,1,8,2:3:0:0:
482,216,197738,2,0,B|386:267|386:267|400:195,1,180,2|0,2:3|2:3,0:0:0:0:
406,161,198125,1,2,2:3:0:0:
257,215,198319,6,0,P|272:144|134:106,1,240,0|0,2:3|2:3,0:0:0:0:
193,164,198899,2,0,P|139:115|37:216,1,240,2|2,2:3|2:3,0:0:0:0:
116,193,199480,2,0,P|47:215|83:354,1,240,0|8,2:3|2:3,0:0:0:0:
312,328,200254,6,0,B|250:357|250:357|262:300|262:300|250:246,1,180,0|0,2:3|2:3,0:0:0:0:
242,212,200641,1,8,2:3:0:0:
312,36,200835,2,0,B|305:81|305:81|382:191,1,180,2|0,2:3|2:3,0:0:0:0:
403,220,201222,1,2,2:3:0:0:
280,205,201415,2,0,P|233:172|168:174,2,120,8|0|0,2:3|0:0|2:3,0:0:0:0:
247,357,201996,6,0,L|237:298,2,60,10|8|0,2:3|2:3|2:3,0:0:0:0:
149,338,202383,2,0,L|139:279,2,60,10|8|0,2:3|2:3|2:3,0:0:0:0:
51,319,202770,2,0,L|41:260,5,60,10|8|8|8|10|8,2:3|2:3|2:3|2:3|2:3|2:3,0:0:0:0:
35,223,203351,6,0,B|213:248,1,180,4|0,2:3|2:3,0:0:0:0:
248,253,203738,1,8,2:3:0:0:
209,127,203931,2,0,P|146:199|160:281,1,180,2|0,2:3|2:3,0:0:0:0:
178,306,204319,1,2,2:3:0:0:
395,303,204512,6,0,B|447:263|447:263|380:81,1,240,0|0,2:3|2:3,0:0:0:0:
451,213,205093,2,0,B|459:147|459:147|283:66,1,240,2|2,2:3|2:3,0:0:0:0:
426,109,205673,2,0,B|386:57|386:57|204:124,1,240,0|8,2:3|2:3,0:0:0:0:
144,311,206448,6,0,P|248:307|269:179,1,240,4|8,2:3|2:3,0:0:0:0:
222,335,207028,2,0,P|310:279|264:158,1,240,4|8,2:3|2:3,0:0:0:0:
301,316,207609,2,0,P|349:223|249:141,1,240,4|8,2:3|2:3,0:0:0:0:
359,260,208190,2,0,P|355:156|227:135,1,240,4|8,2:3|2:3,0:0:0:0:
381,182,208770,2,0,P|325:93|204:139,1,240,0|0,2:3|2:3,0:0:0:0:
89,332,209544,5,4,2:3:0:0:
292,256,209835,1,2,2:3:0:0:
124,118,210125,1,2,2:3:0:0:
119,126,210512,2,0,P|167:113|189:75,1,96,0|8,2:3|2:3,0:0:0:0:
188,75,211093,5,2,2:3:0:0:
188,75,211480,2,0,P|252:54|328:63,1,144,2|0,2:3|2:3,0:0:0:0:
352,75,211867,2,0,L|343:125,3,48,2|0|2|0,2:3|2:3|2:3|2:3,0:0:0:0:
323,142,212254,2,0,L|331:192,3,48,6|0|2|0,2:3|2:3|2:3|2:3,0:0:0:0:
350,209,212641,6,0,P|346:234|337:260,1,48,8|8,2:3|2:3,0:0:0:0:
370,232,212835,2,0,P|360:256|344:278,1,48,8|2,2:3|2:3,0:0:0:0:
211,278,213222,6,0,P|185:274|159:265,1,48,8|8,2:3|2:3,0:0:0:0:
187,298,213416,2,0,P|163:288|141:272,1,48,8|2,2:3|2:3,0:0:0:0:
142,139,213802,6,0,P|145:113|154:87,1,48,8|8,2:3|2:3,0:0:0:0:
122,115,213996,2,0,P|131:91|147:69,1,48,8|2,2:3|2:3,0:0:0:0:
281,70,214383,6,0,P|306:73|332:82,1,48,8|8,2:3|2:3,0:0:0:0:
304,50,214577,2,0,P|328:59|350:75,1,48,8|2,2:3|2:3,0:0:0:0:
360,227,214964,5,0,2:3:0:0:
253,301,215157,1,8,2:3:0:0:
253,301,215254,1,8,2:3:0:0:
253,301,215351,2,0,L|210:282,3,48,8|8|0|0,2:3|2:3|2:3|2:3,0:0:0:0:
182,270,215738,5,4,2:3:0:0:
313,237,216028,1,2,2:3:0:0:
220,140,216319,1,2,2:3:0:0:
254,276,216609,5,2,2:3:0:0:
283,172,216899,1,2,2:3:0:0:
179,198,217190,1,2,2:3:0:0:
203,250,217480,5,2,2:3:0:0:
286,229,217770,1,2,2:3:0:0:
226,167,218060,1,2,2:3:0:0:
239,216,218351,5,2,2:3:0:0:
239,248,218641,2,0,P|237:284|230:252,1,96,2|0,2:3|2:3,0:0:0:0:
