osu file format v14

[General]
AudioFilename: audio.mp3
AudioLeadIn: 0
PreviewTime: 69618
Countdown: 0
SampleSet: Soft
StackLeniency: 0.7
Mode: 0
LetterboxInBreaks: 0
WidescreenStoryboard: 0

[Editor]
DistanceSpacing: 1.3
BeatDivisor: 4
GridSize: 32
TimelineZoom: 1.699999

[Metadata]
Title:Kyouhansha
TitleUnicode:共犯者
Artist:Ito Kashitaro
ArtistUnicode:伊東歌詞太郎
Creator:Nikakis
Version:Venture
Source:
Tags:accomplice conspirators karasuyasabou 共犯者 カラスヤサボウ yahuri hootowlstar bossandy
BeatmapID:1565351
BeatmapSetID:742085

[Difficulty]
HPDrainRate:6
CircleSize:3.8
OverallDifficulty:8
ApproachRate:9
SliderMultiplier:1.7
SliderTickRate:1

[Events]
//Background and Video events
0,0,"aaaa.jpg",0,0
//Break Periods
//Storyboard Layer 0 (Background)
//Storyboard Layer 1 (Fail)
//Storyboard Layer 2 (Pass)
//Storyboard Layer 3 (Foreground)
//Storyboard Sound Samples

[TimingPoints]
2167,387.096774193548,4,2,1,65,1,0
2167,-100,4,2,1,65,0,0
5457,-100,4,2,1,5,0,0
5554,-100,4,2,1,65,0,0
5747,-100,4,2,1,5,0,0
5844,-100,4,2,1,65,0,0
6037,-100,4,2,1,5,0,0
6134,-100,4,2,1,65,0,0
6328,-100,4,2,1,5,0,0
6425,-100,4,2,1,65,0,0
6618,-100,4,2,1,5,0,0
6715,-100,4,2,1,65,0,0
6908,-100,4,2,1,5,0,0
7005,-100,4,2,1,65,0,0
7199,-100,4,2,1,5,0,0
7296,-100,4,2,1,65,0,0
7973,-117.647058823529,4,2,1,65,0,0
8360,-100,4,2,1,65,0,0
9134,-100,4,2,3,65,0,0
9328,-100,4,2,1,65,0,0
9908,-100,4,2,3,65,0,0
10199,-100,4,2,1,65,0,0
10683,-100,4,2,3,65,0,0
10876,-100,4,2,1,65,0,0
11457,-100,4,2,3,65,0,0
11747,-100,4,2,1,65,0,0
12231,-100,4,2,3,65,0,0
12425,-100,4,2,1,65,0,0
13005,-100,4,2,3,65,0,0
13199,-100,4,2,1,65,0,0
13392,-100,4,2,3,65,0,0
13586,-100,4,2,1,65,0,0
13779,-100,4,2,3,65,0,0
13973,-100,4,2,1,65,0,0
14166,-100,4,2,3,65,0,0
14263,-100,4,2,1,65,0,0
15328,-100,4,2,3,65,0,0
15521,-100,4,2,1,65,0,0
16102,-100,4,2,3,65,0,0
16392,-100,4,2,1,65,0,0
16876,-100,4,2,3,65,0,0
17070,-100,4,2,1,65,0,0
17650,-100,4,2,3,65,0,0
17941,-100,4,2,1,65,0,0
18425,-100,4,2,3,65,0,0
18618,-100,4,2,1,65,0,0
19199,-100,4,2,3,65,0,0
19392,-100,4,2,1,65,0,0
19586,-83.3333333333333,4,2,1,65,0,0
19973,-83.3333333333333,4,2,3,65,0,0
20166,-100,4,2,1,65,0,0
21521,-100,4,2,3,65,0,0
21715,-100,4,2,1,65,0,0
22296,-100,4,2,3,65,0,0
22683,-100,4,2,1,65,0,0
23070,-100,4,2,3,65,0,0
23263,-100,4,2,1,65,0,0
23844,-100,4,2,3,65,0,0
24231,-100,4,2,1,65,0,0
24618,-100,4,2,3,65,0,0
24812,-100,4,2,1,65,0,0
25392,-100,4,2,3,65,0,0
25586,-100,4,2,1,65,0,0
25779,-100,4,2,3,65,0,0
25973,-100,4,2,1,65,0,0
26166,-100,4,2,3,65,0,0
26360,-100,4,2,1,65,0,0
27715,-100,4,2,3,65,0,0
27908,-100,4,2,1,65,0,0
28489,-100,4,2,3,65,0,0
28779,-100,4,2,1,65,0,0
29263,-100,4,2,3,65,0,0
29457,-100,4,2,1,65,0,0
32747,-117.647058823529,4,2,1,65,0,0
33134,-100,4,2,1,65,0,0
33425,-100,4,2,3,65,0,0
33908,-100,4,2,1,65,0,0
34102,-100,4,2,3,65,0,0
34296,-100,4,2,1,65,0,0
34489,-100,4,2,3,65,0,0
35457,-100,4,2,1,65,0,0
35650,-100,4,2,3,65,0,0
35844,-100,4,2,1,65,0,0
36037,-100,4,2,3,65,0,0
37005,-100,4,2,1,65,0,0
37199,-100,4,2,3,65,0,0
37392,-100,4,2,1,65,0,0
37586,-100,4,2,3,65,0,0
38554,-100,4,2,1,65,0,0
38747,-100,4,2,3,65,0,0
38941,-100,4,2,1,65,0,0
39134,-100,4,2,3,65,0,0
40102,-100,4,2,1,65,0,0
40296,-100,4,2,3,65,0,0
40489,-100,4,2,1,65,0,0
40683,-100,4,2,3,65,0,0
40779,-100,4,2,1,65,0,0
40876,-100,4,2,3,65,0,0
41070,-100,4,2,1,65,0,0
41457,-100,4,2,3,65,0,0
41650,-100,4,2,1,65,0,0
41844,-100,4,2,3,65,0,0
42037,-100,4,2,1,65,0,0
42231,-100,4,2,3,65,0,0
43199,-100,4,2,1,65,0,0
43392,-100,4,2,3,65,0,0
43489,-100,4,2,1,65,0,0
43779,-100,4,2,3,65,0,0
43973,-100,4,2,1,65,0,0
44166,-100,4,2,1,5,0,0
44263,-100,4,2,1,65,0,0
44457,-100,4,2,1,5,0,0
44554,-100,4,2,1,65,0,0
44747,-100,4,2,1,5,0,0
44844,-100,4,2,1,65,0,0
45037,-100,4,2,1,5,0,0
45134,-100,4,2,1,65,0,0
45812,-100,4,2,3,65,0,0
46296,-100,4,2,1,65,0,0
46489,-100,4,2,3,65,0,0
46683,-100,4,2,1,65,0,0
46876,-100,4,2,3,65,0,0
47844,-100,4,2,1,65,0,0
48037,-100,4,2,3,65,0,0
48231,-100,4,2,1,65,0,0
48425,-100,4,2,3,65,0,0
49392,-100,4,2,1,65,0,0
49586,-100,4,2,3,65,0,0
49779,-100,4,2,1,65,0,0
49973,-100,4,2,3,65,0,0
50941,-100,4,2,1,65,0,0
51134,-100,4,2,3,65,0,0
51328,-100,4,2,1,65,0,0
51521,-100,4,2,3,65,0,0
52489,-100,4,2,1,65,0,0
52683,-100,4,2,3,65,0,0
52876,-100,4,2,1,65,0,0
53070,-100,4,2,3,65,0,0
53457,-100,4,2,1,65,0,0
53554,-100,4,2,3,65,0,0
53650,-100,4,2,1,65,0,0
53844,-100,4,2,3,65,0,0
54037,-100,4,2,1,65,0,0
54231,-100,4,2,3,65,0,0
54425,-100,4,2,1,65,0,0
54618,-100,4,2,3,65,0,0
55586,-100,4,2,1,65,0,0
55779,-100,4,2,3,65,0,0
55973,-100,4,2,1,65,0,0
56554,-100,4,2,3,65,0,0
56747,-100,4,2,1,65,0,0
57908,-100,4,2,3,65,0,0
59070,-100,4,2,1,65,0,0
59457,-100,4,2,3,65,0,0
59554,-100,4,2,1,65,0,0
60231,-100,4,2,3,65,0,0
60328,-100,4,2,1,65,0,0
60618,-100,4,2,3,65,0,0
60715,-100,4,2,1,65,0,0
61005,-100,4,2,3,65,0,0
61973,-100,4,2,3,65,0,0
62166,-100,4,2,1,65,0,0
62844,-100,4,2,3,65,0,0
62941,-100,4,2,1,65,0,0
63134,-100,4,2,3,65,0,0
63231,-100,4,2,1,65,0,0
63425,-100,4,2,3,65,0,0
63521,-100,4,2,1,65,0,0
63715,-100,4,2,3,65,0,0
63812,-100,4,2,1,65,0,0
64102,-133.333333333333,4,2,1,65,0,0
64683,-133.333333333333,4,2,3,65,0,0
65263,-133.333333333333,4,2,1,65,0,0
65457,-133.333333333333,4,2,3,65,0,0
66618,-133.333333333333,4,2,3,65,0,0
66812,-133.333333333333,4,2,1,65,0,0
67005,-133.333333333333,4,2,3,65,0,0
67586,-133.333333333333,4,2,1,65,0,0
68166,-133.333333333333,4,2,3,65,0,0
68554,-133.333333333333,4,2,1,65,0,0
69521,-100,4,2,1,75,0,0
70296,-100,4,2,1,85,0,1
71070,-100,4,2,3,85,0,1
71263,-100,4,2,1,85,0,1
71844,-100,4,2,3,85,0,1
72037,-100,4,2,1,85,0,1
72618,-100,4,2,3,85,0,1
72812,-100,4,2,1,85,0,1
73392,-100,4,2,3,85,0,1
73586,-100,4,2,1,85,0,1
74166,-100,4,2,3,85,0,1
74360,-100,4,2,1,85,0,1
74941,-100,4,2,3,85,0,1
75134,-100,4,2,1,85,0,1
75328,-100,4,2,3,85,0,1
75521,-100,4,2,1,85,0,1
75715,-100,4,2,3,85,0,1
75908,-100,4,2,1,85,0,1
76102,-100,4,2,3,85,0,1
76199,-100,4,2,1,85,0,1
77263,-100,4,2,3,85,0,1
77457,-100,4,2,1,85,0,1
78037,-100,4,2,3,85,0,1
78231,-100,4,2,1,85,0,1
78812,-100,4,2,3,85,0,1
79005,-100,4,2,1,85,0,1
79586,-100,4,2,3,85,0,1
79779,-100,4,2,1,85,0,1
80360,-100,4,2,3,85,0,1
80554,-100,4,2,1,85,0,1
81037,-100,4,2,1,5,0,1
81134,-100,4,2,3,85,0,1
81521,-100,4,2,1,85,0,1
81908,-100,4,2,1,85,0,0
82683,-100,4,2,1,85,0,1
83457,-100,4,2,3,85,0,1
83650,-100,4,2,1,85,0,1
84231,-100,4,2,3,85,0,1
84425,-100,4,2,1,85,0,1
85005,-100,4,2,3,85,0,1
85199,-100,4,2,1,85,0,1
85779,-100,4,2,3,85,0,1
85973,-100,4,2,1,85,0,1
86554,-100,4,2,3,85,0,1
86747,-100,4,2,1,85,0,1
87328,-100,4,2,3,85,0,1
87521,-100,4,2,1,85,0,1
87715,-100,4,2,3,85,0,1
87908,-100,4,2,1,85,0,1
88102,-100,4,2,3,85,0,1
88296,-100,4,2,1,85,0,1
88489,-100,4,2,3,85,0,1
88586,-100,4,2,1,85,0,1
89650,-100,4,2,3,85,0,1
89844,-100,4,2,1,85,0,1
90425,-100,4,2,3,85,0,1
90618,-100,4,2,1,85,0,1
91199,-100,4,2,3,85,0,1
91392,-100,4,2,1,85,0,1
91973,-83.3333333333333,4,2,1,85,0,1
95070,-100,4,2,1,65,0,0
95650,-133.333333333333,4,2,1,65,0,0
96037,-133.333333333333,4,2,3,65,0,0
96231,-133.333333333333,4,2,1,65,0,0
97392,-100,4,2,1,65,0,0
101457,-100,4,2,1,5,0,0
101554,-100,4,2,1,65,0,0
101747,-100,4,2,1,5,0,0
101844,-100,4,2,1,65,0,0
102037,-100,4,2,1,5,0,0
102134,-100,4,2,1,65,0,0
102328,-100,4,2,1,5,0,0
102425,-100,4,2,1,65,0,0
102618,-100,4,2,1,5,0,0
102715,-100,4,2,1,65,0,0
102908,-100,4,2,1,5,0,0
103005,-100,4,2,1,65,0,0
103199,-100,4,2,1,5,0,0
103296,-100,4,2,1,65,0,0
103489,-100,4,2,1,5,0,0
103586,-100,4,2,1,65,0,0
103779,-100,4,2,1,5,0,0
103876,-100,4,2,1,65,0,0
104070,-100,4,2,1,5,0,0
104166,-100,4,2,1,65,0,0

[Colours]
Combo1 : 106,53,53
Combo2 : 255,0,0
Combo3 : 252,221,3
Combo4 : 250,155,69

[HitObjects]
31,202,2166,5,8,0:0:0:0:
31,202,2263,1,8,0:0:0:0:
31,202,2360,1,8,0:0:0:0:
31,202,2457,1,10,0:0:0:0:
267,368,2747,5,8,0:0:0:0:
267,368,2844,1,8,0:0:0:0:
267,368,2941,1,8,0:0:0:0:
267,368,3037,1,10,0:0:0:0:
481,196,3328,5,8,0:0:0:0:
481,196,3425,1,8,0:0:0:0:
481,196,3522,1,8,0:0:0:0:
481,196,3619,1,10,0:0:0:0:
245,16,3909,5,8,0:0:0:0:
245,16,4006,1,8,0:0:0:0:
245,16,4103,1,8,0:0:0:0:
245,16,4199,1,10,0:0:0:0:
212,290,4489,6,0,P|252:314|312:302,1,85,8|8,0:0|0:0,0:0:0:0:
328,298,4779,1,8,0:0:0:0:
332,275,4876,1,8,0:0:0:0:
336,252,4973,1,8,0:0:0:0:
340,229,5070,1,8,0:0:0:0:
344,206,5166,1,8,0:0:0:0:
348,183,5263,6,0,B|356:135|356:135|340:63,1,85,2|0,0:0|0:0,0:0:0:0:
303,30,5554,2,0,B|255:22|255:22|183:38,1,85,2|0,0:0|0:0,0:0:0:0:
169,95,5844,2,0,B|161:143|161:143|177:215,1,85,2|0,0:0|0:0,0:0:0:0:
214,248,6135,2,0,B|262:256|262:256|334:240,1,85,2|0,0:0|0:0,0:0:0:0:
376,224,6425,2,0,B|384:272|384:272|376:307,1,85,2|0,0:0|0:0,0:0:0:0:
301,342,6715,2,0,B|265:349|265:349|217:341,1,85,2|0,0:0|0:0,0:0:0:0:
137,324,7005,2,0,B|129:276|129:276|136:240,1,85,2|0,0:0|0:0,0:0:0:0:
169,164,7296,6,0,B|217:156|217:156|253:163,1,85,2|0,0:0|0:0,0:0:0:0:
330,191,7586,2,0,B|353:200|353:200|364:217,3,42.5
350,294,7973,6,0,P|399:284|438:211,1,108.375002067089
371,58,8360,6,0,L|363:185,1,127.5,4|0,0:0|0:0,0:0:0:0:
361,222,8747,1,8,0:0:0:0:
223,137,8941,2,0,L|138:144,1,85,2|2,0:0|0:0,0:0:0:0:
50,248,9328,1,2,0:0:0:0:
190,271,9521,1,8,0:0:0:0:
37,152,9715,1,2,0:0:0:0:
208,294,9908,6,0,L|334:282,1,127.5,2|0,0:0|0:0,0:0:0:0:
364,278,10296,1,8,0:0:0:0:
457,182,10489,2,0,P|469:130|457:94,1,85,2|2,0:0|0:0,0:0:0:0:
316,0,10876,2,0,L|311:42,1,42.5,2|0,0:0|0:0,0:0:0:0:
296,165,11070,2,0,L|300:122,1,42.5,8|0,0:0|0:0,0:0:0:0:
397,45,11264,2,0,L|392:87,1,42.5,2|0,0:0|0:0,0:0:0:0:
374,232,11457,6,0,L|243:246,1,127.5,2|0,0:0|0:0,0:0:0:0:
220,248,11845,1,8,0:0:0:0:
165,108,12037,2,0,P|170:66|194:32,1,85,2|2,0:0|0:0,0:0:0:0:
320,52,12425,1,2,0:0:0:0:
235,187,12618,1,8,0:0:0:0:
194,31,12812,1,2,0:0:0:0:
240,217,13005,6,0,L|360:229,1,85,2|8,0:0|0:0,0:0:0:0:
348,230,13296,1,8,0:0:0:0:
371,233,13392,1,2,0:0:0:0:
173,365,13586,5,8,0:0:0:0:
173,365,13683,1,8,0:0:0:0:
173,365,13779,1,2,0:0:0:0:
224,111,13973,1,8,0:0:0:0:
239,131,14069,1,8,0:0:0:0:
251,152,14166,1,2,0:0:0:0:
256,174,14263,1,8,0:0:0:0:
257,197,14360,1,8,0:0:0:0:
253,220,14456,1,8,0:0:0:0:
247,243,14554,6,0,P|219:300|156:327,1,127.5,4|0,0:0|0:0,0:0:0:0:
124,329,14941,1,8,0:0:0:0:
194,189,15134,2,0,P|228:168|273:172,1,85,2|2,0:0|0:0,0:0:0:0:
362,305,15521,1,0,0:0:0:0:
247,243,15714,1,8,0:0:0:0:
363,378,15908,1,2,0:0:0:0:
362,155,16102,6,0,L|361:23,1,127.5,2|0,0:0|0:0,0:0:0:0:
362,0,16490,1,8,0:0:0:0:
283,168,16683,2,0,B|239:176|239:176|199:166,1,85,2|2,0:0|0:0,0:0:0:0:
81,64,17070,2,0,L|86:106,1,42.5,2|0,0:0|0:0,0:0:0:0:
101,229,17264,2,0,L|97:186,1,42.5,8|0,0:0|0:0,0:0:0:0:
0,109,17458,2,0,L|5:151,1,42.5,2|0,0:0|0:0,0:0:0:0:
23,296,17650,6,0,L|149:309,1,127.5,2|0,0:0|0:0,0:0:0:0:
177,312,18037,1,8,0:0:0:0:
154,164,18231,2,0,P|157:122|184:89,1,85,2|2,0:0|0:0,0:0:0:0:
324,28,18618,1,2,0:0:0:0:
285,199,18811,1,8,0:0:0:0:
252,0,19005,1,2,0:0:0:0:
360,176,19199,5,2,0:0:0:0:
154,164,19392,2,0,L|111:160,1,42.5
230,199,19586,2,0,P|235:149|211:106,1,101.999996887207,4|0,0:0|0:0,0:0:0:0:
111,160,19973,1,2,0:0:0:0:
331,350,20166,5,8,0:0:0:0:
354,345,20262,1,8,0:0:0:0:
378,341,20359,1,8,0:0:0:0:
397,332,20456,1,8,0:0:0:0:
416,318,20553,1,8,0:0:0:0:
431,300,20649,1,8,0:0:0:0:
446,280,20747,6,0,P|470:221|450:155,1,127.5,4|0,0:0|0:0,0:0:0:0:
438,139,21134,1,8,0:0:0:0:
304,209,21328,2,0,L|389:216,1,85,2|2,0:0|0:0,0:0:0:0:
432,68,21715,1,2,0:0:0:0:
419,220,21908,1,8,0:0:0:0:
435,35,22102,1,2,0:0:0:0:
416,256,22296,6,0,L|285:242,1,127.5,2|0,0:0|0:0,0:0:0:0:
262,240,22684,1,8,0:0:0:0:
277,77,22876,2,0,L|381:89,1,85,2|2,0:0|0:0,0:0:0:0:
262,240,23263,2,0,L|220:235,1,42.5,2|0,0:0|0:0,0:0:0:0:
97,220,23457,2,0,L|140:224,1,42.5,8|0,0:0|0:0,0:0:0:0:
217,321,23651,2,0,L|175:316,1,42.5,2|0,0:0|0:0,0:0:0:0:
30,300,23844,6,0,L|16:169,1,127.5,2|0,0:0|0:0,0:0:0:0:
14,146,24232,1,8,0:0:0:0:
151,83,24425,2,0,P|188:100|210:136,1,85,2|2,0:0|0:0,0:0:0:0:
204,290,24812,1,2,0:0:0:0:
130,165,25005,1,8,0:0:0:0:
110,355,25199,1,2,0:0:0:0:
133,131,25392,6,0,L|145:11,1,85,2|8,0:0|0:0,0:0:0:0:
146,23,25683,1,8,0:0:0:0:
149,0,25779,1,2,0:0:0:0:
261,227,25973,5,8,0:0:0:0:
261,227,26070,1,8,0:0:0:0:
261,227,26166,1,2,0:0:0:0:
70,58,26360,1,8,0:0:0:0:
94,54,26456,1,8,0:0:0:0:
118,54,26553,1,8,0:0:0:0:
139,61,26650,1,8,0:0:0:0:
160,71,26747,1,8,0:0:0:0:
178,86,26843,1,8,0:0:0:0:
195,103,26941,6,0,P|227:159|209:227,1,127.5,4|0,0:0|0:0,0:0:0:0:
198,246,27328,1,8,0:0:0:0:
40,227,27521,2,0,L|140:239,1,85,2|2,0:0|0:0,0:0:0:0:
279,291,27908,2,0,L|274:333,1,42.5,2|0,0:0|0:0,0:0:0:0:
290,211,28102,2,0,L|294:168,1,42.5,8|0,0:0|0:0,0:0:0:0:
198,246,28296,2,0,L|193:288,1,42.5,2|0,0:0|0:0,0:0:0:0:
210,159,28489,6,0,L|224:28,1,127.5,2|0,0:0|0:0,0:0:0:0:
226,5,28877,1,8,0:0:0:0:
288,177,29070,2,0,P|246:178|209:158,1,85,2|2,0:0|0:0,0:0:0:0:
88,277,29457,2,0,L|131:281,1,42.5
211,327,29650,2,0,L|203:215,1,85,8|0,0:0|0:0,0:0:0:0:
204,64,30037,5,8,0:0:0:0:
204,64,30134,1,8,0:0:0:0:
204,64,30231,1,8,0:0:0:0:
204,64,30328,1,10,0:0:0:0:
463,203,30618,5,8,0:0:0:0:
463,203,30715,1,8,0:0:0:0:
463,203,30812,1,8,0:0:0:0:
463,203,30908,1,10,0:0:0:0:
244,370,31199,5,8,0:0:0:0:
244,370,31296,1,8,0:0:0:0:
244,370,31392,1,8,0:0:0:0:
244,370,31489,1,10,0:0:0:0:
36,223,31779,5,8,0:0:0:0:
36,223,31876,1,8,0:0:0:0:
36,223,31973,1,8,0:0:0:0:
36,223,32070,1,10,0:0:0:0:
232,40,32360,6,0,L|236:82,1,42.5
305,198,32554,2,0,L|300:155,1,42.5
316,30,32748,6,0,P|368:56|380:124,1,108.375002067089
384,132,33134,6,0,L|392:256,1,85,4|0,0:0|0:0,0:0:0:0:
396,296,33425,2,0,B|440:304|440:304|478:293,1,85,2|0,0:0|0:0,0:0:0:0:
508,220,33715,2,0,L|502:135,1,85,2|2,0:0|0:0,0:0:0:0:
416,60,34102,1,2,0:0:0:0:
389,216,34296,1,8,0:0:0:0:
502,135,34489,1,2,0:0:0:0:
332,152,34683,6,0,L|208:160,1,85,2|0,0:0|0:0,0:0:0:0:
168,164,34974,2,0,B|160:208|160:208|170:246,1,85,2|0,0:0|0:0,0:0:0:0:
244,276,35264,2,0,L|328:270,1,85,2|2,0:0|0:0,0:0:0:0:
244,138,35650,2,0,P|196:142|160:174,1,85,2|8,0:0|0:0,0:0:0:0:
140,300,36037,1,2,0:0:0:0:
44,184,36231,6,0,L|52:60,1,85,2|0,0:0|0:0,0:0:0:0:
56,20,36522,2,0,B|100:12|100:12|138:23,1,85,2|0,0:0|0:0,0:0:0:0:
168,96,36812,2,0,L|162:181,1,85,2|2,0:0|0:0,0:0:0:0:
152,288,37199,1,2,0:0:0:0:
44,184,37392,1,8,0:0:0:0:
52,294,37586,1,2,0:0:0:0:
208,288,37779,6,0,L|332:280,1,85,2|0,0:0|0:0,0:0:0:0:
372,276,38070,2,0,B|380:232|380:232|369:194,1,85,2|0,0:0|0:0,0:0:0:0:
296,164,38360,2,0,L|211:170,1,85,2|2,0:0|0:0,0:0:0:0:
104,176,38747,1,2,0:0:0:0:
232,92,38941,2,0,L|317:86,1,85,2|2,0:0|0:0,0:0:0:0:
460,152,39328,6,0,L|336:160,1,85,2|0,0:0|0:0,0:0:0:0:
296,164,39619,2,0,B|288:208|288:208|299:246,1,85,2|0,0:0|0:0,0:0:0:0:
372,276,39909,2,0,L|457:270,1,85,2|2,0:0|0:0,0:0:0:0:
375,157,40296,1,2,0:0:0:0:
351,158,40392,1,0,0:0:0:0:
328,159,40489,1,8,0:0:0:0:
305,161,40586,1,0,0:0:0:0:
281,162,40683,1,2,0:0:0:0:
258,164,40779,1,0,0:0:0:0:
235,165,40876,1,2,0:0:0:0:
112,223,41070,6,0,L|107:287,1,42.5
107,304,41263,1,8,0:0:0:0:
116,144,41457,1,2,0:0:0:0:
24,263,41650,1,2,0:0:0:0:
24,71,41844,1,2,0:0:0:0:
112,223,42037,1,8,0:0:0:0:
92,23,42231,1,2,0:0:0:0:
112,223,42425,6,0,L|236:215,1,85,2|0,0:0|0:0,0:0:0:0:
276,211,42715,2,0,B|284:167|284:167|273:129,1,85,2|0,0:0|0:0,0:0:0:0:
200,99,43005,2,0,L|115:105,1,85,2|2,0:0|0:0,0:0:0:0:
18,191,43392,1,2,0:0:0:0:
20,215,43489,1,0,0:0:0:0:
21,238,43586,1,8,0:0:0:0:
23,261,43683,1,0,0:0:0:0:
24,285,43779,1,2,0:0:0:0:
26,308,43876,1,0,0:0:0:0:
27,331,43973,6,0,B|59:368|59:368|125:403,1,85
172,384,44263,2,0,B|209:353|209:353|244:287,1,85
226,239,44554,2,0,B|199:204|199:204|129:168,1,85
87,155,44844,2,0,B|51:187|51:187|16:253,1,85
34,339,45134,2,8,L|30:296,1,42.5
87,155,45328,2,8,L|91:198,1,42.5
108,353,45521,6,0,L|232:345,1,85,4|0,0:0|0:0,0:0:0:0:
272,341,45812,2,0,B|280:297|280:297|269:259,1,85,2|0,0:0|0:0,0:0:0:0:
245,183,46102,2,0,L|224:97,1,85,2|2,0:0|0:0,0:0:0:0:
114,4,46489,1,2,0:0:0:0:
224,100,46683,1,8,0:0:0:0:
112,95,46876,1,2,0:0:0:0:
263,178,47070,6,0,L|387:170,1,85,2|0,0:0|0:0,0:0:0:0:
427,166,47360,2,0,B|435:122|435:122|424:84,1,85,2|0,0:0|0:0,0:0:0:0:
351,54,47650,2,0,L|266:60,1,85,2|2,0:0|0:0,0:0:0:0:
184,185,48037,2,0,L|190:270,1,85,2|8,0:0|0:0,0:0:0:0:
296,336,48425,1,2,0:0:0:0:
432,250,48618,6,0,L|424:126,1,85,2|0,0:0|0:0,0:0:0:0:
420,86,48908,2,0,B|376:78|376:78|338:89,1,85,2|0,0:0|0:0,0:0:0:0:
308,162,49199,2,0,L|314:247,1,85,2|2,0:0|0:0,0:0:0:0:
226,345,49586,1,2,0:0:0:0:
84,312,49779,2,0,P|55:281|48:239,1,85,8|2,0:0|0:0,0:0:0:0:
112,84,50166,6,0,L|120:208,1,85,2|0,0:0|0:0,0:0:0:0:
124,248,50457,2,0,B|168:256|168:256|206:245,1,85,2|0,0:0|0:0,0:0:0:0:
236,172,50747,2,0,L|230:87,1,85,2|2,0:0|0:0,0:0:0:0:
136,4,51134,1,2,0:0:0:0:
40,104,51328,2,0,L|45:188,1,85,10|2,0:0|0:0,0:0:0:0:
148,296,51715,6,0,L|272:288,1,85,2|0,0:0|0:0,0:0:0:0:
312,284,52005,2,0,B|320:240|320:240|309:202,1,85,2|0,0:0|0:0,0:0:0:0:
236,172,52296,2,0,L|151:178,1,85,2|2,0:0|0:0,0:0:0:0:
40,276,52683,2,0,L|46:361,2,85,2|8|2,0:0|0:0|0:0,0:0:0:0:
32,156,53263,1,2,0:0:0:0:
155,256,53457,6,0,L|160:320,1,42.5,0|2,0:0|0:0,0:0:0:0:
160,337,53650,1,8,0:0:0:0:
151,177,53844,1,2,0:0:0:0:
243,296,54037,1,2,0:0:0:0:
243,104,54231,1,2,0:0:0:0:
155,256,54425,1,8,0:0:0:0:
175,56,54618,1,2,0:0:0:0:
155,256,54812,6,0,P|162:297|191:327,1,85,2|0,0:0|0:0,0:0:0:0:
260,363,55102,2,0,B|304:371|304:371|342:360,1,85,2|0,0:0|0:0,0:0:0:0:
412,323,55392,2,0,P|425:283|414:243,1,85,2|0,0:0|0:0,0:0:0:0:
270,190,55779,2,0,P|240:219|233:261,1,85,2|8,0:0|0:0,0:0:0:0:
414,243,56166,6,0,L|526:247,1,85,4|0,0:0|0:0,0:0:0:0:
435,76,56554,1,2,0:0:0:0:
498,246,56747,1,8,0:0:0:0:
306,175,56941,2,0,L|311:218,1,42.5,2|2,0:3|0:3,0:0:0:0:
306,240,57134,5,2,0:3:0:0:
299,262,57231,1,8,0:0:0:0:
288,282,57328,1,8,0:0:0:0:
272,300,57425,1,8,0:0:0:0:
253,313,57521,1,10,0:0:0:0:
231,322,57618,1,8,0:0:0:0:
209,326,57715,1,8,0:0:0:0:
185,325,57812,1,8,0:0:0:0:
163,319,57908,6,0,L|155:195,1,85,2|0,0:0|0:0,0:0:0:0:
151,155,58199,2,0,B|107:147|107:147|69:158,1,85,2|0,0:0|0:0,0:0:0:0:
39,231,58489,2,0,L|45:316,1,85,2|0,0:0|0:0,0:0:0:0:
157,234,58876,1,2,0:0:0:0:
44,315,59070,1,8,0:0:0:0:
160,144,59263,5,0,0:0:0:0:
182,151,59359,1,8,0:0:0:0:
202,162,59456,1,2,0:0:0:0:
220,178,59553,1,8,0:0:0:0:
233,197,59650,1,8,0:0:0:0:
242,219,59746,1,8,0:0:0:0:
246,241,59844,2,0,L|242:284,1,42.5,10|0,0:0|0:0,0:0:0:0:
236,360,60037,1,2,0:3:0:0:
258,367,60133,1,2,0:3:0:0:
281,371,60230,5,2,0:0:0:0:
304,373,60327,1,8,0:0:0:0:
327,370,60424,1,8,0:0:0:0:
350,365,60520,1,8,0:0:0:0:
372,357,60617,1,2,0:0:0:0:
392,345,60714,1,2,0:3:0:0:
411,331,60811,1,2,0:3:0:0:
427,315,60907,1,2,0:3:0:0:
441,296,61005,6,0,L|433:172,1,85,2|0,0:0|0:0,0:0:0:0:
429,132,61296,2,0,B|385:124|385:124|347:135,1,85,2|0,0:0|0:0,0:0:0:0:
317,208,61586,2,0,L|323:293,1,85,2|0,0:0|0:0,0:0:0:0:
435,211,61973,1,2,0:0:0:0:
322,292,62166,1,8,0:0:0:0:
308,128,62360,5,2,0:3:0:0:
286,135,62457,1,2,0:3:0:0:
266,146,62554,1,2,0:3:0:0:
248,162,62650,1,8,0:0:0:0:
235,181,62747,1,8,0:0:0:0:
226,203,62844,1,2,0:0:0:0:
222,225,62941,2,8,L|226:268,1,42.5
232,344,63134,1,2,0:0:0:0:
210,351,63231,1,8,0:0:0:0:
187,355,63328,5,8,0:0:0:0:
164,357,63425,1,2,0:0:0:0:
141,354,63521,1,8,0:0:0:0:
118,349,63618,1,8,0:0:0:0:
96,341,63715,1,2,0:0:0:0:
76,329,63812,1,8,0:0:0:0:
57,315,63908,1,8,0:0:0:0:
41,299,64005,1,8,0:0:0:0:
27,280,64102,6,0,L|35:146,1,127.500004863739,4|8,0:0|0:0,0:0:0:0:
116,68,64683,2,0,P|180:52|248:88,1,127.500004863739,2|2,0:0|0:0,0:0:0:0:
284,156,65263,1,8,0:0:0:0:
133,155,65457,6,0,P|109:103|133:43,1,95.6250036478044,2|0,0:0|0:0,0:0:0:0:
148,0,65844,2,0,L|260:4,1,95.6250036478044
316,25,66231,2,0,P|321:71|298:112,1,95.6250036478044,2|0,0:0|0:0,0:0:0:0:
272,133,66618,1,2,0:0:0:0:
133,155,66812,1,8,0:0:0:0:
236,240,67005,1,2,0:0:0:0:
216,36,67199,6,0,L|227:158,1,95.6250036478044,2|2,0:0|0:0,0:0:0:0:
228,164,67586,1,8,0:0:0:0:
340,284,67779,2,0,L|447:274,1,95.6250036478044,4|0,0:0|0:0,0:0:0:0:
464,272,68166,1,2,0:0:0:0:
432,116,68360,1,2,0:0:0:0:
308,288,68554,1,0,1:0:0:0:
256,44,69521,6,0,L|252:86,1,42.5
204,216,69715,2,0,L|208:174,1,42.5
172,40,69908,2,0,L|168:82,1,42.5
120,212,70102,2,0,L|124:170,1,42.5
88,32,70296,6,0,B|72:76|72:76|77:124,1,85,4|0,0:0|0:0,0:0:0:0:
112,251,70586,2,0,B|128:207|128:207|123:169,1,85
58,315,70876,2,0,B|102:331|102:331|150:325,1,85,2|2,0:0|0:0,0:0:0:0:
305,247,71263,2,0,L|310:162,1,85,2|8,0:0|0:0,0:0:0:0:
182,16,71650,2,0,L|176:100,1,85,2|2,0:0|0:0,0:0:0:0:
164,282,72037,6,0,P|196:314|241:319,1,85,2|8,0:0|0:0,0:0:0:0:
409,155,72425,2,0,P|439:185|447:226,1,85,2|2,0:0|0:0,0:0:0:0:
319,327,72812,2,0,L|235:321,1,85,2|8,0:0|0:0,0:0:0:0:
366,260,73199,6,0,P|397:292|402:337,1,85,2|2,0:0|0:0,0:0:0:0:
274,154,73586,2,0,P|242:186|237:231,1,85,2|8,0:0|0:0,0:0:0:0:
390,52,73973,2,0,P|421:84|426:129,1,85,2|2,0:0|0:0,0:0:0:0:
219,0,74360,2,0,P|187:32|182:77,1,85,2|8,0:0|0:0,0:0:0:0:
230,309,74747,2,0,L|236:225,1,85,2|2,0:0|0:0,0:0:0:0:
254,65,75134,5,8,0:0:0:0:
254,65,75231,1,8,0:0:0:0:
254,65,75328,1,2,0:0:0:0:
490,192,75521,5,8,0:0:0:0:
490,192,75618,1,8,0:0:0:0:
490,192,75715,1,2,0:0:0:0:
263,342,75908,5,8,0:0:0:0:
239,340,76004,1,8,0:0:0:0:
216,337,76101,1,2,0:0:0:0:
193,334,76198,1,8,0:0:0:0:
170,332,76295,1,8,0:0:0:0:
146,329,76391,1,8,0:0:0:0:
122,325,76489,6,0,B|106:281|106:281|111:233,1,85,4|0,0:0|0:0,0:0:0:0:
146,106,76779,2,0,B|162:150|162:150|157:188,1,85
92,42,77069,2,0,B|136:26|136:26|184:32,1,85,2|2,0:0|0:0,0:0:0:0:
319,95,77457,2,0,L|314:180,1,85,2|8,0:0|0:0,0:0:0:0:
215,330,77844,2,0,L|220:245,1,85,2|2,0:0|0:0,0:0:0:0:
229,75,78231,6,0,P|191:92|170:129,1,85,2|8,0:0|0:0,0:0:0:0:
326,237,78618,2,0,P|308:199|272:179,1,85,2|2,0:0|0:0,0:0:0:0:
156,275,79005,2,0,P|176:311|214:329,1,85,2|8,0:0|0:0,0:0:0:0:
364,346,79392,2,0,L|449:341,1,85,2|2,0:0|0:0,0:0:0:0:
326,237,79779,2,0,L|241:232,1,85,2|8,0:0|0:0,0:0:0:0:
240,88,80166,6,0,P|257:50|294:29,1,85,2|2,0:0|0:0,0:0:0:0:
441,33,80554,1,2,0:0:0:0:
429,188,80747,2,0,L|415:347,1,127.5,8|0,0:0|0:0,0:0:0:0:
349,191,81134,6,0,P|388:176|428:187,1,85,2|0,0:0|0:0,0:0:0:0:
452,202,81425,1,2,0:0:0:0:
474,218,81521,1,4,0:0:0:0:
352,345,81715,2,0,L|239:335,1,85
88,320,82102,1,10,0:0:0:0:
90,296,82198,1,8,0:0:0:0:
93,273,82295,1,8,0:0:0:0:
96,250,82392,1,8,0:0:0:0:
98,227,82489,1,10,0:0:0:0:
101,203,82585,1,8,0:0:0:0:
105,179,82683,6,0,B|149:195|149:195|197:190,1,85,4|0,0:0|0:0,0:0:0:0:
324,155,82973,2,0,B|280:139|280:139|242:144,1,85
388,209,83263,2,0,B|404:165|404:165|398:117,1,85,2|2,0:0|0:0,0:0:0:0:
247,59,83650,2,0,L|242:144,1,85,2|8,0:0|0:0,0:0:0:0:
301,289,84037,2,0,L|307:205,1,85,2|2,0:0|0:0,0:0:0:0:
315,47,84424,6,0,P|283:79|238:84,1,85,2|8,0:0|0:0,0:0:0:0:
75,174,84812,2,0,P|44:142|39:97,1,85,2|2,0:0|0:0,0:0:0:0:
166,3,85199,2,0,L|250:9,1,85,2|8,0:0|0:0,0:0:0:0:
119,70,85586,6,0,P|88:38|83:-7,1,85,2|2,0:0|0:0,0:0:0:0:
211,176,85973,2,0,P|243:144|248:99,1,85,2|8,0:0|0:0,0:0:0:0:
95,278,86360,2,0,P|64:246|59:201,1,85,2|2,0:0|0:0,0:0:0:0:
266,330,86747,2,0,P|298:298|303:253,1,85,2|8,0:0|0:0,0:0:0:0:
255,21,87134,2,0,L|249:105,1,85,2|2,0:0|0:0,0:0:0:0:
228,264,87521,5,8,0:0:0:0:
228,264,87618,1,8,0:0:0:0:
228,264,87715,1,2,0:0:0:0:
0,110,87908,5,8,0:0:0:0:
0,110,88005,1,8,0:0:0:0:
0,110,88102,1,2,0:0:0:0:
242,0,88295,5,8,0:0:0:0:
266,2,88391,1,8,0:0:0:0:
289,5,88488,1,2,0:0:0:0:
312,8,88585,1,8,0:0:0:0:
335,10,88682,1,8,0:0:0:0:
359,13,88778,1,8,0:0:0:0:
383,17,88876,6,0,P|437:49|448:103,1,85,4|0,0:0|0:0,0:0:0:0:
322,155,89166,2,0,P|354:101|408:90,1,85
507,115,89457,2,0,P|473:139|431:141,1,85,2|2,0:0|0:0,0:0:0:0:
308,39,89844,2,0,L|224:33,1,85,2|8,0:0|0:0,0:0:0:0:
120,142,90231,2,0,L|114:226,1,85,2|2,0:0|0:0,0:0:0:0:
240,354,90618,6,0,P|278:338|302:303,1,85,2|8,0:0|0:0,0:0:0:0:
358,175,91005,2,0,L|442:181,1,85,2|2,0:0|0:0,0:0:0:0:
302,302,91392,2,0,L|218:296,1,85,2|8,0:0|0:0,0:0:0:0:
266,169,91779,1,2,0:0:0:0:
463,333,91973,6,0,L|441:172,1,152.999995330811,4|0,0:0|0:0,0:0:0:0:
437,150,92360,1,8,0:0:0:0:
207,18,92554,2,0,L|46:40,1,152.999995330811,4|0,0:0|0:0,0:0:0:0:
24,44,92941,1,8,0:0:0:0:
26,336,93134,2,0,L|187:314,1,152.999995330811,4|0,0:0|0:0,0:0:0:0:
209,310,93521,5,8,0:0:0:0:
498,262,93715,2,0,L|476:101,1,152.999995330811,4|0,0:0|0:0,0:0:0:0:
472,79,94102,1,8,0:0:0:0:
140,204,94296,2,0,L|162:43,1,152.999995330811,4|0,0:0|0:0,0:0:0:0:
168,20,94683,2,0,B|244:24|244:24|231:115,1,152.999995330811
228,261,95070,6,0,B|216:213|216:213|226:140,1,85,2|0,0:0|0:0,0:0:0:0:
233,100,95360,2,0,B|280:91|280:91|353:105,1,85,2|0,0:0|0:0,0:0:0:0:
380,150,95650,6,0,B|391:214|391:214|372:279,1,127.500004863739,2|2,0:0|0:0,0:0:0:0:
256,360,96231,1,8,0:0:0:0:
256,192,96618,1,2,0:0:0:0:
136,356,97005,2,0,L|16:345,1,95.6250036478044,2|0,0:0|0:0,0:0:0:0:
48,268,97392,6,0,L|52:226,1,42.5,2|0,0:0|0:0,0:0:0:0:
100,96,97586,2,0,L|96:138,1,42.5,2|0,0:0|0:0,0:0:0:0:
132,272,97779,2,0,L|136:230,1,42.5,4|0,0:0|0:0,0:0:0:0:
184,100,97973,2,0,L|180:142,1,42.5,2|0,0:0|0:0,0:0:0:0:
225,290,98166,5,8,0:0:0:0:
225,290,98263,1,8,0:0:0:0:
225,290,98360,1,8,0:0:0:0:
225,290,98457,1,10,0:0:0:0:
331,48,98747,5,8,0:0:0:0:
331,48,98844,1,8,0:0:0:0:
331,48,98941,1,8,0:0:0:0:
331,48,99037,1,10,0:0:0:0:
66,52,99328,5,8,0:0:0:0:
66,52,99425,1,8,0:0:0:0:
66,52,99521,1,8,0:0:0:0:
66,52,99618,1,10,0:0:0:0:
153,326,99908,5,8,0:0:0:0:
153,326,100005,1,8,0:0:0:0:
153,326,100102,1,8,0:0:0:0:
153,326,100199,1,10,0:0:0:0:
407,218,100489,6,0,P|431:178|419:118,1,85,8|8,0:0|0:0,0:0:0:0:
415,102,100779,1,8,0:0:0:0:
392,98,100876,1,8,0:0:0:0:
369,94,100973,1,8,0:0:0:0:
346,90,101070,1,8,0:0:0:0:
323,86,101166,1,8,0:0:0:0:
300,82,101263,6,0,B|252:74|252:74|180:90,1,85,2|0,0:0|0:0,0:0:0:0:
147,127,101554,2,0,B|139:175|139:175|155:247,1,85,2|0,0:0|0:0,0:0:0:0:
212,261,101844,2,0,B|260:269|260:269|332:253,1,85,2|0,0:0|0:0,0:0:0:0:
365,216,102135,2,0,B|373:168|373:168|357:96,1,85,2|0,0:0|0:0,0:0:0:0:
341,54,102425,2,0,B|389:46|389:46|424:54,1,85,2|0,0:0|0:0,0:0:0:0:
459,129,102715,2,0,B|466:165|466:165|458:213,1,85,2|0,0:0|0:0,0:0:0:0:
441,293,103005,2,0,B|393:301|393:301|357:294,1,85,2|0,0:0|0:0,0:0:0:0:
281,261,103296,2,0,B|273:213|273:213|280:177,1,85,2|0,0:0|0:0,0:0:0:0:
310,101,103586,2,0,B|262:93|262:93|190:109,1,85,2|0,0:0|0:0,0:0:0:0:
157,146,103877,2,0,B|149:194|149:194|165:266,1,85,2|0,0:0|0:0,0:0:0:0:
177,307,104166,5,0,0:0:0:0:
