osu file format v14

[General]
AudioFilename: audio.mp3
AudioLeadIn: 0
PreviewTime: 96240
Countdown: 0
SampleSet: Soft
StackLeniency: 0.6
Mode: 0
LetterboxInBreaks: 0
WidescreenStoryboard: 1

[Editor]
Bookmarks: 183370,247814,302629
DistanceSpacing: 1
BeatDivisor: 8
GridSize: 32
TimelineZoom: 1.9

[Metadata]
Title:Izu no Odoriko
TitleUnicode:伊豆の踊子
Artist:Ito Kashitaro
ArtistUnicode:伊東歌詞太郎
Creator:William K
Version:Elegance
Source:
Tags:itou kashitarou たるとP TarutoP まきのせな makinosena off Dancer Dancing girl Itowokashi イトヲカシ
BeatmapID:4195651
BeatmapSetID:593423

[Difficulty]
HPDrainRate:6
CircleSize:4
OverallDifficulty:7
ApproachRate:8.8
SliderMultiplier:2.6
SliderTickRate:1

[Events]
//Background and Video events
0,0,"2017-03-29_22-24-01.jpg",0,0
Video,0,"Vid.avi"
//Break Periods
//Storyboard Layer 0 (Background)
//Storyboard Layer 1 (Fail)
//Storyboard Layer 2 (Pass)
//Storyboard Layer 3 (Foreground)
//Storyboard Layer 4 (Overlay)
//Storyboard Sound Samples

[TimingPoints]
-704,740.740740740741,4,2,1,30,1,0
1518,-133.333333333333,4,2,1,30,0,0
13370,-76.9230769230769,4,2,1,30,0,0
13740,-142.857142857143,4,2,1,30,0,0
14110,-100,4,2,1,55,0,0
24110,-133.333333333333,4,2,1,55,0,0
25221,-133.333333333333,4,2,1,40,0,0
49666,-111.111111111111,4,2,1,45,0,0
73370,-133.333333333333,4,2,1,35,0,0
79296,-133.333333333333,4,2,1,40,0,0
85221,-120.481927710843,4,2,1,40,0,0
91147,-111.111111111111,4,2,1,45,0,0
94018,-111.111111111111,4,2,1,5,0,0
94110,-111.111111111111,4,2,1,45,0,0
95592,-111.111111111111,4,2,1,50,0,0
96333,-111.111111111111,4,2,1,40,0,0
97073,-100,4,2,1,55,0,1
123740,-100,4,2,1,45,0,0
133740,-133.333333333333,4,2,1,45,0,0
134481,-95.2380952380951,4,2,1,45,0,0
135221,-133.333333333333,4,2,1,45,0,0
135499,-133.333333333333,4,2,1,5,0,0
135592,-111.111111111111,4,2,1,45,0,0
159296,-120.481927710843,4,2,1,45,0,0
171055,-120.481927710843,4,2,1,5,0,0
171147,-120.481927710843,4,2,1,45,0,0
177073,-111.111111111111,4,2,1,50,0,0
179944,-111.111111111111,4,2,1,5,0,0
180036,-111.111111111111,4,2,1,50,0,0
182258,-111.111111111111,4,2,1,40,0,0
182999,-100,4,2,1,55,0,1
206610,-100,4,2,1,5,0,1
206703,-100,4,2,1,55,0,1
209666,-71.4285714285714,4,2,1,50,0,0
210407,-125,4,2,1,50,0,0
210777,-62.5,4,2,1,50,0,0
211518,-125,4,2,1,50,0,0
212073,-71.4285714285714,4,2,1,50,0,0
220036,-58.8235294117647,4,2,1,50,0,0
221518,-62.5,4,2,1,50,0,0
223370,-125,4,2,1,50,0,0
224481,-62.5,4,2,1,50,0,0
227444,-55.5555555555556,4,2,1,50,0,0
232999,-125,4,2,1,50,0,0
233277,-100,4,2,1,5,0,0
233370,-100,4,2,1,45,0,0
257073,-108.108108108108,4,2,1,45,0,0
258555,-108.108108108108,4,2,1,30,0,0
260036,-181.818181818181,4,2,1,30,0,0
271888,-133.333333333333,4,2,1,40,0,0
282629,-133.333333333333,4,2,1,20,0,0
282814,-133.333333333333,4,2,1,30,0,0
282999,-133.333333333333,4,2,1,40,0,0
283647,-133.333333333333,4,2,1,5,0,0
283740,-100,4,2,1,50,0,0
284758,-100,4,2,1,5,0,0
284851,-100,4,2,1,50,0,0
285129,-100,4,2,1,5,0,0
285221,-100,4,2,1,50,0,0
287444,-100,4,2,1,52,0,0
288184,-100,4,2,1,55,0,0
289666,-90.9090909090909,4,2,1,60,0,1
319296,-133.333333333333,4,2,1,45,0,0
324481,-76.9230769230769,4,2,1,60,0,1
328184,-100,4,2,1,40,0,0
330407,-133.333333333333,4,2,1,40,0,0
342073,-133.333333333333,4,2,1,5,0,0
342258,-133.333333333333,4,2,1,40,0,0
351916,740.740740740741,4,2,1,40,1,0
351916,-133.333333333333,4,2,1,40,0,0
353397,759.493670886076,4,2,1,40,1,0
353397,-133.333333333333,4,2,1,40,0,0
354915,789.473684210526,4,2,1,40,1,0
354915,-133.333333333333,4,2,1,40,0,0
356099,821.917808219178,4,2,1,40,1,0
356099,-133.333333333333,4,2,1,40,0,0
356920,895.522388059701,4,2,1,40,1,0
357367,967.741935483871,4,2,1,40,1,0
357367,-133.333333333333,4,2,1,40,0,0
357850,1052.63157894737,4,2,1,40,1,0
358376,1250,4,2,1,40,1,0
359001,722.89156626506,4,2,1,40,1,0
359001,-133.333333333333,4,2,1,40,0,0
359723,869.565217391304,4,2,1,40,1,0
360157,810.810810810811,4,2,1,40,1,0
360157,-133.333333333333,4,2,1,40,0,0
360562,895.522388059701,4,2,1,40,1,0
361009,1090.90909090909,4,2,1,40,1,0
361009,-133.333333333333,4,2,1,40,0,0
361554,1363.63636363636,4,2,1,40,1,0
362235,1111.11111111111,4,2,1,40,1,0
363346,1500,4,2,1,40,1,0
364846,-100,4,2,1,30,0,0
366346,-100,4,2,1,20,0,0
367846,-100,4,2,1,10,0,0
369346,-100,4,2,1,5,0,0

[Colours]
Combo1 : 255,117,117
Combo2 : 255,182,147
Combo3 : 155,255,255
Combo4 : 210,105,0

[HitObjects]
161,135,1518,6,0,P|207:123|231:110,1,48.750001859665,2|0,0:0|0:0,0:0:0:0:
75,204,1888,2,0,P|121:216|145:229,1,48.750001859665,2|0,0:0|0:0,0:0:0:0:
164,52,2258,6,0,P|221:105|360:116,1,195.00000743866,2|0,0:0|0:0,0:0:0:0:
480,28,3370,1,2,0:0:0:0:
480,28,3740,2,0,P|464:83|452:148,1,97.50000371933,2|0,0:0|0:0,0:0:0:0:
333,148,4419,1,0,0:0:0:0:
333,148,4481,2,0,P|349:203|361:268,1,97.50000371933,2|0,0:0|0:0,0:0:0:0:
479,372,5221,6,0,P|432:341|376:341,2,97.50000371933,2|0|2,0:0|0:0|0:0,0:0:0:0:
362,251,6333,1,0,0:0:0:0:
199,303,6703,1,2,0:0:0:0:
199,303,7444,6,0,P|191:336|186:357,1,48.750001859665,2|0,0:0|0:0,0:0:0:0:
104,228,7814,2,0,P|112:261|117:282,1,48.750001859665,2|0,0:0|0:0,0:0:0:0:
266,354,8184,6,0,P|224:298|198:167,1,195.00000743866,2|0,0:0|0:0,0:0:0:0:
269,29,9296,1,2,0:0:0:0:
282,49,9604,5,0,0:0:0:0:
282,49,9666,2,0,P|235:55|171:60,1,97.50000371933,2|0,0:0|0:0,0:0:0:0:
182,184,10407,2,0,P|135:178|71:173,1,97.50000371933,2|0,0:0|0:0,0:0:0:0:
295,74,11086,1,0,0:0:0:0:
295,74,11147,6,0,P|335:79|375:128,1,97.50000371933,2|0,0:0|0:0,0:0:0:0:
332,186,11703,1,0,0:0:0:0:
385,242,11888,2,0,P|469:225|500:219,1,97.50000371933,2|0,0:0|0:0,0:0:0:0:
296,365,12629,2,0,B|213:350|265:296|171:289,1,146.250005578995,2|8,0:0|0:0,0:0:0:0:
43,249,13277,1,8,0:0:0:0:
60,265,13370,6,0,P|89:254|124:236,1,42.2499980659486,10|0,0:0|0:0,0:0:0:0:
270,164,13555,2,0,P|241:153|206:135,1,42.2499980659486,10|0,0:3|0:0,0:0:0:0:
124,115,13740,2,0,P|138:170|139:176,1,45.4999986114502,6|0,0:3|0:0,0:0:0:0:
51,366,14110,6,0,P|110:334|177:317,2,130,6|0|2,0:0|0:0|0:0,0:0:0:0:
320,372,15221,1,6,0:3:0:0:
320,372,15592,2,0,P|349:338|431:309,1,130,2|4,0:0|0:3,0:0:0:0:
161,304,16333,2,0,P|147:261|83:202,1,130,10|0,0:0|0:0,0:0:0:0:
24,50,16888,1,8,0:0:0:0:
24,50,16981,1,8,0:0:0:0:
24,50,17073,6,0,P|73:80|165:77,1,130,10|0,0:3|0:0,0:0:0:0:
327,11,17814,2,0,P|308:74|288:149,1,130,10|8,0:0|0:3,0:0:0:0:
474,285,18555,2,0,P|497:253|475:190,1,97.5,6|0,0:3|0:0,0:0:0:0:
425,151,18925,6,0,P|372:169|334:179,1,65,8|0,0:0|0:0,0:0:0:0:
306,347,19296,5,10,0:0:0:0:
236,252,19481,1,0,0:0:0:0:
162,298,19666,2,0,P|109:280|71:270,1,65,2|0,0:0|0:0,0:0:0:0:
1,155,20036,6,0,P|23:111|113:92,1,130,6|0,0:0|0:0,0:0:0:0:
306,0,20777,2,0,P|328:44|418:63,1,130,10|0,0:0|0:0,0:0:0:0:
506,7,21333,1,8,0:0:0:0:
506,7,21425,1,8,0:0:0:0:
506,7,21518,1,10,0:3:0:0:
401,79,21703,1,8,0:0:0:0:
510,173,21888,2,0,P|496:117|494:90,1,65,8|0,0:3|0:0,0:0:0:0:
352,226,22258,2,0,P|425:239|468:304,1,130,10|0,0:0|0:0,0:0:0:0:
325,365,22814,1,8,0:0:0:0:
325,365,22907,1,8,0:0:0:0:
325,365,22999,6,0,P|275:344|237:336,1,65,6|0,0:0|0:0,0:0:0:0:
246,193,23370,2,0,P|196:214|158:222,1,65,2|0,0:0|0:0,0:0:0:0:
134,297,23740,2,0,P|84:276|46:268,1,65,6|0,0:3|0:0,0:0:0:0:
8,152,24110,6,0,P|21:219|36:358,1,195.00000743866,14|8,0:0|0:3,0:0:0:0:
27,355,25221,2,0,P|68:319|131:320,1,97.50000371933,2|4,0:0|0:3,0:0:0:0:
274,328,25962,6,0,P|344:340|481:369,1,195.00000743866,6|2,0:0|0:0,0:0:0:0:
510,293,27073,1,0,0:0:0:0:
422,184,27444,2,0,P|416:149|408:77,2,97.50000371933,2|0|2,0:0|0:0|0:0,0:0:0:0:
506,283,28555,1,0,0:0:0:0:
381,370,28925,6,0,P|358:341|298:319,1,97.50000371933,6|0,0:3|0:0,0:0:0:0:
144,244,29666,2,0,P|168:300|180:355,1,97.50000371933,2|0,0:0|0:0,0:0:0:0:
310,228,30407,2,0,P|331:183|323:130,2,97.50000371933,2|0|2,0:0|0:0|0:0,0:0:0:0:
202,167,31518,1,4,0:3:0:0:
176,335,31888,6,0,P|124:353|80:371,1,97.50000371933,6|0,0:3|0:0,0:0:0:0:
26,302,32629,1,2,0:0:0:0:
120,222,32999,1,0,0:0:0:0:
20,95,33370,2,0,P|11:49|3:0,2,97.50000371933,2|0|2,0:0|0:0|0:0,0:0:0:0:
31,185,34481,1,0,0:0:0:0:
178,33,34851,6,0,P|231:51|287:62,1,97.50000371933,6|0,0:3|0:0,0:0:0:0:
344,22,35592,1,2,0:0:0:0:
423,117,35962,1,0,0:0:0:0:
502,7,36333,2,0,P|517:58|540:118,1,97.50000371933,2|0,0:0|0:0,0:0:0:0:
429,129,37073,1,2,0:0:0:0:
349,33,37444,1,4,0:3:0:0:
230,181,37814,6,0,P|180:164|188:26,1,195.00000743866,6|2,0:0|0:0,0:0:0:0:
260,20,38925,1,0,0:0:0:0:
326,179,39296,2,0,P|306:237|297:286,2,97.50000371933,2|0|2,0:0|0:0|0:0,0:0:0:0:
396,134,40407,1,0,0:0:0:0:
484,300,40777,6,0,P|455:276|376:267,1,97.50000371933,6|0,0:3|0:0,0:0:0:0:
274,356,41518,2,0,P|256:316|203:267,1,97.50000371933,2|0,0:0|0:0,0:0:0:0:
53,286,42258,2,0,P|108:250|128:203,2,97.50000371933,2|0|2,0:0|0:0|0:0,0:0:0:0:
2,218,43370,1,4,0:3:0:0:
149,128,43740,6,0,P|203:154|261:170,1,97.50000371933,6|0,0:3|0:0,0:0:0:0:
327,249,44481,1,2,0:0:0:0:
404,197,44851,1,0,0:0:0:0:
510,346,45221,2,0,P|486:305|392:309,1,146.250005578995,2|0,0:0|0:0,0:0:0:0:
395,305,45962,2,0,P|428:343|483:337,1,97.50000371933,2|0,0:0|0:0,0:0:0:0:
505,183,46703,6,0,P|497:153|486:72,2,97.50000371933,6|0|2,0:3|0:0|0:0,0:0:0:0:
471,71,47814,1,0,0:0:0:0:
323,100,48184,1,2,0:0:0:0:
191,17,48555,2,0,P|131:30|97:38,1,73.1250027894975,4|0,0:0|0:0,0:0:0:0:
109,23,48925,5,10,0:0:0:0:
323,100,49110,1,8,0:0:0:0:
159,112,49296,2,0,P|219:99|253:91,1,73.1250027894975,10|0,0:3|0:0,0:0:0:0:
323,100,49666,6,0,P|246:118|203:128,1,116.999996429443,6|0,0:0|0:0,0:0:0:0:
153,200,50407,1,2,0:0:0:0:
32,147,50777,1,4,0:3:0:0:
46,324,51147,2,0,P|72:303|158:286,1,116.999996429443,10|0,0:3|0:0,0:0:0:0:
454,380,51888,1,10,0:0:0:0:
403,309,52258,1,0,0:0:0:0:
473,375,52444,2,0,L|485:332,1,29.2499991073609,8|8,0:0|0:0,0:0:0:0:
394,300,52629,6,0,P|379:245|374:172,1,116.999996429443,10|0,0:3|0:0,0:0:0:0:
445,31,53370,2,0,P|373:58|311:60,1,116.999996429443,2|4,0:0|0:3,0:0:0:0:
177,146,54110,2,0,P|235:161|295:201,1,116.999996429443,10|0,0:3|0:0,0:0:0:0:
32,28,54851,1,10,0:0:0:0:
59,124,55221,1,0,0:0:0:0:
52,17,55407,2,0,P|42:55|40:66,1,29.2499991073609,8|8,0:0|0:0,0:0:0:0:
45,134,55592,6,0,P|82:192|91:242,1,116.999996429443,10|0,0:3|0:0,0:0:0:0:
69,331,56333,1,2,0:0:0:0:
207,209,56703,1,4,0:3:0:0:
379,332,57073,2,0,P|406:299|397:226,1,116.999996429443,10|0,0:3|0:0,0:0:0:0:
157,32,57814,1,10,0:0:0:0:
255,86,58184,1,0,0:0:0:0:
153,50,58370,2,0,L|203:35,1,29.2499991073609,8|8,0:0|0:0,0:0:0:0:
261,101,58555,6,0,P|313:117|380:146,1,116.999996429443,10|0,0:3|0:0,0:0:0:0:
437,220,59296,1,2,0:0:0:0:
457,77,59666,1,4,0:3:0:0:
336,221,60036,2,0,P|356:289|379:347,1,116.999996429443,10|0,0:3|0:0,0:0:0:0:
467,61,60777,2,0,P|435:29|355:31,1,116.999996429443,10|0,0:0|0:0,0:0:0:0:
246,79,61333,2,0,P|260:74|274:69,1,29.2499991073609,8|8,0:0|0:0,0:0:0:0:
364,39,61518,6,0,P|346:117|336:178,1,116.999996429443,10|0,0:3|0:0,0:0:0:0:
401,220,62258,1,2,0:0:0:0:
281,275,62629,1,4,0:3:0:0:
488,379,62999,2,0,P|431:353|374:352,1,116.999996429443,10|0,0:3|0:0,0:0:0:0:
3,370,63740,1,10,0:0:0:0:
89,302,64110,1,0,0:0:0:0:
14,375,64296,2,0,L|18:329,1,29.2499991073609,8|8,0:0|0:0,0:0:0:0:
102,295,64481,6,0,P|74:239|72:171,1,116.999996429443,10|0,0:3|0:0,0:0:0:0:
164,26,65221,2,0,P|208:67|275:84,1,116.999996429443,2|12,0:0|0:3,0:0:0:0:
457,45,65962,2,0,P|426:77|390:165,1,116.999996429443,10|0,0:3|0:0,0:0:0:0:
505,382,66703,1,10,0:0:0:0:
439,276,67073,1,0,0:0:0:0:
502,374,67258,2,0,L|512:335,1,29.2499991073609,8|8,0:0|0:0,0:0:0:0:
444,262,67444,6,0,P|378:280|315:283,1,116.999996429443,10|0,0:3|0:0,0:0:0:0:
191,368,68184,1,2,0:0:0:0:
137,268,68555,1,4,0:3:0:0:
1,371,68925,2,0,P|31:348|29:262,1,116.999996429443,10|0,0:3|0:0,0:0:0:0:
291,339,69666,1,10,0:0:0:0:
266,228,70036,1,0,0:0:0:0:
303,346,70221,2,0,L|310:307,1,29.2499991073609,8|8,0:0|0:0,0:0:0:0:
251,243,70407,6,0,P|200:216|116:216,1,116.999996429443,10|0,0:3|0:0,0:0:0:0:
69,266,71147,1,2,0:0:0:0:
390,95,71518,5,14,0:0:0:0:
390,95,72258,2,0,P|367:132|362:174,1,58.4999982147217,4|0,0:3|0:0,0:0:0:0:
406,291,72629,2,0,P|375:246|302:226,1,116.999996429443,8|0,0:3|0:0,0:0:0:0:
334,36,73184,1,2,0:0:0:0:
334,36,73277,1,2,0:0:0:0:
334,36,73370,6,0,B|234:44|292:132|167:141,1,195.00000743866,6|2,0:3|0:0,0:0:0:0:
173,130,74481,1,0,0:0:0:0:
178,36,74851,2,0,B|278:44|220:132|345:141,1,195.00000743866,2|2,0:0|0:0,0:0:0:0:
333,51,75962,1,0,0:0:0:0:
172,128,76333,6,0,P|104:147|63:156,2,97.50000371933,6|0|2,0:3|0:0|0:0,0:0:0:0:
66,143,77444,1,0,0:0:0:0:
86,51,77814,2,0,P|117:121|143:258,1,195.00000743866,2|2,0:0|0:0,0:0:0:0:
80,294,78925,1,0,0:0:0:0:
328,362,79296,6,0,B|299:290|226:290|226:290|197:314|158:319,1,195.00000743866,6|2,0:0|0:0,0:0:0:0:
160,307,80407,1,0,0:0:0:0:
340,191,80777,2,0,P|316:237|302:288,1,97.50000371933,6|0,0:3|0:0,0:0:0:0:
122,70,81518,2,0,P|146:116|160:167,1,97.50000371933,2|0,0:0|0:0,0:0:0:0:
499,83,82258,6,0,P|455:54|429:7,1,97.50000371933,6|0,0:3|0:0,0:0:0:0:
448,246,82999,2,0,P|428:220|419:139,1,97.50000371933,2|4,0:0|0:0,0:0:0:0:
275,358,83740,5,10,0:3:0:0:
470,337,84110,1,8,0:3:0:0:
341,292,84481,5,6,0:3:0:0:
390,379,84851,1,4,0:3:0:0:
332,197,85221,6,0,B|292:154|241:158|241:158|213:220|131:223,1,215.800003128204,6|2,0:0|0:0,0:0:0:0:
66,80,86333,1,2,0:0:0:0:
156,133,86703,2,0,P|172:83|172:9,1,107.900001564102,2|0,0:0|0:0,0:0:0:0:
281,271,87444,1,10,0:0:0:0:
340,105,87814,1,2,0:0:0:0:
281,285,88184,6,0,P|319:301|377:361,1,107.900001564102,6|0,0:0|0:0,0:0:0:0:
350,120,88925,2,0,P|396:85|400:27,1,107.900001564102,2|8,0:0|0:3,0:0:0:0:
285,275,89666,2,0,P|323:291|381:351,1,107.900001564102,2|8,0:0|0:3,0:0:0:0:
413,41,90407,2,0,P|403:92|359:122,1,107.900001564102,10|4,0:0|0:3,0:0:0:0:
289,364,91147,6,0,P|272:309|96:273,1,233.999992858887,6|8,0:0|0:3,0:0:0:0:
26,353,92258,1,0,0:0:0:0:
114,273,92629,2,0,P|175:247|183:189,1,116.999996429443,2|2,0:0|0:0,0:0:0:0:
11,18,93370,5,8,0:0:0:0:
200,92,93555,1,8,0:0:0:0:
16,32,93740,2,0,P|66:51|112:64,1,87.7499973220826,8|0,0:3|0:0,0:0:0:0:
197,79,94110,6,0,P|145:68|72:155,1,175.499994644165,6|0,0:0|0:0,0:0:0:0:
30,222,94851,5,10,0:0:0:0:
150,245,95036,1,8,0:3:0:0:
258,174,95221,1,6,0:3:0:0:
343,159,95407,1,2,0:0:0:0:
426,200,95592,5,10,0:0:0:0:
426,200,95962,2,0,P|440:165|446:101,1,87.7499973220826,10|0,0:0|0:0,0:0:0:0:
399,211,96333,6,0,P|436:195|532:185,1,116.999996429443,2|2,0:0|0:0,0:0:0:0:
454,372,96981,1,2,0:0:0:0:
454,372,97073,6,0,P|502:336|497:266,1,130,6|2,0:0|0:0,0:0:0:0:
472,9,97814,2,0,P|424:45|429:115,1,130,10|2,0:0|0:0,0:0:0:0:
493,180,98370,1,8,0:0:0:0:
410,214,98555,2,0,P|450:192|479:180,1,65,10|8,0:3|0:0,0:0:0:0:
388,310,98925,2,0,P|350:275|249:255,1,130,6|10,0:3|0:0,0:0:0:0:
0,382,99666,1,2,0:0:0:0:
82,334,99851,1,8,0:0:0:0:
82,334,99944,1,8,0:0:0:0:
82,334,100036,6,0,P|93:275|94:253,1,65,10|0,0:3|0:0,0:0:0:0:
185,202,100407,2,0,P|174:143|173:121,1,65,2|0,0:0|0:0,0:0:0:0:
95,331,100777,2,0,P|106:272|107:250,1,65,10|0,0:0|0:0,0:0:0:0:
235,14,101147,2,0,P|238:46|246:77,1,65,2|8,0:0|0:0,0:0:0:0:
461,193,101518,1,10,0:3:0:0:
370,24,101703,1,8,0:0:0:0:
290,160,101888,2,0,P|350:124|428:109,1,130,4|8,0:3|0:0,0:0:0:0:
417,114,102629,5,2,0:0:0:0:
478,338,102814,2,0,L|493:299,1,32.5,10|8,0:0|0:0,0:0:0:0:
431,115,102999,6,0,P|410:187|395:257,1,130,6|2,0:0|0:0,0:0:0:0:
466,342,103555,1,2,0:0:0:0:
290,179,103740,1,8,0:0:0:0:
293,188,104110,6,0,P|224:209|206:213,1,65,2|8,0:0|0:0,0:0:0:0:
71,345,104481,2,0,P|140:324|158:320,1,65,10|8,0:3|0:0,0:0:0:0:
163,153,104851,1,6,0:3:0:0:
77,239,105036,1,2,0:0:0:0:
347,371,105221,1,8,0:0:0:0:
337,376,105592,2,0,P|297:351|265:347,1,65,2|8,0:0|0:0,0:0:0:0:
205,332,105870,1,8,0:0:0:0:
205,332,105962,6,0,P|148:349|119:354,1,65,10|0,0:3|0:0,0:0:0:0:
366,249,106333,2,0,P|309:232|280:227,1,65,2|0,0:0|0:0,0:0:0:0:
133,363,106703,2,0,P|164:355|195:344,1,65,10|0,0:0|0:0,0:0:0:0:
490,153,107073,2,0,P|433:136|404:131,1,65,2|8,0:0|0:0,0:0:0:0:
183,188,107444,6,0,P|192:233|214:260,1,65,10|8,0:3|0:0,0:0:0:0:
343,104,107814,2,0,P|300:120|276:121,1,65,4|0,0:3|0:0,0:0:0:0:
20,280,108184,2,0,P|100:311|141:362,1,130,10|2,0:0|0:0,0:0:0:0:
30,142,108740,1,8,0:0:0:0:
30,142,108833,1,8,0:0:0:0:
30,142,108925,6,0,P|74:100|75:6,1,130,6|2,0:0|0:0,0:0:0:0:
506,18,109666,2,0,P|462:60|461:154,1,130,10|2,0:0|0:0,0:0:0:0:
219,64,110221,1,8,0:0:0:0:
312,95,110407,2,0,P|265:84|230:71,1,65,10|8,0:3|0:0,0:0:0:0:
388,261,110777,2,0,P|454:231|541:220,1,130,6|10,0:3|0:0,0:0:0:0:
318,108,111518,1,2,0:0:0:0:
276,300,111703,1,8,0:0:0:0:
276,300,111796,1,8,0:0:0:0:
276,300,111888,6,0,P|231:281|200:278,1,65,10|0,0:3|0:0,0:0:0:0:
159,170,112258,2,0,P|114:189|83:192,1,65,2|0,0:0|0:0,0:0:0:0:
275,314,112629,2,0,P|230:295|199:292,1,65,10|0,0:0|0:0,0:0:0:0:
23,89,112999,2,0,P|54:82|83:68,1,65,2|8,0:0|0:0,0:0:0:0:
308,16,113370,5,10,0:3:0:0:
234,75,113555,1,8,0:0:0:0:
308,16,113740,2,0,P|354:42|441:53,1,130,4|8,0:3|0:0,0:0:0:0:
484,267,114481,1,2,0:0:0:0:
442,61,114666,2,0,P|431:101|426:122,1,32.5,10|8,0:0|0:0,0:0:0:0:
490,286,114851,6,0,P|459:231|374:229,1,130,6|2,0:0|0:0,0:0:0:0:
338,279,115407,2,0,P|296:293|262:308,1,65,2|0,0:0|0:0,0:0:0:0:
276,312,115962,1,6,0:3:0:0:
203,228,116333,1,2,0:0:0:0:
106,281,116703,2,0,P|56:295|34:307,1,65,10|2,0:3|0:0,0:0:0:0:
188,137,117073,2,0,P|224:105|197:25,1,130,8|2,0:0|0:0,0:0:0:0:
134,70,117629,1,2,0:0:0:0:
22,257,117814,6,0,P|53:202|138:200,1,130,6|2,0:0|0:0,0:0:0:0:
174,250,118370,2,0,P|216:264|250:279,1,65,2|0,0:0|0:0,0:0:0:0:
236,283,118925,1,6,0:3:0:0:
309,199,119296,1,2,0:0:0:0:
406,252,119666,2,0,P|456:266|478:278,1,65,10|2,0:3|0:0,0:0:0:0:
327,115,120036,2,0,P|291:83|318:3,1,130,8|6,0:0|0:3,0:0:0:0:
420,213,120777,6,0,P|365:198|340:176,1,65,6|0,0:0|0:0,0:0:0:0:
152,202,121147,2,0,P|163:264|168:294,1,65,2|0,0:0|0:0,0:0:0:0:
332,40,121518,2,0,P|343:102|348:132,1,65,10|0,0:0|0:0,0:0:0:0:
115,1,121888,2,0,P|126:63|131:93,1,65,2|0,0:0|0:0,0:0:0:0:
414,0,122258,5,8,0:0:0:0:
414,0,123740,6,0,P|400:67|390:149,1,130,6|0,0:0|0:0,0:0:0:0:
477,384,124481,2,0,P|491:317|501:235,1,130,10|0,0:0|0:0,0:0:0:0:
398,148,125036,1,8,0:0:0:0:
413,237,125221,1,10,0:3:0:0:
398,148,125407,1,8,0:0:0:0:
349,297,125592,1,6,0:3:0:0:
349,297,125962,2,0,P|311:247|235:246,1,130,10|0,0:0|0:0,0:0:0:0:
16,368,126518,1,8,0:0:0:0:
16,368,126610,1,8,0:0:0:0:
16,368,126703,6,0,P|45:342|162:331,1,130,10|0,0:3|0:0,0:0:0:0:
343,381,127444,2,0,L|367:252,1,130,10|0,0:0|0:0,0:0:0:0:
346,163,127999,1,8,0:0:0:0:
346,163,128092,1,8,0:0:0:0:
346,163,128184,1,10,0:3:0:0:
439,192,128370,1,8,0:0:0:0:
500,118,128555,2,0,P|483:64|476:29,1,65,6|0,0:3|0:0,0:0:0:0:
333,149,128925,2,0,P|291:148|242:72,1,130,10|0,0:0|0:0,0:0:0:0:
75,11,129481,1,8,0:0:0:0:
75,11,129573,1,8,0:0:0:0:
75,11,129666,6,0,P|116:33|137:123,1,130,6|0,0:0|0:0,0:0:0:0:
81,331,130407,2,0,P|40:309|19:219,1,130,10|0,0:0|0:0,0:0:0:0:
136,126,130962,1,8,0:0:0:0:
105,205,131147,1,10,0:3:0:0:
136,126,131333,1,8,0:0:0:0:
168,274,131518,1,6,0:3:0:0:
168,274,131888,2,0,P|209:253|291:242,1,130,10|0,0:0|0:0,0:0:0:0:
489,108,132444,1,8,0:0:0:0:
489,108,132536,1,8,0:0:0:0:
489,108,132629,6,0,P|435:76|411:56,1,65,6|0,0:0|0:0,0:0:0:0:
362,238,132999,2,0,P|308:270|284:290,1,65,2|0,0:0|0:0,0:0:0:0:
236,134,133370,2,0,P|182:102|155:70,1,97.5,2|0,0:0|0:0,0:0:0:0:
162,62,133740,6,0,P|183:83|158:204,1,146.250005578995,6|0,0:0|0:0,0:0:0:0:
16,358,134481,6,0,B|39:331|39:331|81:334,1,68.2499979171754,8|0,0:0|0:0,0:0:0:0:
171,206,134851,1,10,0:0:0:0:
73,348,135036,1,8,0:0:0:0:
158,214,135221,6,0,P|171:267|179:294,1,73.1250027894975,2|0,0:0|0:0,0:0:0:0:
176,284,135592,6,0,P|211:250|299:255,1,116.999996429443,6|0,0:0|0:0,0:0:0:0:
475,357,136333,1,10,0:0:0:0:
349,338,136703,1,10,0:3:0:0:
425,278,136888,2,0,L|436:242,2,29.2499991073609,8|8|10,0:0|0:0|0:3,0:0:0:0:
334,349,137258,1,8,0:0:0:0:
334,349,137351,1,8,0:0:0:0:
334,349,137444,1,4,0:3:0:0:
508,153,137814,2,0,P|487:106|480:38,1,116.999996429443,10|2,0:0|0:0,0:0:0:0:
328,49,138370,2,0,L|363:57,1,29.2499991073609,8|8,0:0|0:0,0:0:0:0:
473,29,138555,6,0,P|405:41|358:86,1,116.999996429443,10|2,0:3|0:0,0:0:0:0:
336,250,139296,2,0,P|289:215|231:208,1,116.999996429443,10|6,0:0|0:3,0:0:0:0:
53,286,139851,1,8,0:0:0:0:
53,286,139944,1,8,0:0:0:0:
53,286,140036,2,0,L|58:211,1,58.4999982147217,10|8,0:3|0:0,0:0:0:0:
49,206,140314,1,8,0:0:0:0:
49,206,140407,1,4,0:3:0:0:
254,303,140777,1,10,0:0:0:0:
203,126,141147,2,0,P|211:95|212:65,1,58.4999982147217,2|0,0:0|0:0,0:0:0:0:
100,0,141518,6,0,P|125:33|222:47,1,116.999996429443,10|0,0:3|0:0,0:0:0:0:
486,16,142258,1,10,0:0:0:0:
277,160,142629,1,10,0:3:0:0:
420,144,142814,2,0,L|415:174,2,29.2499991073609,8|8|10,0:0|0:0|0:3,0:0:0:0:
468,35,143184,1,8,0:0:0:0:
468,35,143277,1,8,0:0:0:0:
468,35,143370,1,6,0:3:0:0:
337,256,143740,2,0,P|364:297|384:365,1,116.999996429443,10|2,0:0|0:0,0:0:0:0:
152,361,144296,1,8,0:0:0:0:
152,361,144388,1,8,0:0:0:0:
152,361,144481,6,0,L|31:351,1,116.999996429443,10|0,0:3|0:0,0:0:0:0:
219,243,145221,1,10,0:0:0:0:
82,154,145592,1,6,0:3:0:0:
144,55,145777,1,8,0:0:0:0:
144,55,145870,1,8,0:0:0:0:
144,55,145962,2,0,L|212:67,1,58.4999982147217,10|8,0:3|0:0,0:0:0:0:
211,84,146240,1,8,0:0:0:0:
211,83,146333,1,4,0:3:0:0:
69,170,146703,1,10,0:0:0:0:
221,256,147073,1,2,0:0:0:0:
8,381,147444,6,0,P|49:332|122:325,1,116.999996429443,10|0,0:3|0:0,0:0:0:0:
356,364,148184,1,10,0:0:0:0:
220,262,148555,1,10,0:3:0:0:
348,252,148740,1,8,0:0:0:0:
348,252,148833,1,8,0:0:0:0:
348,252,148925,2,0,L|356:193,1,58.4999982147217,10|8,0:3|0:0,0:0:0:0:
372,180,149203,1,8,0:0:0:0:
373,181,149296,1,4,0:3:0:0:
256,379,149666,2,0,P|241:331|200:267,1,116.999996429443,10|2,0:0|0:0,0:0:0:0:
291,89,150221,2,0,L|284:135,1,29.2499991073609,8|0,0:0|0:0,0:0:0:0:
203,256,150407,6,0,P|260:228|329:219,1,116.999996429443,10|2,0:3|0:0,0:0:0:0:
345,5,151147,2,0,P|402:15|454:42,1,116.999996429443,10|6,0:0|0:3,0:0:0:0:
493,196,151703,1,8,0:0:0:0:
493,196,151796,1,8,0:0:0:0:
493,196,151888,1,10,0:3:0:0:
386,136,152073,1,8,0:0:0:0:
386,136,152166,1,8,0:0:0:0:
386,136,152258,1,4,0:3:0:0:
469,372,152629,2,0,P|413:328|426:268,1,116.999996429443,10|2,0:0|0:0,0:0:0:0:
180,325,153370,6,0,L|58:361,1,116.999996429443,10|0,0:3|0:0,0:0:0:0:
298,235,154110,1,10,0:0:0:0:
420,335,154481,1,10,0:3:0:0:
494,197,154666,1,8,0:0:0:0:
494,197,154758,1,8,0:0:0:0:
494,197,154851,2,0,L|480:123,1,58.4999982147217,10|8,0:3|0:0,0:0:0:0:
492,124,155129,1,8,0:0:0:0:
492,124,155221,1,4,0:3:0:0:
334,370,155592,2,0,P|348:298|345:244,1,116.999996429443,10|2,0:0|0:0,0:0:0:0:
379,151,156147,1,8,0:0:0:0:
379,151,156240,1,8,0:0:0:0:
379,151,156333,6,0,P|343:134|306:57,1,116.999996429443,10|0,0:3|0:0,0:0:0:0:
311,59,157073,1,10,0:0:0:0:
92,324,157444,5,14,0:0:0:0:
126,245,157814,1,2,0:0:0:0:
413,338,158184,6,0,L|336:327,1,58.4999982147217,8|0,0:0|0:0,0:0:0:0:
125,234,158555,1,10,0:0:0:0:
222,345,158740,1,8,0:0:0:0:
265,227,158925,2,0,P|243:183|236:151,1,58.4999982147217,10|2,0:0|0:0,0:0:0:0:
260,100,159203,1,2,0:0:0:0:
260,100,159296,6,0,P|310:101|352:140,1,107.900001564102,4|0,0:0|0:0,0:0:0:0:
361,127,160036,2,0,P|385:170|372:226,1,107.900001564102,10|0,0:3|0:0,0:0:0:0:
388,227,160777,2,0,P|362:269|307:286,1,107.900001564102,10|0,0:3|0:0,0:0:0:0:
303,306,161518,2,0,P|261:294|238:287,1,53.9500007820511,6|0,0:3|0:0,0:0:0:0:
32,167,161888,1,10,0:0:0:0:
32,167,162073,1,8,0:0:0:0:
103,314,162258,6,0,P|139:267|125:214,1,107.900001564102,6|2,0:0|0:0,0:0:0:0:
152,211,162999,2,0,P|117:171|124:119,1,107.900001564102,10|2,0:3|0:0,0:0:0:0:
103,108,163740,2,0,P|114:66|110:39,2,53.9500007820511,10|8|4,0:3|0:3|0:3,0:0:0:0:
261,199,164481,2,0,P|251:225|250:252,2,53.9500007820511,10|8|6,0:3|0:3|0:3,0:0:0:0:
497,29,165221,6,0,P|450:21|403:69,1,107.900001564102,6|0,0:0|0:0,0:0:0:0:
393,49,165962,2,0,P|362:85|380:150,1,107.900001564102,10|0,0:3|0:0,0:0:0:0:
481,379,166703,1,6,0:0:0:0:
404,251,167073,1,2,0:0:0:0:
249,337,167444,1,10,0:3:0:0:
152,175,167814,1,2,0:0:0:0:
24,358,168184,6,0,P|89:314|132:311,1,107.900001564102,6|2,0:0|0:0,0:0:0:0:
36,90,168925,2,0,P|106:124|130:160,1,107.900001564102,10|2,0:3|0:0,0:0:0:0:
372,17,169666,5,10,0:3:0:0:
205,175,170036,1,8,0:0:0:0:
226,32,170407,5,10,0:0:0:0:
288,100,170592,1,4,0:3:0:0:
350,168,170777,2,0,P|336:212|327:256,1,80.9250011730767,10|0,0:3|0:0,0:0:0:0:
328,245,171147,6,0,P|361:230|451:228,1,107.900001564102,6|0,0:0|0:0,0:0:0:0:
261,362,171888,1,10,0:0:0:0:
119,206,172258,1,2,0:0:0:0:
0,361,172629,2,0,P|53:359|103:338,1,107.900001564102,2|0,0:0|0:0,0:0:0:0:
113,196,173370,1,10,0:0:0:0:
276,354,173740,1,6,0:3:0:0:
416,291,173925,1,2,0:0:0:0:
416,291,174018,1,2,0:0:0:0:
416,291,174110,6,0,P|457:255|444:201,1,107.900001564102,6|0,0:0|0:0,0:0:0:0:
320,41,174851,2,0,P|311:80|240:107,1,107.900001564102,10|8,0:0|0:3,0:0:0:0:
431,299,175592,2,0,P|472:263|459:209,1,107.900001564102,2|8,0:0|0:3,0:0:0:0:
260,121,176333,2,0,P|308:101|325:52,1,107.900001564102,10|8,0:0|0:0,0:0:0:0:
254,3,176888,1,8,0:0:0:0:
18,27,177073,6,0,L|150:54,1,116.999996429443,6|4,0:0|0:3,0:0:0:0:
484,208,177814,2,0,L|369:184,1,116.999996429443,10|4,0:0|0:3,0:0:0:0:
18,357,178555,2,0,L|150:330,1,116.999996429443,10|4,0:0|0:3,0:0:0:0:
378,173,179296,1,10,0:0:0:0:
165,234,179481,1,8,0:0:0:0:
372,164,179666,2,0,L|300:189,1,58.4999982147217,10|0,0:3|0:0,0:0:0:0:
156,217,180036,6,0,P|195:212|262:320,1,175.499994644165,6|0,0:0|0:0,0:0:0:0:
211,377,180777,5,10,0:0:0:0:
195,244,180962,1,8,0:3:0:0:
264,157,181147,1,6,0:3:0:0:
298,72,181333,1,2,0:0:0:0:
231,12,181518,5,10,0:0:0:0:
231,12,181888,2,0,P|179:19|139:32,1,87.7499973220826,10|0,0:0|0:0,0:0:0:0:
259,4,182258,6,0,P|298:35|291:97,1,116.999996429443,2|2,0:0|0:0,0:0:0:0:
17,364,182907,1,2,0:0:0:0:
17,364,182999,6,0,P|58:342|95:330,1,65,6|0,0:0|0:0,0:0:0:0:
131,182,183370,2,0,P|172:204|209:216,1,65,2|0,0:0|0:0,0:0:0:0:
301,374,183740,2,0,P|346:326|430:314,1,130,10|2,0:0|0:0,0:0:0:0:
322,140,184296,1,8,0:0:0:0:
322,140,184388,1,8,0:0:0:0:
322,140,184481,6,0,P|315:178|294:224,1,65,10|8,0:3|0:0,0:0:0:0:
467,92,184851,2,0,P|456:61|450:29,1,65,6|0,0:3|0:0,0:0:0:0:
229,154,185221,2,0,P|186:109|103:114,1,130,10|2,0:0|0:0,0:0:0:0:
365,53,185777,1,8,0:0:0:0:
489,239,185962,6,0,P|443:257|410:278,1,65,10|0,0:3|0:0,0:0:0:0:
386,174,186333,2,0,P|340:156|307:135,1,65,2|0,0:0|0:0,0:0:0:0:
500,252,186703,2,0,P|454:270|421:291,1,65,10|0,0:0|0:0,0:0:0:0:
190,6,187073,2,0,P|218:20|249:31,1,65,2|8,0:0|0:0,0:0:0:0:
329,7,187351,1,0,0:0:0:0:
329,7,187444,5,10,0:3:0:0:
130,101,187629,1,8,0:0:0:0:
256,167,187814,2,0,P|227:101|235:32,1,130,4|8,0:3|0:0,0:0:0:0:
239,37,188555,1,2,0:0:0:0:
434,127,188740,2,0,L|392:116,1,32.5,10|8,0:0|0:0,0:0:0:0:
230,27,188925,6,0,P|120:58|75:70,1,130,6|2,0:0|0:0,0:0:0:0:
25,28,189481,1,2,0:0:0:0:
110,297,189666,1,8,0:0:0:0:
110,297,190036,6,0,L|131:232,1,65,2|8,0:0|0:0,0:0:0:0:
33,49,190407,2,0,L|12:114,1,65,10|8,0:3|0:0,0:0:0:0:
177,149,190777,1,6,0:3:0:0:
28,226,190962,1,2,0:0:0:0:
186,369,191147,1,8,0:0:0:0:
186,369,191518,2,0,P|245:338|271:335,1,65,2|8,0:0|0:0,0:0:0:0:
323,363,191796,1,8,0:0:0:0:
323,363,191888,6,0,P|326:320|322:292,1,65,10|0,0:3|0:0,0:0:0:0:
411,255,192258,2,0,P|408:212|412:184,1,65,2|0,0:0|0:0,0:0:0:0:
335,364,192629,2,0,P|338:321|334:293,1,65,10|0,0:0|0:0,0:0:0:0:
493,66,192999,2,0,P|490:109|494:137,1,65,2|8,0:0|0:0,0:0:0:0:
508,209,193277,1,8,0:0:0:0:
508,209,193370,6,0,P|442:198|427:194,1,65,10|0,0:3|0:0,0:0:0:0:
242,264,193740,2,0,P|244:306|270:350,1,65,4|0,0:3|0:0,0:0:0:0:
389,121,194110,2,0,P|344:161|252:176,1,130,10|2,0:0|0:0,0:0:0:0:
14,40,194666,1,8,0:0:0:0:
14,40,194758,1,8,0:0:0:0:
14,40,194851,6,0,P|70:57|96:61,1,65,6|0,0:0|0:0,0:0:0:0:
109,223,195221,2,0,P|165:206|191:202,1,65,2|0,0:0|0:0,0:0:0:0:
304,13,195592,2,0,P|344:52|431:66,1,130,10|2,0:0|0:0,0:0:0:0:
488,209,196147,1,8,0:0:0:0:
488,209,196240,1,8,0:0:0:0:
488,209,196333,6,0,P|470:251|460:295,1,65,10|8,0:3|0:0,0:0:0:0:
358,151,196703,2,0,P|340:109|330:65,1,65,6|0,0:3|0:0,0:0:0:0:
308,280,197073,2,0,P|259:240|169:240,1,130,10|2,0:0|0:0,0:0:0:0:
7,364,197629,1,8,0:0:0:0:
7,364,197721,1,8,0:0:0:0:
7,364,197814,6,0,P|46:345|81:334,1,65,10|0,0:3|0:0,0:0:0:0:
123,221,198184,2,0,P|162:240|197:251,1,65,2|0,0:0|0:0,0:0:0:0:
7,344,198555,2,0,P|46:325|81:314,1,65,10|0,0:0|0:0,0:0:0:0:
293,110,198925,2,0,P|254:129|219:140,1,65,2|8,0:0|0:0,0:0:0:0:
161,104,199203,1,8,0:0:0:0:
161,104,199296,5,10,0:3:0:0:
376,199,199481,1,8,0:0:0:0:
312,10,199666,2,0,L|275:148,1,130,4|8,0:3|0:0,0:0:0:0:
272,150,200407,1,2,0:0:0:0:
483,7,200592,2,0,L|489:49,1,32.5,10|8,0:0|0:0,0:0:0:0:
257,163,200777,6,0,P|308:144|400:157,1,130,6|2,0:0|0:0,0:0:0:0:
445,205,201333,2,0,P|417:241|404:278,1,65,2|0,0:0|0:0,0:0:0:0:
408,274,201888,1,6,0:3:0:0:
322,230,202258,1,2,0:0:0:0:
248,284,202629,2,0,P|192:304|164:322,1,65,10|2,0:3|0:0,0:0:0:0:
474,108,202999,2,0,P|502:70|441:-4,1,130,8|2,0:0|0:0,0:0:0:0:
400,57,203555,1,2,0:0:0:0:
255,163,203740,6,0,P|204:144|112:157,1,130,6|0,0:0|0:0,0:0:0:0:
67,205,204296,2,0,P|95:241|108:278,1,65,2|0,0:0|0:0,0:0:0:0:
104,274,204851,1,6,0:3:0:0:
190,230,205221,1,2,0:0:0:0:
264,284,205592,2,0,P|320:304|348:322,1,65,10|2,0:3|0:0,0:0:0:0:
132,148,205962,2,0,P|129:105|118:78,1,65,8|4,0:0|0:3,0:0:0:0:
210,73,206333,2,0,P|213:116|224:143,1,65,10|0,0:3|0:0,0:0:0:0:
419,291,206703,6,0,L|331:305,1,65,6|0,0:0|0:0,0:0:0:0:
165,229,207073,2,0,L|174:308,1,65,10|0,0:0|0:0,0:0:0:0:
364,115,207444,2,0,L|371:179,1,65,10|0,0:0|0:0,0:0:0:0:
88,99,207814,2,0,L|95:163,1,65,10|0,0:0|0:0,0:0:0:0:
371,0,208184,6,0,L|384:119,1,97.5,12|0,0:0|0:0,0:0:0:0:
364,115,208555,1,8,0:0:0:0:
364,115,208740,1,10,0:0:0:0:
246,58,208925,5,10,0:0:0:0:
465,33,209110,1,8,0:0:0:0:
494,253,209296,1,10,0:0:0:0:
275,278,209481,1,10,0:0:0:0:
33,47,209666,6,0,B|46:43|58:29|58:29|115:23|156:67|135:141,1,181.999994445801,6|8,0:0|0:3,0:0:0:0:
125,140,210221,1,2,0:0:0:0:
69,337,210407,2,0,P|57:287|39:249,1,78,6|0,0:3|0:0,0:0:0:0:
48,335,210777,6,0,B|76:309|76:309|96:325|96:325|162:268|152:366|234:306,1,208,10|8,0:0|0:3,0:0:0:0:
241,295,211333,1,2,0:0:0:0:
414,353,211518,2,0,P|466:366|503:378,1,78,6|0,0:3|0:0,0:0:0:0:
496,365,211888,1,8,0:0:0:0:
338,276,212073,2,0,P|332:240|327:222,1,45.4999986114502,0|2,0:0|0:0,0:0:0:0:
320,215,212258,1,8,0:3:0:0:
464,55,212444,1,2,0:0:0:0:
464,55,212536,1,2,0:0:0:0:
464,55,212629,6,0,B|482:23|432:0|363:5|343:82|390:133,1,181.999994445801,6|10,0:0|0:3,0:0:0:0:
501,276,213184,2,0,B|515:219|458:176|458:176,1,90.9999972229005,2|4,0:0|0:3,0:0:0:0:
380,124,213555,1,2,0:0:0:0:
507,294,213740,6,0,B|536:264|509:201|430:182|375:269,1,181.999994445801,10|8,0:0|0:3,0:0:0:0:
391,256,214296,1,0,0:0:0:0:
245,376,214481,6,0,P|251:344|260:311,1,45.4999986114502,6|0,0:3|0:0,0:0:0:0:
313,280,214666,2,0,P|294:231|269:205,1,45.4999986114502
221,52,214851,5,10,0:0:0:0:
320,141,215036,2,0,P|363:126|382:121,1,45.4999986114502,2|2,0:0|0:0,0:0:0:0:
213,43,215221,1,10,0:3:0:0:
123,116,215407,1,2,0:0:0:0:
13,16,215592,6,0,L|36:124,1,90.9999972229005,6|0,0:0|0:0,0:0:0:0:
171,316,215962,2,0,L|152:226,1,90.9999972229005,10|2,0:3|0:0,0:0:0:0:
17,118,216333,5,6,0:3:0:0:
143,84,216518,1,0,0:0:0:0:
52,211,216703,5,10,0:0:0:0:
248,269,216888,1,0,0:0:0:0:
76,325,217073,5,10,0:3:0:0:
204,191,217258,1,2,0:0:0:0:
204,191,217351,1,2,0:0:0:0:
204,191,217444,1,10,0:3:0:0:
361,263,217629,1,0,0:0:0:0:
171,316,217814,5,10,0:0:0:0:
123,116,217999,1,0,0:0:0:0:
253,362,218184,5,6,0:3:0:0:
296,39,218370,1,2,0:0:0:0:
14,270,218555,6,0,P|46:240|115:212,1,90.9999972229005,6|0,0:0|0:0,0:0:0:0:
319,263,218925,1,10,0:3:0:0:
40,17,219110,6,0,B|48:21|48:21|84:135,1,90.9999972229005,2|4,0:0|0:3,0:0:0:0:
406,109,219481,2,0,L|344:125,1,45.4999986114502,2|0,0:0|0:0,0:0:0:0:
62,114,219666,2,0,L|168:89,1,90.9999972229005,10|2,0:0|0:0,0:0:0:0:
282,20,219944,1,2,0:0:0:0:
282,20,220036,2,0,L|262:89,1,55.2500010538101,10|0,0:0|0:0,0:0:0:0:
188,191,220221,2,0,L|208:260,1,55.2500010538101,8|0,0:0|0:0,0:0:0:0:
445,320,220407,2,0,B|431:304|431:304|401:316|401:316|371:273|340:259|279:274,1,165.75000316143,4|0,0:3|0:0,0:0:0:0:
251,325,220777,5,10,0:0:0:0:
238,316,220900,6,0,L|146:346,1,73.6666680717469,8|4,0:0|0:3,0:0:0:0:
114,255,221147,5,10,0:3:0:0:
133,266,221270,6,0,L|225:236,1,73.6666680717469,8|4,0:3|0:3,0:0:0:0:
456,116,221518,6,0,B|465:124|465:124|488:73|433:16|367:43,1,156,6|0,0:0|0:0,0:0:0:0:
375,54,221888,1,10,0:3:0:0:
395,281,222073,2,0,P|440:251|427:203,1,104,2|4,0:0|0:3,0:0:0:0:
346,157,222443,1,10,0:3:0:0:
197,359,222629,6,0,B|224:376|224:376|278:354|312:298|285:233|226:202,1,208,10|4,0:0|0:3,0:0:0:0:
247,226,223184,1,2,0:0:0:0:
166,195,223370,6,0,P|88:225|61:241,1,104,0|8,0:0|0:0,0:0:0:0:
4,24,224018,1,2,0:0:0:0:
9,43,224110,1,4,0:3:0:0:
185,7,224296,1,2,0:0:0:0:
71,248,224481,6,0,B|83:250|83:250|102:68,1,156,6|0,0:0|0:0,0:0:0:0:
96,92,224851,1,10,0:3:0:0:
271,229,225036,2,0,B|263:232|263:232|242:106,1,104,2|4,0:0|0:3,0:0:0:0:
261,52,225407,1,10,0:3:0:0:
143,371,225592,2,0,B|155:373|155:373|177:147,1,208,10|4,0:0|0:3,0:0:0:0:
509,116,226147,2,0,B|520:97|520:97|497:28|405:11|337:74,1,208,2|2,0:0|0:0,0:0:0:0:
384,157,226610,1,8,0:0:0:0:
396,172,226703,6,0,P|427:187|466:206,1,52,10|0,0:0|0:0,0:0:0:0:
289,6,226888,2,0,P|265:17|242:28,1,52,8|0,0:0|0:0,0:0:0:0:
458,209,227073,6,0,L|434:274,1,52,10|0,0:0|0:0,0:0:0:0:
226,42,227258,2,0,L|250:107,1,52,8|0,0:0|0:0,0:0:0:0:
453,284,227444,6,0,B|352:295|395:178|216:171,1,233.999992858887,6|8,0:0|0:3,0:0:0:0:
241,325,227999,2,0,P|250:297|316:272,1,58.4999982147217,2|0,0:0|0:0,0:0:0:0:
333,103,228184,2,0,B|263:122|302:160|195:178,1,116.999996429443,10|0,0:0|0:0,0:0:0:0:
177,11,228555,2,0,P|214:30|239:66,1,58.4999982147217,10|0,0:3|0:0,0:0:0:0:
232,193,228740,2,0,B|162:174|201:136|94:118,1,116.999996429443,2|8,0:0|0:0,0:0:0:0:
80,320,229110,2,0,P|89:292|155:267,1,58.4999982147217,2|0,0:0|0:0,0:0:0:0:
127,140,229296,2,0,B|57:159|96:197|-11:215,1,116.999996429443,10|0,0:3|0:0,0:0:0:0:
443,290,229666,2,0,B|342:301|385:184|206:177,1,233.999992858887,10|0,0:0|0:0,0:0:0:0:
196,253,230221,1,0,0:0:0:0:
28,372,230407,6,0,P|12:319|138:199,1,233.999992858887,6|8,0:0|0:3,0:0:0:0:
212,7,230962,2,0,P|256:47|254:84,1,58.4999982147217,2|0,0:0|0:0,0:0:0:0:
15,246,231147,2,0,P|52:205|208:232,1,175.499994644165,10|0,0:0|0:0,0:0:0:0:
172,294,231518,6,0,P|222:286|262:226,1,116.999996429443,10|0,0:0|0:0,0:0:0:0:
166,101,231888,2,0,P|116:109|76:169,1,116.999996429443,10|0,0:0|0:0,0:0:0:0:
347,290,232258,2,0,P|365:242|333:178,1,116.999996429443,10|0,0:0|0:0,0:0:0:0:
76,308,232629,5,10,0:0:0:0:
344,171,232814,1,8,0:0:0:0:
67,328,232999,6,0,P|112:307|157:289,1,78,10|0,0:3|0:0,0:0:0:0:
138,296,233370,6,0,P|203:315|268:342,1,130,6|0,0:0|0:0,0:0:0:0:
512,119,234110,2,0,P|447:100|382:73,1,130,10|0,0:0|0:0,0:0:0:0:
258,163,234666,1,8,0:0:0:0:
258,163,234758,1,8,0:0:0:0:
258,163,234851,5,10,0:3:0:0:
296,72,235036,1,8,0:0:0:0:
407,241,235221,1,4,0:3:0:0:
407,241,235592,2,0,P|387:287|379:324,1,65,10|0,0:0|0:0,0:0:0:0:
296,72,235962,2,0,P|316:26|324:-11,1,65,2|8,0:0|0:0,0:0:0:0:
138,100,236240,1,8,0:0:0:0:
138,100,236333,6,0,P|76:110|48:116,1,65,10|0,0:3|0:0,0:0:0:0:
394,62,236703,2,0,P|456:52|484:46,1,65,2|0,0:0|0:0,0:0:0:0:
192,9,237073,2,0,P|241:32|296:118,1,130,10|2,0:0|0:0,0:0:0:0:
231,228,237629,1,8,0:0:0:0:
231,228,237721,1,8,0:0:0:0:
231,228,237814,5,10,0:3:0:0:
313,181,237999,1,8,0:0:0:0:
149,105,238184,1,4,0:3:0:0:
149,105,238555,2,0,L|80:119,1,65,10|0,0:0|0:0,0:0:0:0:
22,310,238925,2,0,L|85:322,1,65,2|8,0:0|0:0,0:0:0:0:
157,371,239203,1,8,0:0:0:0:
157,371,239296,6,0,P|129:319|144:233,1,130,10|0,0:3|0:0,0:0:0:0:
355,13,240036,2,0,P|383:65|368:151,1,130,10|0,0:0|0:0,0:0:0:0:
243,226,240592,1,8,0:0:0:0:
243,226,240684,1,8,0:0:0:0:
243,226,240777,1,10,0:3:0:0:
276,131,240962,1,8,0:0:0:0:
439,227,241147,1,4,0:3:0:0:
439,227,241518,2,0,P|426:278|419:367,1,130,10|2,0:0|0:0,0:0:0:0:
503,141,242073,1,8,0:0:0:0:
503,141,242166,1,8,0:0:0:0:
503,141,242258,6,0,P|515:98|525:71,1,65,10|0,0:3|0:0,0:0:0:0:
437,5,242629,2,0,P|425:48|415:75,1,65,2|0,0:0|0:0,0:0:0:0:
236,128,242999,2,0,P|196:144|170:161,1,65,10|0,0:0|0:0,0:0:0:0:
180,53,243370,2,0,P|220:37|246:20,1,65,2|8,0:0|0:0,0:0:0:0:
326,8,243647,1,8,0:0:0:0:
326,8,243740,5,8,0:3:0:0:
159,54,243925,1,8,0:0:0:0:
334,122,244110,2,0,P|374:138|400:155,1,65,4|0,0:3|0:0,0:0:0:0:
199,237,244481,2,0,P|176:276|185:369,1,130,10|2,0:0|0:0,0:0:0:0:
400,365,245036,1,8,0:0:0:0:
400,365,245129,1,8,0:0:0:0:
400,365,245221,6,0,P|335:351|247:324,1,130,6|0,0:0|0:0,0:0:0:0:
0,136,245962,2,0,P|65:122|153:95,1,130,10|0,0:0|0:0,0:0:0:0:
253,31,246518,1,8,0:0:0:0:
253,31,246610,1,8,0:0:0:0:
253,31,246703,5,10,0:3:0:0:
153,15,246888,1,8,0:0:0:0:
256,165,247073,1,4,0:3:0:0:
256,165,247444,2,0,P|311:151|336:143,1,65,10|0,0:0|0:0,0:0:0:0:
106,371,247814,2,0,P|74:362|43:354,1,65,2|8,0:0|0:0,0:0:0:0:
163,227,248092,1,8,0:0:0:0:
163,227,248184,6,0,P|172:262|182:303,1,65,10|0,0:3|0:0,0:0:0:0:
405,74,248555,2,0,P|396:39|386:-2,1,65,2|0,0:0|0:0,0:0:0:0:
229,127,248925,2,0,P|285:141|362:197,1,130,10|2,0:0|0:0,0:0:0:0:
414,336,249481,1,8,0:0:0:0:
414,336,249573,1,8,0:0:0:0:
414,336,249666,5,10,0:3:0:0:
441,235,249851,1,8,0:0:0:0:
262,296,250036,1,4,0:3:0:0:
262,296,250407,2,0,P|235:318|206:343,1,65,10|0,0:0|0:0,0:0:0:0:
125,210,250777,2,0,P|112:242|100:278,1,65,2|8,0:0|0:0,0:0:0:0:
232,198,251055,1,8,0:0:0:0:
232,198,251147,6,0,P|202:156|196:62,1,130,6|0,0:0|0:0,0:0:0:0:
187,65,251888,6,0,L|116:79,1,65,10|0,0:0|0:0,0:0:0:0:
43,289,252258,2,0,L|114:275,1,65,8|0,0:0|0:0,0:0:0:0:
336,45,252629,2,0,L|265:59,1,65,10|0,0:0|0:0,0:0:0:0:
193,269,252999,2,0,L|264:255,1,65,10|0,0:0|0:0,0:0:0:0:
62,144,253370,2,0,P|46:194|35:214,1,65,10|0,0:0|0:0,0:0:0:0:
330,194,253740,2,0,P|346:144|357:124,1,65,10|0,0:0|0:0,0:0:0:0:
493,381,254110,6,0,P|438:319|373:322,1,130,6|8,0:0|0:3,0:0:0:0:
316,352,254666,2,0,P|278:363|235:377,1,65,2|4,0:0|0:3,0:0:0:0:
9,13,255221,5,8,0:0:0:0:
63,89,255592,2,0,P|121:67|173:16,1,130,2|8,0:0|0:3,0:0:0:0:
449,89,256333,2,0,P|391:67|339:16,1,130,10|4,0:3|0:3,0:0:0:0:
256,144,256981,1,2,0:0:0:0:
256,144,257073,6,0,B|203:112|159:165|183:213|183:213|204:245|245:239|260:288,1,240,6|2,0:0|0:0,0:0:0:0:
256,144,258555,6,0,B|309:112|353:165|329:213|329:213|308:245|267:239|256:280,1,240,6|2,0:0|0:0,0:0:0:0:
256,277,259666,1,2,0:0:0:0:
439,372,259944,1,2,0:0:0:0:
439,372,260036,6,0,P|483:357|524:349,2,71.5000021820069,2|0|0,0:0|0:0|0:0,0:0:0:0:
368,328,261147,1,0,0:0:0:0:
427,268,261518,6,0,P|471:253|512:245,2,71.5000021820069,2|0|0,0:0|0:0|0:0,0:0:0:0:
356,224,262629,1,0,0:0:0:0:
239,370,262937,1,2,0:0:0:0:
239,370,262999,6,0,P|212:347|176:337,1,71.5000021820069,2|0,0:0|0:0,0:0:0:0:
175,200,263740,2,0,P|148:223|112:233,1,71.5000021820069,2|0,0:0|0:0,0:0:0:0:
20,382,264481,2,0,P|-7:347|15:254,1,143.000004364014,2|2,0:0|0:0,0:0:0:0:
107,148,265592,2,0,L|98:103,1,35.7500010910034,2|0,0:0|0:0,0:0:0:0:
56,50,265962,5,2,0:0:0:0:
199,129,266333,1,0,0:0:0:0:
199,129,266518,2,0,P|249:113|317:96,1,107.25000327301,2|0,0:0|0:0,0:0:0:0:
39,149,267444,5,2,0:0:0:0:
182,228,267815,1,0,0:0:0:0:
182,228,268000,2,0,P|232:212|300:195,1,107.25000327301,2|0,0:0|0:0,0:0:0:0:
471,44,268925,6,0,P|457:75|451:114,1,71.5000021820069,2|0,0:0|0:0,0:0:0:0:
380,176,269666,2,0,P|394:207|400:246,1,71.5000021820069,2|0,0:0|0:0,0:0:0:0:
493,369,270407,1,2,0:0:0:0:
493,369,271147,2,0,P|452:340|427:337,1,71.5000021820069,2|0,0:0|0:0,0:0:0:0:
219,264,271888,6,0,P|219:301|265:356,1,97.50000371933,2|0,0:0|0:0,0:0:0:0:
347,304,272629,2,0,P|347:267|301:212,1,97.50000371933,2|0,0:0|0:0,0:0:0:0:
225,81,273277,1,0,0:0:0:0:
225,81,273370,6,0,P|225:118|179:173,1,97.50000371933,2|0,0:0|0:0,0:0:0:0:
97,121,274111,2,0,P|97:84|143:29,1,97.50000371933,2|0,0:0|0:0,0:0:0:0:
352,24,274851,6,0,P|407:43|446:68,1,97.50000371933,2|0,0:0|0:0,0:0:0:0:
382,180,275592,2,0,P|418:211|445:264,1,97.50000371933,2|0,0:0|0:0,0:0:0:0:
373,379,276333,2,0,P|340:328|214:330,1,195.00000743866,2|2,0:0|0:0,0:0:0:0:
69,364,277444,2,0,P|81:328|82:300,1,48.750001859665,2|0,0:0|0:0,0:0:0:0:
32,257,277814,5,2,0:0:0:0:
81,79,278184,1,0,0:0:0:0:
81,79,278370,2,0,P|106:107|100:212,1,146.250005578995,2|0,0:0|0:0,0:0:0:0:
281,85,279296,5,2,0:0:0:0:
232,263,279666,1,0,0:0:0:0:
232,263,279852,2,0,P|207:235|213:130,1,146.250005578995,2|2,0:0|0:0,0:0:0:0:
281,85,280592,1,0,0:0:0:0:
343,142,280777,5,2,0:0:0:0:
512,188,281147,1,0,0:0:0:0:
512,188,281333,2,0,P|419:206|352:227,1,146.250005578995,2|0,0:0|0:0,0:0:0:0:
512,370,282258,5,2,0:0:0:0:
343,324,282629,1,6,0:0:0:0:
343,324,282814,1,2,0:0:0:0:
492,180,282999,5,8,0:0:0:0:
414,371,283184,1,8,0:0:0:0:
288,207,283370,2,0,P|336:188|368:166,1,73.1250027894975,10|0,0:3|0:0,0:0:0:0:
354,176,283740,6,0,P|360:135|375:84,1,65,6|0,0:0|0:0,0:0:0:0:
184,55,284110,2,0,P|178:96|163:147,1,65,10|4,0:3|0:3,0:0:0:0:
457,150,284481,2,0,P|449:118|445:86,1,65,10|0,0:3|0:0,0:0:0:0:
33,4,284851,2,0,P|70:31|105:84,1,97.5,10|0,0:0|0:0,0:0:0:0:
91,81,285221,5,8,0:0:0:0:
34,316,285407,1,8,0:0:0:0:
267,247,285592,1,8,0:3:0:0:
33,199,285777,1,10,0:0:0:0:
33,199,285870,1,8,0:0:0:0:
33,199,285962,5,10,0:0:0:0:
322,130,286147,1,8,0:0:0:0:
18,184,286333,5,10,0:3:0:0:
270,261,286518,1,6,0:3:0:0:
11,39,286703,6,0,P|58:74|137:87,1,130,14|0,0:0|0:0,0:0:0:0:
492,154,287444,2,0,P|428:165|376:202,1,130,14|0,0:0|0:0,0:0:0:0:
12,375,288184,5,14,0:0:0:0:
488,288,288462,1,8,0:0:0:0:
484,303,288555,1,8,0:0:0:0:
250,203,288740,1,8,0:0:0:0:
495,139,288925,5,10,0:0:0:0:
176,255,289110,1,8,0:0:0:0:
480,319,289296,5,10,0:0:0:0:
117,186,289481,1,8,0:0:0:0:
439,13,289666,6,0,P|425:67|421:111,1,71.5000021820069,6|0,0:0|0:0,0:0:0:0:
266,221,290036,2,0,P|276:255|282:290,1,71.5000021820069,2|0,0:0|0:0,0:0:0:0:
468,186,290407,2,0,P|401:203|374:215,1,71.5000021820069,10|0,0:0|0:0,0:0:0:0:
276,71,290777,2,0,P|209:54|182:42,1,71.5000021820069,2|8,0:0|0:0,0:0:0:0:
73,13,291055,1,8,0:0:0:0:
73,13,291147,6,0,P|87:67|91:111,1,71.5000021820069,10|8,0:3|0:0,0:0:0:0:
246,221,291518,2,0,P|235:255|229:290,1,71.5000021820069,6|0,0:3|0:0,0:0:0:0:
44,186,291888,2,0,P|111:203|138:215,1,71.5000021820069,10|0,0:0|0:0,0:0:0:0:
305,53,292258,2,0,P|271:64|236:70,1,71.5000021820069,2|8,0:0|0:0,0:0:0:0:
38,170,292536,1,8,0:0:0:0:
38,170,292629,6,0,P|50:223|54:261,1,71.5000021820069,10|0,0:3|0:0,0:0:0:0:
268,270,292999,2,0,P|256:217|252:179,1,71.5000021820069,2|0,0:0|0:0,0:0:0:0:
47,160,293370,2,0,P|59:213|63:251,1,71.5000021820069,10|0,0:0|0:0,0:0:0:0:
462,338,293740,2,0,P|450:285|446:247,1,71.5000021820069,2|8,0:0|0:0,0:0:0:0:
477,85,294018,1,8,0:0:0:0:
477,85,294110,5,10,0:3:0:0:
435,269,294296,1,8,0:0:0:0:
329,123,294481,2,0,P|369:155|413:171,1,71.5000021820069,4|0,0:3|0:0,0:0:0:0:
142,294,294851,2,0,P|71:317|8:378,1,143.000004364014,8|2,0:0|0:0,0:0:0:0:
305,372,295407,2,0,P|310:336|315:313,1,35.7500010910034,10|8,0:0|0:0,0:0:0:0:
195,118,295592,6,0,P|217:198|245:284,1,143.000004364014,6|2,0:0|0:0,0:0:0:0:
316,375,296147,1,2,0:0:0:0:
179,111,296333,1,8,0:0:0:0:
179,111,296703,2,0,L|94:131,1,71.5000021820069,2|8,0:0|0:0,0:0:0:0:
18,187,296981,1,8,0:0:0:0:
18,187,297073,6,0,P|26:131|22:92,1,71.5000021820069,10|8,0:3|0:0,0:0:0:0:
286,177,297444,1,6,0:3:0:0:
157,12,297629,1,2,0:0:0:0:
42,278,297814,1,8,0:0:0:0:
42,278,298184,2,0,P|76:292|113:315,1,71.5000021820069,2|8,0:0|0:0,0:0:0:0:
171,365,298462,1,8,0:0:0:0:
171,365,298555,6,0,P|184:311|188:271,1,71.5000021820069,10|0,0:3|0:0,0:0:0:0:
324,140,298925,2,0,P|311:194|307:234,1,71.5000021820069,2|0,0:0|0:0,0:0:0:0:
180,365,299296,2,0,P|193:311|197:271,1,71.5000021820069,10|0,0:0|0:0,0:0:0:0:
474,16,299666,2,0,P|468:51|458:85,1,71.5000021820069,2|8,0:0|0:0,0:0:0:0:
320,126,299944,1,8,0:0:0:0:
320,126,300036,6,0,P|374:146|405:166,1,71.5000021820069,10|8,0:3|0:0,0:0:0:0:
209,196,300314,1,8,0:0:0:0:
209,196,300407,2,0,P|193:140|178:109,1,71.5000021820069,4|0,0:3|0:0,0:0:0:0:
491,227,300777,2,0,P|395:255|338:299,1,143.000004364014,10|2,0:0|0:0,0:0:0:0:
320,360,301333,1,8,0:0:0:0:
19,364,301518,6,0,P|61:347|113:336,1,71.5000021820069,6|0,0:0|0:0,0:0:0:0:
208,195,301888,2,0,P|173:185|141:172,1,71.5000021820069,2|0,0:0|0:0,0:0:0:0:
25,131,302258,2,0,P|41:162|47:224,1,71.5000021820069,10|0,0:0|0:0,0:0:0:0:
216,382,302629,2,0,P|200:351|194:289,1,71.5000021820069,2|8,0:0|0:0,0:0:0:0:
493,364,302907,1,8,0:0:0:0:
493,364,302999,6,0,P|451:347|399:336,1,71.5000021820069,10|8,0:3|0:0,0:0:0:0:
303,195,303369,2,0,P|338:185|371:172,1,71.5000021820069,6|0,0:3|0:0,0:0:0:0:
487,131,303739,2,0,P|471:162|465:224,1,71.5000021820069,10|0,0:0|0:0,0:0:0:0:
296,382,304110,2,0,P|312:351|318:289,1,71.5000021820069,2|8,0:0|0:0,0:0:0:0:
76,297,304388,1,8,0:0:0:0:
76,297,304481,6,0,P|93:363|104:392,1,71.5000021820069,10|0,0:3|0:0,0:0:0:0:
261,216,304851,2,0,P|244:150|233:121,1,71.5000021820069,2|0,0:0|0:0,0:0:0:0:
62,289,305221,2,0,P|79:355|90:384,1,71.5000021820069,10|0,0:0|0:0,0:0:0:0:
426,81,305592,2,0,P|409:15|398:-14,1,71.5000021820069,2|8,0:0|0:0,0:0:0:0:
217,135,305870,1,8,0:0:0:0:
217,135,305962,5,10,0:3:0:0:
469,198,306147,1,8,0:0:0:0:
308,29,306333,2,0,P|325:95|336:124,1,71.5000021820069,4|0,0:3|0:0,0:0:0:0:
486,351,306703,2,0,P|442:287|368:279,1,143.000004364014,8|2,0:0|0:0,0:0:0:0:
81,342,307258,2,0,L|27:359,1,35.7500010910034,10|8,0:0|0:0,0:0:0:0:
321,354,307444,6,0,P|201:329|164:320,1,143.000004364014,6|2,0:0|0:0,0:0:0:0:
92,353,307999,1,2,0:0:0:0:
343,349,308184,1,8,0:0:0:0:
343,349,308555,2,0,P|354:302|367:271,1,71.5000021820069,2|8,0:0|0:0,0:0:0:0:
404,210,308833,1,8,0:0:0:0:
404,210,308925,6,0,P|343:192|313:179,1,71.5000021820069,10|8,0:3|0:0,0:0:0:0:
499,365,309296,1,6,0:3:0:0:
266,254,309481,1,2,0:0:0:0:
442,51,309666,1,8,0:0:0:0:
442,51,310036,1,2,0:0:0:0:
247,256,310221,2,0,L|228:204,1,35.7500010910034,10|8,0:0|0:0,0:0:0:0:
455,41,310407,6,0,P|425:99|410:176,1,143.000004364014,6|2,0:0|0:0,0:0:0:0:
467,280,310962,1,2,0:0:0:0:
448,24,311147,1,8,0:0:0:0:
448,24,311518,2,0,P|397:30|348:34,1,71.5000021820069,2|8,0:0|0:0,0:0:0:0:
303,90,311796,1,0,0:0:0:0:
303,90,311888,6,0,P|289:42|271:1,1,71.5000021820069,10|8,0:3|0:0,0:0:0:0:
179,121,312258,1,6,0:3:0:0:
475,102,312444,1,2,0:0:0:0:
150,237,312629,1,8,0:0:0:0:
150,237,312999,2,0,P|139:291|126:316,1,71.5000021820069,2|8,0:0|0:0,0:0:0:0:
13,376,313277,1,8,0:0:0:0:
13,376,313370,6,0,L|98:371,1,71.5000021820069,6|0,0:0|0:0,0:0:0:0:
270,154,313740,2,0,L|198:149,1,71.5000021820069,6|0,0:3|0:0,0:0:0:0:
113,260,314110,2,0,L|198:255,1,71.5000021820069,10|0,0:0|0:0,0:0:0:0:
459,12,314481,2,0,P|441:62|420:129,1,107.25000327301,10|0,0:3|0:0,0:0:0:0:
507,309,314851,6,0,B|485:258|485:258|426:262,1,107.25000327301,8|0,0:0|0:0,0:0:0:0:
433,261,315221,1,8,0:0:0:0:
79,123,315407,1,10,0:0:0:0:
370,315,315592,5,10,0:0:0:0:
142,69,315778,1,8,0:3:0:0:
285,297,315962,5,10,0:3:0:0:
227,87,316147,1,6,0:3:0:0:
316,161,316333,6,0,P|241:195|202:258,1,143.000004364014,6|4,0:0|0:3,0:0:0:0:
165,363,316888,1,8,0:3:0:0:
1,280,317073,2,0,P|41:291|70:319,1,71.5000021820069,2|0,0:0|0:0,0:0:0:0:
110,2,317444,2,0,P|88:112|110:223,1,214.500006546021,4|0,0:0|0:0,0:0:0:0:
497,382,318184,5,8,0:0:0:0:
234,235,318462,1,8,0:0:0:0:
237,254,318555,1,8,0:0:0:0:
504,165,318740,1,8,0:0:0:0:
415,79,318925,2,0,P|346:94|326:98,1,71.5000021820069,10|0,0:3|0:0,0:0:0:0:
275,45,319296,5,2,0:0:0:0:
71,77,319666,1,0,0:0:0:0:
71,77,319851,2,0,P|124:85|211:138,1,146.250005578995,2|0,0:0|0:0,0:0:0:0:
14,281,320777,5,2,0:0:0:0:
218,249,321147,1,0,0:0:0:0:
218,249,321332,2,0,P|165:241|78:188,1,146.250005578995,2|2,0:0|0:0,0:0:0:0:
14,281,322073,1,0,0:0:0:0:
98,361,322258,5,2,0:0:0:0:
203,130,322629,1,0,0:0:0:0:
203,130,322814,2,0,P|193:192|162:274,1,146.250005578995,2|0,0:0|0:0,0:0:0:0:
350,149,323740,5,2,0:0:0:0:
245,380,324111,1,2,0:0:0:0:
245,380,324296,1,2,0:0:0:0:
499,344,324481,5,8,0:3:0:0:
462,278,324604,5,8,0:0:0:0:
391,254,324728,5,8,0:0:0:0:
316,271,324851,5,10,0:0:0:0:
242,264,324975,5,8,0:3:0:0:
192,208,325098,5,4,0:3:0:0:
197,130,325221,6,0,P|260:142|304:152,1,84.4999961318971,6|0,0:0|0:0,0:0:0:0:
391,254,325592,2,0,P|375:311|362:363,1,84.4999961318971,2|0,0:0|0:0,0:0:0:0:
109,132,325962,2,0,P|98:172|86:213,1,84.4999961318971,10|0,0:0|0:0,0:0:0:0:
447,7,326333,2,0,P|431:64|418:116,1,84.4999961318971,2|0,0:0|0:0,0:0:0:0:
8,20,326703,6,0,B|28:-3|28:-3|83:-14|145:24|143:81,1,168.999992263794,8|0,0:3|0:0,0:0:0:0:
89,130,327258,1,2,0:0:0:0:
108,347,327444,6,0,P|31:372|-3:385,1,84.4999961318971,10|0,0:0|0:0,0:0:0:0:
404,37,327814,2,0,P|481:12|515:-1,1,84.4999961318971,10|2,0:0|0:0,0:0:0:0:
256,192,328184,12,0,330221,0:0:0:0:
444,70,330407,6,0,P|430:39|426:15,1,48.750001859665,2|0,0:0|0:0,0:0:0:0:
350,191,330777,2,0,P|364:160|368:136,1,48.750001859665,2|0,0:0|0:0,0:0:0:0:
511,6,331147,6,0,P|449:41|308:56,1,195.00000743866,2|0,0:0|0:0,0:0:0:0:
165,13,332258,1,2,0:0:0:0:
165,13,332629,2,0,P|184:97|190:123,1,97.50000371933,2|0,0:0|0:0,0:0:0:0:
58,218,333308,1,0,0:0:0:0:
58,218,333370,2,0,P|39:302|33:328,1,97.50000371933,2|0,0:0|0:0,0:0:0:0:
161,374,334110,6,0,P|208:343|264:343,2,97.50000371933,2|0|2,0:0|0:0|0:0,0:0:0:0:
278,253,335222,1,2,0:0:0:0:
441,305,335592,1,2,0:0:0:0:
441,305,336333,6,0,P|435:328|429:352,1,48.750001859665,2|0,0:0|0:0,0:0:0:0:
346,230,336703,2,0,P|351:253|357:277,1,48.750001859665,2|0,0:0|0:0,0:0:0:0:
507,355,337073,6,0,P|453:274|438:178,1,195.00000743866,2|2,0:0|0:0,0:0:0:0:
504,27,338184,1,2,0:0:0:0:
331,134,338493,1,0,0:0:0:0:
331,134,338555,6,0,P|294:148|240:178,1,97.50000371933,2|0,0:0|0:0,0:0:0:0:
141,44,339296,2,0,P|104:30|50:0,1,97.50000371933,2|0,0:0|0:0,0:0:0:0:
36,206,339975,1,0,0:0:0:0:
36,206,340036,6,0,P|46:225|74:303,1,97.50000371933,2|0,0:0|0:0,0:0:0:0:
21,364,340592,1,0,0:0:0:0:
111,381,340777,2,0,P|150:359|209:340,1,97.50000371933,2|0,0:0|0:0,0:0:0:0:
433,310,341518,1,2,0:0:0:0:
433,310,342258,6,0,P|422:268|420:248,1,48.750001859665,2|0,0:0|0:0,0:0:0:0:
313,384,342629,2,0,P|324:342|326:322,1,48.750001859665,2|0,0:0|0:0,0:0:0:0:
400,153,342999,6,0,P|354:196|308:204,2,97.50000371933,2|0|2,0:0|0:0|0:0,0:0:0:0:
418,48,344110,1,2,0:0:0:0:
418,48,344481,6,0,P|405:84|397:149,1,97.50000371933,2|0,0:0|0:0,0:0:0:0:
228,174,345160,1,0,0:0:0:0:
228,174,345221,2,0,P|241:210|249:275,1,97.50000371933,2|0,0:0|0:0,0:0:0:0:
470,373,345962,6,0,P|439:341|374:330,1,97.50000371933,2|0,0:0|0:0,0:0:0:0:
158,373,346703,2,0,P|171:286|172:266,1,97.50000371933,2|0,0:0|0:0,0:0:0:0:
0,82,347444,2,0,P|33:98|97:107,1,97.50000371933,2|0,0:0|0:0,0:0:0:0:
252,32,348184,1,2,0:0:0:0:
96,192,348555,1,0,0:0:0:0:
242,43,348925,6,0,P|298:56|344:67,1,97.50000371933,2|0,0:0|0:0,0:0:0:0:
512,224,349666,2,0,P|456:211|410:200,1,97.50000371933,2|0,0:0|0:0,0:0:0:0:
249,334,350407,1,2,0:0:0:0:
281,188,350777,1,0,0:0:0:0:
397,279,351147,2,0,P|385:313|381:356,1,73.1250027894975,2|0,0:0|0:0,0:0:0:0:
387,364,351518,2,0,P|370:343|341:342,1,48.750001859665,2|0,0:0|0:0,0:0:0:0:
249,334,351916,6,0,P|199:343|138:353,2,97.50000371933,2|0|2,0:0|0:0|0:0,0:0:0:0:
78,292,353027,1,0,0:0:0:0:
145,239,353397,6,0,P|153:190|151:124,1,97.50000371933,2|0,0:0|0:0,0:0:0:0:
347,157,354156,2,0,P|339:206|341:272,1,97.50000371933,2|0,0:0|0:0,0:0:0:0:
257,35,354852,1,0,0:0:0:0:
257,35,354915,6,0,P|196:45|156:50,1,97.50000371933,2|0,0:0|0:0,0:0:0:0:
245,285,355704,2,0,P|261:323|260:385,1,97.50000371933,2|2,0:0|0:0,0:0:0:0:
261,378,356920,2,0,P|228:337|145:340,1,130,2|2,0:0|0:0,0:0:0:0:
25,378,357850,1,2,0:0:0:0:
68,295,358200,1,2,0:0:0:0:
68,295,358288,1,2,0:0:0:0:
68,295,358376,6,0,P|76:250|90:147,1,130,2|2,0:0|0:0,0:0:0:0:
194,126,359362,2,0,P|182:89|169:31,1,97.50000371933,2|0,0:0|0:0,0:0:0:0:
278,201,360157,2,0,P|291:155|295:98,1,97.50000371933,2|0,0:0|0:0,0:0:0:0:
422,146,361009,2,0,P|409:105|399:44,1,97.50000371933,2|0,0:0|0:0,0:0:0:0:
512,0,362235,1,2,0:0:0:0:
512,0,363276,2,0,L|507:28,1,16.25,0|2,0:0|0:0,0:0:0:0:
256,192,363439,12,0,369346,0:0:0:0:
