osu file format v14

[General]
AudioFilename: audio.mp3
AudioLeadIn: 0
PreviewTime: 182222
Countdown: 0
SampleSet: Normal
StackLeniency: 0.7
Mode: 1
LetterboxInBreaks: 0
WidescreenStoryboard: 0

[Editor]
Bookmarks: 49074,222592,223333,223426,223703
DistanceSpacing: 1
BeatDivisor: 4
GridSize: 32
TimelineZoom: 2.4

[Metadata]
Title:Izu no Odoriko
TitleUnicode:伊豆の踊子
Artist:Ito Kashitaro
ArtistUnicode:伊東歌詞太郎
Creator:Prophecy
Version:Farewell Oni
Source:
Tags:たるとP off まきのせな itou kashitarou たるとp tarutop まきのせな makinosena off dancer dancing girl itowokashi イトヲカシ
BeatmapID:1549662
BeatmapSetID:734454

[Difficulty]
HPDrainRate:6
CircleSize:2
OverallDifficulty:5.5
ApproachRate:6
SliderMultiplier:1.4
SliderTickRate:1

[Events]
//Background and Video events
0,0,"maxresdefault (2).jpg",0,100
Video,0,"Video+faputa.avi"
//Break Periods
//Storyboard Layer 0 (Background)
//Storyboard Layer 1 (Fail)
//Storyboard Layer 2 (Pass)
//Storyboard Layer 3 (Foreground)
//Storyboard Layer 4 (Overlay)
//Storyboard Sound Samples

[TimingPoints]
741,370.37037037037,4,1,0,50,1,0
13333,-100,4,1,0,60,0,0
25926,-100,4,1,0,55,0,0
37778,-100,4,1,0,60,0,0
61481,-100,4,1,0,65,0,0
73333,-111.111111111111,4,1,0,45,0,0
85185,-100,4,1,0,60,0,0
97037,-100,4,1,0,70,0,1
108148,-100,4,1,0,70,0,0
108889,-100,4,1,0,70,0,1
122222,-100,4,1,0,70,0,0
123704,-100,4,1,0,50,0,0
135556,-100,4,1,0,55,0,0
182963,-100,4,1,0,70,0,1
194074,-100,4,1,0,70,0,0
194815,-100,4,1,0,60,0,1
209629,-100,4,1,0,70,0,0
233333,-100,4,1,0,70,0,1
244444,-100,4,1,0,70,0,0
245185,-100,4,1,0,70,0,1
254074,-100,4,1,0,70,0,0
260000,-111.111111111111,4,1,0,40,0,0
271852,-105.263157894737,4,1,0,50,0,0
283333,-100,4,1,0,60,0,0
289629,-100,4,1,0,70,0,1
300740,-100,4,1,0,70,0,0
301481,-100,4,1,0,70,0,1
316296,-100,4,1,0,70,0,0
319259,-100,4,1,0,40,0,0
324444,-100,4,1,0,50,0,0
324815,-100,4,1,0,60,0,0
325185,-100,4,1,0,70,0,1
328148,-100,4,1,0,70,0,0
330370,-100,4,1,0,50,0,0
351852,375,4,1,0,50,1,0
351852,375,4,1,0,50,1,0
351852,-102.040816326531,4,1,0,50,0,0
353352,387.096774193548,4,1,0,50,1,0
353352,387.096774193548,4,1,0,50,1,0
353352,-111.111111111111,4,1,0,50,0,0
356448,441.176470588235,4,1,0,45,1,0
356448,441.176470588235,4,1,0,45,1,0
356448,-117.647058823529,4,1,0,45,0,0
357330,476.190476190476,4,1,0,45,1,8
357330,476.190476190476,4,1,0,45,1,8
357330,-111.111111111111,4,1,0,45,0,8
357806,521.739130434783,4,1,0,45,1,8
357806,521.739130434783,4,1,0,45,1,8
357806,-105.263157894737,4,1,0,45,0,8
358153,-83.3333333333333,4,1,0,45,0,8
358240,-83.3333333333333,4,1,0,45,0,8
358327,600,4,1,0,45,1,8
358327,600,4,1,0,45,1,8
358327,-74.0740740740741,4,1,0,45,0,0
358927,394.736842105263,4,1,0,45,1,8
358927,394.736842105263,4,1,0,45,1,8
358927,-114.942528735632,4,1,0,45,0,8
359321,370.37037037037,4,1,0,45,1,8
359321,370.37037037037,4,1,0,45,1,8
359321,-121.951219512195,4,1,0,45,0,0
359691,416.666666666667,4,1,0,45,1,8
359691,416.666666666667,4,1,0,45,1,8
359691,-121.951219512195,4,1,0,45,0,8
360107,416.666666666667,4,1,0,45,1,0
360107,416.666666666667,4,1,0,45,1,0
360524,461.538461538462,4,1,0,45,1,8
360524,461.538461538462,4,1,0,45,1,8
360985,545.454545454546,4,1,0,45,1,8
360985,545.454545454546,4,1,0,45,1,8
361530,674.157303370787,4,1,0,45,1,8
361530,674.157303370787,4,1,0,45,1,8
362204,1153.84615384615,4,1,0,45,1,0
362204,1153.84615384615,4,1,0,45,1,0
362204,-66.6666666666667,4,1,0,45,0,0

[HitObjects]
256,192,1482,5,0,0:0:0:0:
256,192,1667,1,8,0:0:0:0:
256,192,1852,1,8,0:0:0:0:
256,192,2037,1,8,0:0:0:0:
256,192,2222,1,0,0:0:0:0:
256,192,2963,1,0,0:0:0:0:
256,192,3333,1,0,0:0:0:0:
256,192,3704,1,8,0:0:0:0:
256,192,4074,1,8,0:0:0:0:
256,192,4444,1,0,0:0:0:0:
256,192,4815,1,0,0:0:0:0:
256,192,5185,1,8,0:0:0:0:
256,192,5556,1,8,0:0:0:0:
256,192,5926,1,0,0:0:0:0:
256,192,6296,1,0,0:0:0:0:
256,192,6667,1,8,0:0:0:0:
256,192,7407,1,0,0:0:0:0:
256,192,7593,1,8,0:0:0:0:
256,192,7778,1,8,0:0:0:0:
256,192,7963,1,8,0:0:0:0:
256,192,8148,1,0,0:0:0:0:
256,192,8889,1,0,0:0:0:0:
256,192,9259,1,8,0:0:0:0:
256,192,9630,1,8,0:0:0:0:
256,192,10000,1,8,0:0:0:0:
256,192,10370,1,0,0:0:0:0:
256,192,10741,1,0,0:0:0:0:
256,192,11111,1,8,0:0:0:0:
256,192,11481,1,8,0:0:0:0:
256,192,11667,1,8,0:0:0:0:
256,192,11852,1,0,0:0:0:0:
256,192,12222,1,0,0:0:0:0:
256,192,12593,1,8,0:0:0:0:
256,192,12963,1,0,0:0:0:0:
256,192,13148,1,8,0:0:0:0:
256,192,13241,1,8,0:0:0:0:
256,192,13333,1,0,0:0:0:0:
256,192,13519,1,0,0:0:0:0:
256,192,13704,1,0,0:0:0:0:
256,192,13889,1,0,0:0:0:0:
256,192,14074,1,12,0:0:0:0:
256,192,14444,1,0,0:0:0:0:
256,192,14630,1,0,0:0:0:0:
256,192,14815,1,0,0:0:0:0:
256,192,15185,1,8,0:0:0:0:
256,192,15556,1,0,0:0:0:0:
256,192,15926,1,8,0:0:0:0:
256,192,16111,1,0,0:0:0:0:
256,192,16296,1,8,0:0:0:0:
256,192,16667,1,0,0:0:0:0:
256,192,16852,1,8,0:0:0:0:
256,192,16944,1,8,0:0:0:0:
256,192,17037,1,0,0:0:0:0:
256,192,17222,1,0,0:0:0:0:
256,192,17407,1,8,0:0:0:0:
256,192,17593,1,0,0:0:0:0:
256,192,17778,1,8,0:0:0:0:
256,192,18148,1,0,0:0:0:0:
256,192,18333,1,0,0:0:0:0:
256,192,18519,1,8,0:0:0:0:
256,192,18889,1,8,0:0:0:0:
256,192,19074,1,0,0:0:0:0:
256,192,19167,1,0,0:0:0:0:
256,192,19259,1,8,0:0:0:0:
256,192,19444,1,0,0:0:0:0:
256,192,19630,1,0,0:0:0:0:
256,192,20000,1,4,0:0:0:0:
256,192,20370,1,0,0:0:0:0:
256,192,20556,1,0,0:0:0:0:
256,192,20741,1,8,0:0:0:0:
256,192,21111,1,0,0:0:0:0:
256,192,21296,1,8,0:0:0:0:
256,192,21389,1,8,0:0:0:0:
256,192,21481,1,0,0:0:0:0:
256,192,21667,1,8,0:0:0:0:
256,192,21852,1,0,0:0:0:0:
256,192,22222,1,8,0:0:0:0:
256,192,22593,1,0,0:0:0:0:
256,192,22778,1,0,0:0:0:0:
256,192,22870,1,0,0:0:0:0:
256,192,22963,1,8,0:0:0:0:
256,192,23148,1,0,0:0:0:0:
256,192,23333,1,8,0:0:0:0:
256,192,23704,1,8,0:0:0:0:
256,192,24074,1,12,0:0:0:0:
256,192,24444,1,0,0:0:0:0:
256,192,24630,1,0,0:0:0:0:
256,192,24815,1,8,0:0:0:0:
256,192,25185,1,0,0:0:0:0:
256,192,25370,1,0,0:0:0:0:
256,192,25463,1,0,0:0:0:0:
256,192,25556,1,8,0:0:0:0:
256,192,25741,1,0,0:0:0:0:
256,192,25926,1,12,0:0:0:0:
256,192,26296,1,0,0:0:0:0:
256,192,26667,1,0,0:0:0:0:
256,192,26852,1,0,0:0:0:0:
256,192,27037,1,8,0:0:0:0:
256,192,27222,1,0,0:0:0:0:
256,192,27407,1,8,0:0:0:0:
256,192,27778,1,0,0:0:0:0:
256,192,27963,1,0,0:0:0:0:
256,192,28148,1,8,0:0:0:0:
256,192,28519,1,8,0:0:0:0:
256,192,28889,1,0,0:0:0:0:
256,192,29074,1,0,0:0:0:0:
256,192,29259,1,8,0:0:0:0:
256,192,29444,1,0,0:0:0:0:
256,192,29630,1,8,0:0:0:0:
256,192,30000,1,0,0:0:0:0:
256,192,30185,1,0,0:0:0:0:
256,192,30370,1,8,0:0:0:0:
256,192,30741,1,8,0:0:0:0:
256,192,30926,1,0,0:0:0:0:
256,192,31111,1,8,0:0:0:0:
256,192,31296,1,0,0:0:0:0:
256,192,31481,1,8,0:0:0:0:
256,192,31852,1,0,0:0:0:0:
256,192,32222,1,0,0:0:0:0:
256,192,32407,1,0,0:0:0:0:
256,192,32593,1,8,0:0:0:0:
256,192,32963,1,8,0:0:0:0:
256,192,33333,1,0,0:0:0:0:
256,192,33519,1,0,0:0:0:0:
256,192,33704,1,8,0:0:0:0:
256,192,33889,1,0,0:0:0:0:
256,192,34074,1,8,0:0:0:0:
256,192,34444,1,0,0:0:0:0:
256,192,34630,1,8,0:0:0:0:
256,192,34815,1,0,0:0:0:0:
256,192,35185,1,0,0:0:0:0:
256,192,35556,1,8,0:0:0:0:
256,192,35741,1,8,0:0:0:0:
256,192,35926,1,0,0:0:0:0:
256,192,36111,1,0,0:0:0:0:
256,192,36296,1,8,0:0:0:0:
256,192,36667,1,0,0:0:0:0:
256,192,37037,1,0,0:0:0:0:
256,192,37222,1,8,0:0:0:0:
256,192,37407,1,0,0:0:0:0:
256,192,37593,1,0,0:0:0:0:
256,192,37778,1,8,0:0:0:0:
256,192,38148,1,0,0:0:0:0:
256,192,38519,1,0,0:0:0:0:
256,192,38704,1,0,0:0:0:0:
256,192,38889,1,8,0:0:0:0:
256,192,39074,1,0,0:0:0:0:
256,192,39259,1,8,0:0:0:0:
256,192,39630,1,0,0:0:0:0:
256,192,40000,1,8,0:0:0:0:
256,192,40185,1,0,0:0:0:0:
256,192,40370,1,8,0:0:0:0:
256,192,40556,1,0,0:0:0:0:
256,192,40741,1,8,0:0:0:0:
256,192,41111,1,8,0:0:0:0:
256,192,41296,1,0,0:0:0:0:
256,192,41481,1,8,0:0:0:0:
256,192,41667,1,0,0:0:0:0:
256,192,41852,1,0,0:0:0:0:
256,192,42037,1,0,0:0:0:0:
256,192,42222,1,8,0:0:0:0:
256,192,42593,1,0,0:0:0:0:
256,192,42963,1,8,0:0:0:0:
256,192,43148,1,0,0:0:0:0:
256,192,43333,1,8,0:0:0:0:
256,192,43519,1,0,0:0:0:0:
256,192,43704,1,8,0:0:0:0:
256,192,44074,1,8,0:0:0:0:
256,192,44444,1,0,0:0:0:0:
256,192,44630,1,0,0:0:0:0:
256,192,44815,1,8,0:0:0:0:
256,192,45000,1,0,0:0:0:0:
256,192,45185,1,8,0:0:0:0:
256,192,45556,1,0,0:0:0:0:
256,192,45741,1,0,0:0:0:0:
256,192,45926,1,8,0:0:0:0:
256,192,46296,1,0,0:0:0:0:
256,192,46481,1,0,0:0:0:0:
256,192,46667,1,8,0:0:0:0:
256,192,47037,1,0,0:0:0:0:
256,192,47222,1,8,0:0:0:0:
256,192,47407,1,0,0:0:0:0:
256,192,47593,1,0,0:0:0:0:
256,192,47778,1,8,0:0:0:0:
256,192,48148,1,8,0:0:0:0:
256,192,48333,1,8,0:0:0:0:
256,192,48519,1,0,0:0:0:0:
256,192,48704,1,0,0:0:0:0:
256,192,48889,1,8,0:0:0:0:
256,192,48981,1,8,0:0:0:0:
256,192,49074,1,0,0:0:0:0:
256,192,49259,1,0,0:0:0:0:
256,192,49444,1,0,0:0:0:0:
256,192,49537,1,0,0:0:0:0:
256,192,49630,1,8,0:0:0:0:
256,192,50000,1,0,0:0:0:0:
256,192,50185,1,0,0:0:0:0:
256,192,50370,1,8,0:0:0:0:
256,192,50741,1,0,0:0:0:0:
256,192,50926,1,0,0:0:0:0:
256,192,51019,1,0,0:0:0:0:
256,192,51111,1,8,0:0:0:0:
256,192,51296,1,0,0:0:0:0:
256,192,51481,1,0,0:0:0:0:
256,192,51852,1,8,0:0:0:0:
256,192,52222,1,0,0:0:0:0:
256,192,52407,1,0,0:0:0:0:
256,192,52500,1,0,0:0:0:0:
256,192,52593,1,8,0:0:0:0:
256,192,52778,1,0,0:0:0:0:
256,192,52963,1,8,0:0:0:0:
256,192,53148,1,0,0:0:0:0:
256,192,53333,1,8,0:0:0:0:
256,192,53519,1,0,0:0:0:0:
256,192,53611,1,0,0:0:0:0:
256,192,53704,1,8,0:0:0:0:
256,192,53889,1,0,0:0:0:0:
256,192,54074,1,8,0:0:0:0:
256,192,54444,1,0,0:0:0:0:
256,192,54815,1,8,0:0:0:0:
256,192,55000,1,0,0:0:0:0:
256,192,55185,1,8,0:0:0:0:
256,192,55370,1,0,0:0:0:0:
256,192,55463,1,0,0:0:0:0:
256,192,55556,1,8,0:0:0:0:
256,192,55741,1,0,0:0:0:0:
256,192,55926,1,8,0:0:0:0:
256,192,56296,1,8,0:0:0:0:
256,192,56481,1,0,0:0:0:0:
256,192,56667,1,8,0:0:0:0:
256,192,56759,1,8,0:0:0:0:
256,192,56852,1,0,0:0:0:0:
256,192,57037,1,8,0:0:0:0:
256,192,57407,1,8,0:0:0:0:
256,192,57593,1,0,0:0:0:0:
256,192,57778,1,8,0:0:0:0:
256,192,57870,1,0,0:0:0:0:
256,192,57963,1,0,0:0:0:0:
256,192,58148,1,8,0:0:0:0:
256,192,58333,1,0,0:0:0:0:
256,192,58426,1,0,0:0:0:0:
256,192,58519,1,8,0:0:0:0:
256,192,58704,1,0,0:0:0:0:
256,192,58889,1,8,0:0:0:0:
256,192,59259,1,8,0:0:0:0:
256,192,59444,1,0,0:0:0:0:
256,192,59537,1,0,0:0:0:0:
256,192,59630,1,8,0:0:0:0:
256,192,59815,1,0,0:0:0:0:
256,192,60000,1,8,0:0:0:0:
256,192,60370,1,0,0:0:0:0:
256,192,60741,1,8,0:0:0:0:
256,192,60926,1,0,0:0:0:0:
256,192,61019,1,0,0:0:0:0:
256,192,61111,1,0,0:0:0:0:
256,192,61296,1,0,0:0:0:0:
256,192,61481,1,8,0:0:0:0:
256,192,61852,1,0,0:0:0:0:
256,192,62222,1,8,0:0:0:0:
256,192,62407,1,8,0:0:0:0:
256,192,62593,1,0,0:0:0:0:
256,192,62685,1,0,0:0:0:0:
256,192,62778,1,0,0:0:0:0:
256,192,62963,1,8,0:0:0:0:
256,192,63333,1,0,0:0:0:0:
256,192,63704,1,8,0:0:0:0:
256,192,63889,1,0,0:0:0:0:
256,192,64074,1,8,0:0:0:0:
256,192,64259,1,0,0:0:0:0:
256,192,64352,1,0,0:0:0:0:
256,192,64444,1,8,0:0:0:0:
256,192,64630,1,0,0:0:0:0:
256,192,64815,1,0,0:0:0:0:
256,192,64907,1,0,0:0:0:0:
256,192,65000,1,0,0:0:0:0:
256,192,65185,1,8,0:0:0:0:
256,192,65556,1,8,0:0:0:0:
256,192,65741,1,8,0:0:0:0:
256,192,65926,1,0,0:0:0:0:
256,192,66111,1,0,0:0:0:0:
256,192,66296,1,8,0:0:0:0:
256,192,66667,1,8,0:0:0:0:
256,192,66852,1,0,0:0:0:0:
256,192,67037,1,8,0:0:0:0:
256,192,67222,1,0,0:0:0:0:
256,192,67315,1,0,0:0:0:0:
256,192,67407,1,8,0:0:0:0:
256,192,67778,1,8,0:0:0:0:
256,192,68148,1,8,0:0:0:0:
256,192,68333,1,0,0:0:0:0:
256,192,68426,1,0,0:0:0:0:
256,192,68519,1,8,0:0:0:0:
256,192,68704,1,0,0:0:0:0:
256,192,68889,1,8,0:0:0:0:
256,192,69259,1,0,0:0:0:0:
256,192,69444,1,0,0:0:0:0:
256,192,69537,1,0,0:0:0:0:
256,192,69630,1,8,0:0:0:0:
256,192,69815,1,0,0:0:0:0:
256,192,70000,1,8,0:0:0:0:
256,192,70185,1,0,0:0:0:0:
256,192,70278,1,0,0:0:0:0:
256,192,70370,1,8,0:0:0:0:
256,192,70741,1,8,0:0:0:0:
256,192,70926,1,0,0:0:0:0:
256,192,71111,1,0,0:0:0:0:
256,192,71481,1,8,0:0:0:0:
256,192,71666,1,0,0:0:0:0:
256,192,71759,1,8,0:0:0:0:
256,192,71851,1,8,0:0:0:0:
256,192,72222,1,8,0:0:0:0:
256,192,72407,1,0,0:0:0:0:
256,192,72593,1,0,0:0:0:0:
256,192,72963,1,8,0:0:0:0:
256,192,73148,1,0,0:0:0:0:
256,192,73333,1,8,0:0:0:0:
256,192,74074,1,8,0:0:0:0:
256,192,74444,1,8,0:0:0:0:
256,192,74815,1,0,0:0:0:0:
256,192,75185,1,0,0:0:0:0:
256,192,75556,1,8,0:0:0:0:
256,192,75926,1,8,0:0:0:0:
256,192,76111,1,0,0:0:0:0:
256,192,76296,1,0,0:0:0:0:
256,192,76667,1,0,0:0:0:0:
256,192,77037,1,8,0:0:0:0:
256,192,77407,1,0,0:0:0:0:
256,192,77778,1,8,0:0:0:0:
256,192,78519,1,8,0:0:0:0:
256,192,78889,1,0,0:0:0:0:
256,192,79259,1,4,0:0:0:0:
256,192,80000,1,0,0:0:0:0:
256,192,80370,1,0,0:0:0:0:
256,192,80741,1,8,0:0:0:0:
256,192,81111,1,8,0:0:0:0:
256,192,81296,1,0,0:0:0:0:
256,192,81481,1,8,0:0:0:0:
256,192,81852,1,8,0:0:0:0:
256,192,82222,1,8,0:0:0:0:
256,192,82593,1,8,0:0:0:0:
256,192,82963,1,0,0:0:0:0:
256,192,83148,1,0,0:0:0:0:
256,192,83333,1,8,0:0:0:0:
256,192,83704,1,8,0:0:0:0:
256,192,83889,1,0,0:0:0:0:
256,192,84074,1,0,0:0:0:0:
256,192,84444,1,8,0:0:0:0:
256,192,84630,1,0,0:0:0:0:
256,192,84815,1,8,0:0:0:0:
256,192,85000,1,0,0:0:0:0:
256,192,85185,1,8,0:0:0:0:
256,192,85556,1,0,0:0:0:0:
256,192,85926,1,0,0:0:0:0:
256,192,86111,1,0,0:0:0:0:
256,192,86204,1,0,0:0:0:0:
256,192,86296,1,8,0:0:0:0:
256,192,86481,1,0,0:0:0:0:
256,192,86667,1,8,0:0:0:0:
256,192,87037,1,0,0:0:0:0:
256,192,87407,1,8,0:0:0:0:
256,192,87593,1,0,0:0:0:0:
256,192,87778,1,8,0:0:0:0:
256,192,87870,1,0,0:0:0:0:
256,192,87963,1,0,0:0:0:0:
256,192,88148,1,8,0:0:0:0:
256,192,88519,1,0,0:0:0:0:
256,192,88704,1,0,0:0:0:0:
256,192,88889,1,8,0:0:0:0:
256,192,89074,1,0,0:0:0:0:
256,192,89259,1,8,0:0:0:0:
256,192,89444,1,0,0:0:0:0:
256,192,89537,1,0,0:0:0:0:
256,192,89630,1,8,0:0:0:0:
256,192,89815,1,0,0:0:0:0:
256,192,90000,1,8,0:0:0:0:
256,192,90093,1,0,0:0:0:0:
256,192,90185,1,0,0:0:0:0:
256,192,90370,1,8,0:0:0:0:
256,192,90741,1,0,0:0:0:0:
256,192,90926,1,0,0:0:0:0:
256,192,91019,1,0,0:0:0:0:
256,192,91111,1,8,0:0:0:0:
256,192,91204,8,0,94074,0:0:0:0:
256,192,94444,5,0,0:0:0:0:
256,192,94815,1,8,0:0:0:0:
256,192,95000,1,0,0:0:0:0:
256,192,95185,1,0,0:0:0:0:
256,192,95556,1,4,0:0:0:0:
256,192,95926,1,4,0:0:0:0:
256,192,97037,1,4,0:0:0:0:
256,192,97407,1,0,0:0:0:0:
256,192,97500,1,0,0:0:0:0:
256,192,97593,1,0,0:0:0:0:
256,192,97778,1,8,0:0:0:0:
256,192,97963,1,0,0:0:0:0:
256,192,98148,1,8,0:0:0:0:
256,192,98333,1,0,0:0:0:0:
256,192,98426,1,0,0:0:0:0:
256,192,98519,1,8,0:0:0:0:
256,192,98703,1,0,0:0:0:0:
256,192,98889,1,0,0:0:0:0:
256,192,98981,1,0,0:0:0:0:
256,192,99074,1,0,0:0:0:0:
256,192,99259,1,8,0:0:0:0:
256,192,99444,1,0,0:0:0:0:
256,192,99630,1,8,0:0:0:0:
256,192,99722,1,8,0:0:0:0:
256,192,99815,1,0,0:0:0:0:
256,192,99999,1,8,0:0:0:0:
256,192,100370,1,8,0:0:0:0:
256,192,100556,1,0,0:0:0:0:
256,192,100740,1,8,0:0:0:0:
256,192,100926,1,8,0:0:0:0:
256,192,101019,1,8,0:0:0:0:
256,192,101111,1,0,0:0:0:0:
256,192,101296,1,8,0:0:0:0:
256,192,101481,1,8,0:0:0:0:
256,192,101574,1,0,0:0:0:0:
256,192,101667,1,8,0:0:0:0:
256,192,101852,1,8,0:0:0:0:
256,192,102037,1,0,0:0:0:0:
256,192,102129,1,0,0:0:0:0:
256,192,102222,1,8,0:0:0:0:
256,192,102593,1,8,0:0:0:0:
256,192,102685,1,0,0:0:0:0:
256,192,102778,1,8,0:0:0:0:
256,192,102963,1,8,0:0:0:0:
256,192,103148,1,0,0:0:0:0:
256,192,103240,1,8,0:0:0:0:
256,192,103333,1,8,0:0:0:0:
256,192,103519,1,8,0:0:0:0:
256,192,103704,1,4,0:0:0:0:
256,192,104074,1,8,0:0:0:0:
256,192,104259,1,0,0:0:0:0:
256,192,104352,1,0,0:0:0:0:
256,192,104444,1,8,0:0:0:0:
256,192,104629,1,0,0:0:0:0:
256,192,104815,1,8,0:0:0:0:
256,192,105000,1,8,0:0:0:0:
256,192,105185,1,4,0:0:0:0:
256,192,105556,1,8,0:0:0:0:
256,192,105741,1,0,0:0:0:0:
256,192,105833,1,0,0:0:0:0:
256,192,105926,1,8,0:0:0:0:
256,192,106111,1,0,0:0:0:0:
256,192,106204,1,8,0:0:0:0:
256,192,106296,1,0,0:0:0:0:
256,192,106481,1,8,0:0:0:0:
256,192,106667,1,8,0:0:0:0:
256,192,106852,1,0,0:0:0:0:
256,192,106944,1,0,0:0:0:0:
256,192,107037,1,8,0:0:0:0:
256,192,107222,1,0,0:0:0:0:
256,192,107407,1,8,0:0:0:0:
256,192,107778,1,8,0:0:0:0:
256,192,108148,1,12,0:0:0:0:
256,192,108519,1,4,0:0:0:0:
256,192,108889,1,12,0:0:0:0:
256,192,109074,1,0,0:0:0:0:
256,192,109167,1,8,0:0:0:0:
256,192,109259,1,0,0:0:0:0:
256,192,109444,1,0,0:0:0:0:
256,192,109630,1,8,0:0:0:0:
256,192,109815,1,0,0:0:0:0:
256,192,109907,1,0,0:0:0:0:
256,192,110000,1,8,0:0:0:0:
256,192,110185,1,0,0:0:0:0:
256,192,110370,1,8,0:0:0:0:
256,192,110741,1,8,0:0:0:0:
256,192,110926,1,0,0:0:0:0:
256,192,111019,1,0,0:0:0:0:
256,192,111111,1,8,0:0:0:0:
256,192,111296,1,0,0:0:0:0:
256,192,111389,1,0,0:0:0:0:
256,192,111481,1,8,0:0:0:0:
256,192,111667,1,0,0:0:0:0:
256,192,111852,1,8,0:0:0:0:
256,192,112222,1,8,0:0:0:0:
256,192,112407,1,0,0:0:0:0:
256,192,112593,1,8,0:0:0:0:
256,192,112685,1,8,0:0:0:0:
256,192,112778,1,0,0:0:0:0:
256,192,112963,1,8,0:0:0:0:
256,192,113148,1,0,0:0:0:0:
256,192,113241,1,0,0:0:0:0:
256,192,113333,1,8,0:0:0:0:
256,192,113518,1,0,0:0:0:0:
256,192,113704,1,8,0:0:0:0:
256,192,114074,1,8,0:0:0:0:
256,192,114444,1,8,0:0:0:0:
256,192,114630,1,0,0:0:0:0:
256,192,114815,1,12,0:0:0:0:
256,192,115185,1,0,0:0:0:0:
256,192,115370,1,8,0:0:0:0:
256,192,115926,1,0,0:0:0:0:
256,192,116296,1,8,0:0:0:0:
256,192,116667,1,8,0:0:0:0:
256,192,116852,1,0,0:0:0:0:
256,192,117037,1,8,0:0:0:0:
256,192,117407,1,8,0:0:0:0:
256,192,117778,1,8,0:0:0:0:
256,192,117963,1,0,0:0:0:0:
256,192,118148,1,8,0:0:0:0:
256,192,118333,1,8,0:0:0:0:
256,192,118519,1,0,0:0:0:0:
256,192,118889,1,8,0:0:0:0:
256,192,119259,1,8,0:0:0:0:
256,192,119444,1,0,0:0:0:0:
256,192,119630,1,8,0:0:0:0:
256,192,119815,1,8,0:0:0:0:
256,192,120000,1,0,0:0:0:0:
256,192,120370,1,8,0:0:0:0:
256,192,120556,1,0,0:0:0:0:
256,192,120638,1,0,0:0:0:0:
256,192,120741,1,8,0:0:0:0:
256,192,120926,1,0,0:0:0:0:
256,192,121111,1,8,0:0:0:0:
256,192,121296,1,0,0:0:0:0:
256,192,121481,1,8,0:0:0:0:
256,192,121667,1,0,0:0:0:0:
256,192,121852,1,8,0:0:0:0:
256,192,122037,1,0,0:0:0:0:
256,192,122222,1,12,0:0:0:0:
256,192,123704,1,12,0:0:0:0:
256,192,124074,1,0,0:0:0:0:
256,192,124259,1,0,0:0:0:0:
256,192,124444,1,8,0:0:0:0:
256,192,124815,1,8,0:0:0:0:
256,192,125000,1,0,0:0:0:0:
256,192,125093,1,0,0:0:0:0:
256,192,125185,1,8,0:0:0:0:
256,192,125370,1,8,0:0:0:0:
256,192,125463,1,8,0:0:0:0:
256,192,125556,1,0,0:0:0:0:
256,192,125741,1,0,0:0:0:0:
256,192,125926,1,8,0:0:0:0:
256,192,126296,1,8,0:0:0:0:
256,192,126481,1,0,0:0:0:0:
256,192,126667,1,8,0:0:0:0:
256,192,126759,1,0,0:0:0:0:
256,192,126852,1,0,0:0:0:0:
256,192,127037,1,8,0:0:0:0:
256,192,127222,1,0,0:0:0:0:
256,192,127407,1,8,0:0:0:0:
256,192,127500,1,8,0:0:0:0:
256,192,127593,1,0,0:0:0:0:
256,192,127778,1,0,0:0:0:0:
256,192,128148,1,8,0:0:0:0:
256,192,128519,1,8,0:0:0:0:
256,192,128704,1,0,0:0:0:0:
256,192,128889,1,8,0:0:0:0:
256,192,129259,1,0,0:0:0:0:
256,192,129444,1,0,0:0:0:0:
256,192,129537,1,0,0:0:0:0:
256,192,129630,1,0,0:0:0:0:
256,192,129815,1,0,0:0:0:0:
256,192,130000,1,8,0:0:0:0:
256,192,130185,1,0,0:0:0:0:
256,192,130278,1,0,0:0:0:0:
256,192,130370,1,8,0:0:0:0:
256,192,130556,1,0,0:0:0:0:
256,192,130741,1,8,0:0:0:0:
256,192,131111,1,8,0:0:0:0:
256,192,131296,1,0,0:0:0:0:
256,192,131389,1,0,0:0:0:0:
256,192,131481,1,0,0:0:0:0:
256,192,131667,1,0,0:0:0:0:
256,192,131852,1,8,0:0:0:0:
256,192,132222,1,0,0:0:0:0:
256,192,132315,1,0,0:0:0:0:
256,192,132407,1,0,0:0:0:0:
256,192,132593,1,8,0:0:0:0:
256,192,132778,1,0,0:0:0:0:
256,192,132963,1,0,0:0:0:0:
256,192,133056,1,0,0:0:0:0:
256,192,133148,1,0,0:0:0:0:
256,192,133333,1,8,0:0:0:0:
256,192,133704,1,12,0:0:0:0:
256,192,134444,1,8,0:0:0:0:
256,192,134630,1,0,0:0:0:0:
256,192,134815,1,0,0:0:0:0:
256,192,134907,1,0,0:0:0:0:
256,192,135000,1,0,0:0:0:0:
256,192,135185,1,8,0:0:0:0:
256,192,135370,1,0,0:0:0:0:
256,192,135556,1,8,0:0:0:0:
256,192,135926,1,0,0:0:0:0:
256,192,136019,1,0,0:0:0:0:
256,192,136111,1,0,0:0:0:0:
256,192,136296,1,8,0:0:0:0:
256,192,136481,1,0,0:0:0:0:
256,192,136667,1,8,0:0:0:0:
256,192,136852,1,8,0:0:0:0:
256,192,136944,1,8,0:0:0:0:
256,192,137037,1,0,0:0:0:0:
256,192,137222,1,8,0:0:0:0:
256,192,137315,1,8,0:0:0:0:
256,192,137407,1,0,0:0:0:0:
256,192,137778,1,8,0:0:0:0:
256,192,138148,1,0,0:0:0:0:
256,192,138333,1,0,0:0:0:0:
256,192,138426,1,0,0:0:0:0:
256,192,138519,1,8,0:0:0:0:
256,192,138704,1,0,0:0:0:0:
256,192,138889,1,8,0:0:0:0:
256,192,139074,1,0,0:0:0:0:
256,192,139167,1,0,0:0:0:0:
256,192,139259,1,8,0:0:0:0:
256,192,139444,1,0,0:0:0:0:
256,192,139630,1,8,0:0:0:0:
256,192,139815,1,8,0:0:0:0:
256,192,139907,1,8,0:0:0:0:
256,192,140000,1,0,0:0:0:0:
256,192,140185,1,8,0:0:0:0:
256,192,140278,1,8,0:0:0:0:
256,192,140370,1,0,0:0:0:0:
256,192,140741,1,8,0:0:0:0:
256,192,141111,1,0,0:0:0:0:
256,192,141296,1,0,0:0:0:0:
256,192,141481,1,8,0:0:0:0:
256,192,141852,1,0,0:0:0:0:
256,192,142037,1,0,0:0:0:0:
256,192,142222,1,8,0:0:0:0:
256,192,142407,1,0,0:0:0:0:
256,192,142593,1,8,0:0:0:0:
256,192,142778,1,8,0:0:0:0:
256,192,142870,1,8,0:0:0:0:
256,192,142963,1,0,0:0:0:0:
256,192,143148,1,8,0:0:0:0:
256,192,143241,1,8,0:0:0:0:
256,192,143333,1,0,0:0:0:0:
256,192,143704,1,8,0:0:0:0:
256,192,144074,1,0,0:0:0:0:
256,192,144259,1,0,0:0:0:0:
256,192,144352,1,0,0:0:0:0:
256,192,144444,1,8,0:0:0:0:
256,192,144630,1,0,0:0:0:0:
256,192,144815,1,8,0:0:0:0:
256,192,145000,1,0,0:0:0:0:
256,192,145093,1,0,0:0:0:0:
256,192,145185,1,8,0:0:0:0:
256,192,145370,1,0,0:0:0:0:
256,192,145556,1,8,0:0:0:0:
256,192,145741,1,8,0:0:0:0:
256,192,145833,1,8,0:0:0:0:
256,192,145926,1,0,0:0:0:0:
256,192,146111,1,8,0:0:0:0:
256,192,146204,1,8,0:0:0:0:
256,192,146296,1,0,0:0:0:0:
256,192,146667,1,8,0:0:0:0:
256,192,147037,1,8,0:0:0:0:
256,192,147129,1,0,0:0:0:0:
256,192,147222,1,0,0:0:0:0:
256,192,147407,1,12,0:0:0:0:
256,192,147778,1,0,0:0:0:0:
256,192,147963,1,0,0:0:0:0:
256,192,148056,1,0,0:0:0:0:
256,192,148148,1,8,0:0:0:0:
256,192,148333,1,0,0:0:0:0:
256,192,148519,1,8,0:0:0:0:
256,192,148704,1,8,0:0:0:0:
256,192,148796,1,8,0:0:0:0:
256,192,148889,1,0,0:0:0:0:
256,192,149074,1,8,0:0:0:0:
256,192,149167,1,8,0:0:0:0:
256,192,149259,1,0,0:0:0:0:
256,192,149630,1,8,0:0:0:0:
256,192,150000,1,8,0:0:0:0:
256,192,150185,1,0,0:0:0:0:
256,192,150278,1,0,0:0:0:0:
256,192,150370,1,8,0:0:0:0:
256,192,150556,1,0,0:0:0:0:
256,192,150741,1,8,0:0:0:0:
256,192,150926,1,0,0:0:0:0:
256,192,151019,1,0,0:0:0:0:
256,192,151111,1,8,0:0:0:0:
256,192,151481,1,8,0:0:0:0:
256,192,151666,1,8,0:0:0:0:
256,192,151759,1,8,0:0:0:0:
256,192,151852,1,0,0:0:0:0:
256,192,152037,1,8,0:0:0:0:
256,192,152130,1,8,0:0:0:0:
256,192,152222,1,0,0:0:0:0:
256,192,152407,1,0,0:0:0:0:
256,192,152593,1,8,0:0:0:0:
256,192,152963,1,0,0:0:0:0:
256,192,153148,1,0,0:0:0:0:
256,192,153241,1,0,0:0:0:0:
256,192,153333,1,8,0:0:0:0:
256,192,153519,1,0,0:0:0:0:
256,192,153704,1,8,0:0:0:0:
256,192,153889,1,0,0:0:0:0:
256,192,153981,1,0,0:0:0:0:
256,192,154074,1,8,0:0:0:0:
256,192,154259,1,0,0:0:0:0:
256,192,154444,1,8,0:0:0:0:
256,192,154630,1,8,0:0:0:0:
256,192,154723,1,8,0:0:0:0:
256,192,154816,1,0,0:0:0:0:
256,192,155001,1,8,0:0:0:0:
256,192,155093,1,8,0:0:0:0:
256,192,155186,1,0,0:0:0:0:
256,192,155556,1,8,0:0:0:0:
256,192,155741,1,0,0:0:0:0:
256,192,155926,1,8,0:0:0:0:
256,192,156111,1,0,0:0:0:0:
256,192,156204,1,0,0:0:0:0:
256,192,156296,1,8,0:0:0:0:
256,192,156481,1,0,0:0:0:0:
256,192,156667,1,8,0:0:0:0:
256,192,156759,1,8,0:0:0:0:
256,192,156852,1,0,0:0:0:0:
256,192,157037,1,8,0:0:0:0:
256,192,157407,1,8,0:0:0:0:
256,192,157593,1,0,0:0:0:0:
256,192,157685,1,8,0:0:0:0:
256,192,157778,1,8,0:0:0:0:
256,192,157963,1,0,0:0:0:0:
256,192,158148,1,8,0:0:0:0:
256,192,158519,1,0,0:0:0:0:
256,192,158889,1,0,0:0:0:0:
256,192,159259,1,8,0:0:0:0:
256,192,159630,1,0,0:0:0:0:
256,192,159815,1,0,0:0:0:0:
256,192,160000,1,8,0:0:0:0:
256,192,160370,1,0,0:0:0:0:
256,192,160556,1,0,0:0:0:0:
256,192,160648,1,0,0:0:0:0:
256,192,160741,1,8,0:0:0:0:
256,192,160926,1,0,0:0:0:0:
256,192,161111,1,8,0:0:0:0:
256,192,161481,1,0,0:0:0:0:
256,192,161852,1,8,0:0:0:0:
256,192,162037,1,8,0:0:0:0:
256,192,162130,1,8,0:0:0:0:
256,192,162222,1,0,0:0:0:0:
256,192,162407,1,0,0:0:0:0:
256,192,162593,1,8,0:0:0:0:
256,192,162778,1,0,0:0:0:0:
256,192,162963,1,8,0:0:0:0:
256,192,163056,1,8,0:0:0:0:
256,192,163148,1,0,0:0:0:0:
256,192,163333,1,0,0:0:0:0:
256,192,163519,1,0,0:0:0:0:
256,192,163704,1,8,0:0:0:0:
256,192,163889,1,8,0:0:0:0:
256,192,164074,1,0,0:0:0:0:
256,192,164259,1,0,0:0:0:0:
256,192,164444,1,8,0:0:0:0:
256,192,164815,1,0,0:0:0:0:
256,192,165000,1,0,0:0:0:0:
256,192,165185,1,8,0:0:0:0:
256,192,165370,1,0,0:0:0:0:
256,192,165463,1,0,0:0:0:0:
256,192,165556,1,0,0:0:0:0:
256,192,165741,1,0,0:0:0:0:
256,192,165926,1,8,0:0:0:0:
256,192,166296,1,0,0:0:0:0:
256,192,166667,1,12,0:0:0:0:
256,192,166852,1,0,0:0:0:0:
256,192,166944,1,0,0:0:0:0:
256,192,167037,1,0,0:0:0:0:
256,192,167222,1,0,0:0:0:0:
256,192,167407,1,8,0:0:0:0:
256,192,167593,1,0,0:0:0:0:
256,192,167778,1,8,0:0:0:0:
256,192,167870,1,0,0:0:0:0:
256,192,167963,1,0,0:0:0:0:
256,192,168148,1,8,0:0:0:0:
256,192,168333,1,0,0:0:0:0:
256,192,168426,1,0,0:0:0:0:
256,192,168519,1,8,0:0:0:0:
256,192,168704,1,0,0:0:0:0:
256,192,168889,1,8,0:0:0:0:
256,192,169074,1,0,0:0:0:0:
256,192,169167,1,0,0:0:0:0:
256,192,169259,1,8,0:0:0:0:
256,192,169630,1,8,0:0:0:0:
256,192,170000,1,0,0:0:0:0:
256,192,170185,1,0,0:0:0:0:
256,192,170370,1,8,0:0:0:0:
256,192,170556,1,8,0:0:0:0:
256,192,170648,1,0,0:0:0:0:
256,192,170741,1,0,0:0:0:0:
256,192,170926,1,0,0:0:0:0:
256,192,171111,1,12,0:0:0:0:
256,192,171481,1,0,0:0:0:0:
256,192,171852,1,8,0:0:0:0:
256,192,172037,1,0,0:0:0:0:
256,192,172130,1,0,0:0:0:0:
256,192,172222,1,8,0:0:0:0:
256,192,172407,1,8,0:0:0:0:
256,192,172593,1,0,0:0:0:0:
256,192,172963,1,0,0:0:0:0:
256,192,173333,1,8,0:0:0:0:
256,192,173426,1,0,0:0:0:0:
256,192,173519,1,0,0:0:0:0:
256,192,173704,1,8,0:0:0:0:
256,192,173889,1,8,0:0:0:0:
256,192,173981,1,8,0:0:0:0:
256,192,174074,1,8,0:0:0:0:
256,192,174444,1,0,0:0:0:0:
256,192,174815,1,8,0:0:0:0:
256,192,175000,1,0,0:0:0:0:
256,192,175093,1,0,0:0:0:0:
256,192,175185,1,8,0:0:0:0:
256,192,175370,1,0,0:0:0:0:
256,192,175556,1,8,0:0:0:0:
256,192,175741,1,0,0:0:0:0:
256,192,175833,1,0,0:0:0:0:
256,192,175926,1,8,0:0:0:0:
256,192,176111,1,0,0:0:0:0:
256,192,176296,1,8,0:0:0:0:
256,192,176481,1,0,0:0:0:0:
256,192,176574,1,0,0:0:0:0:
256,192,176667,1,8,0:0:0:0:
256,192,176759,1,8,0:0:0:0:
256,192,176852,1,8,0:0:0:0:
256,192,177037,1,8,0:0:0:0:
256,192,177407,1,0,0:0:0:0:
256,192,177593,1,0,0:0:0:0:
256,192,177778,1,8,0:0:0:0:
256,192,177963,1,0,0:0:0:0:
256,192,178056,1,0,0:0:0:0:
256,192,178148,1,0,0:0:0:0:
256,192,178333,1,0,0:0:0:0:
256,192,178519,1,8,0:0:0:0:
256,192,178704,1,0,0:0:0:0:
256,192,178796,1,0,0:0:0:0:
256,192,178889,1,8,0:0:0:0:
256,192,179074,1,0,0:0:0:0:
256,192,179259,1,8,0:0:0:0:
256,192,179444,1,0,0:0:0:0:
256,192,179630,1,8,0:0:0:0:
256,192,179722,1,0,0:0:0:0:
256,192,179815,1,0,0:0:0:0:
256,192,180000,1,8,0:0:0:0:
256,192,180370,1,0,0:0:0:0:
256,192,180556,1,0,0:0:0:0:
256,192,180741,1,8,0:0:0:0:
256,192,180926,1,0,0:0:0:0:
256,192,181111,1,0,0:0:0:0:
256,192,181481,1,4,0:0:0:0:
256,192,181852,1,4,0:0:0:0:
256,192,182963,1,4,0:0:0:0:
256,192,183333,1,0,0:0:0:0:
256,192,183426,1,0,0:0:0:0:
256,192,183519,1,0,0:0:0:0:
256,192,183704,1,8,0:0:0:0:
256,192,183889,1,0,0:0:0:0:
256,192,184074,1,8,0:0:0:0:
256,192,184259,1,0,0:0:0:0:
256,192,184352,1,0,0:0:0:0:
256,192,184445,1,8,0:0:0:0:
256,192,184630,1,0,0:0:0:0:
256,192,184815,1,0,0:0:0:0:
256,192,184907,1,0,0:0:0:0:
256,192,185000,1,0,0:0:0:0:
256,192,185185,1,8,0:0:0:0:
256,192,185370,1,0,0:0:0:0:
256,192,185463,1,0,0:0:0:0:
256,192,185556,1,8,0:0:0:0:
256,192,185648,1,8,0:0:0:0:
256,192,185741,1,0,0:0:0:0:
256,192,185925,1,8,0:0:0:0:
256,192,186296,1,8,0:0:0:0:
256,192,186482,1,0,0:0:0:0:
256,192,186666,1,8,0:0:0:0:
256,192,186852,1,8,0:0:0:0:
256,192,186945,1,8,0:0:0:0:
256,192,187037,1,0,0:0:0:0:
256,192,187130,1,0,0:0:0:0:
256,192,187222,1,8,0:0:0:0:
256,192,187407,1,8,0:0:0:0:
256,192,187500,1,0,0:0:0:0:
256,192,187593,1,8,0:0:0:0:
256,192,187778,1,8,0:0:0:0:
256,192,187963,1,0,0:0:0:0:
256,192,188148,1,8,0:0:0:0:
256,192,188519,1,8,0:0:0:0:
256,192,188611,1,0,0:0:0:0:
256,192,188704,1,8,0:0:0:0:
256,192,188889,1,8,0:0:0:0:
256,192,189074,1,0,0:0:0:0:
256,192,189167,1,0,0:0:0:0:
256,192,189259,1,8,0:0:0:0:
256,192,189445,1,8,0:0:0:0:
256,192,189630,1,4,0:0:0:0:
256,192,190000,1,8,0:0:0:0:
256,192,190185,1,0,0:0:0:0:
256,192,190278,1,0,0:0:0:0:
256,192,190370,1,8,0:0:0:0:
256,192,190556,1,0,0:0:0:0:
256,192,190741,1,8,0:0:0:0:
256,192,190833,1,8,0:0:0:0:
256,192,190926,1,8,0:0:0:0:
256,192,191111,1,4,0:0:0:0:
256,192,191482,1,8,0:0:0:0:
256,192,191667,1,0,0:0:0:0:
256,192,191759,1,0,0:0:0:0:
256,192,191852,1,8,0:0:0:0:
256,192,192037,1,0,0:0:0:0:
256,192,192130,1,8,0:0:0:0:
256,192,192222,1,0,0:0:0:0:
256,192,192315,1,0,0:0:0:0:
256,192,192407,1,8,0:0:0:0:
256,192,192593,1,8,0:0:0:0:
256,192,192778,1,0,0:0:0:0:
256,192,192963,1,8,0:0:0:0:
256,192,193056,1,0,0:0:0:0:
256,192,193148,1,0,0:0:0:0:
256,192,193333,1,8,0:0:0:0:
256,192,193519,1,0,0:0:0:0:
256,192,193611,1,0,0:0:0:0:
256,192,193704,1,8,0:0:0:0:
256,192,193889,1,0,0:0:0:0:
256,192,194074,1,12,0:0:0:0:
256,192,194445,1,4,0:0:0:0:
256,192,194815,1,12,0:0:0:0:
256,192,195000,1,0,0:0:0:0:
256,192,195093,1,8,0:0:0:0:
256,192,195185,1,0,0:0:0:0:
256,192,195370,1,0,0:0:0:0:
256,192,195556,1,8,0:0:0:0:
256,192,195741,1,0,0:0:0:0:
256,192,195833,1,0,0:0:0:0:
256,192,195926,1,8,0:0:0:0:
256,192,196111,1,0,0:0:0:0:
256,192,196296,1,8,0:0:0:0:
256,192,196389,1,0,0:0:0:0:
256,192,196482,1,0,0:0:0:0:
256,192,196667,1,8,0:0:0:0:
256,192,196852,1,0,0:0:0:0:
256,192,196945,1,0,0:0:0:0:
256,192,197037,1,8,0:0:0:0:
256,192,197222,1,0,0:0:0:0:
256,192,197407,1,8,0:0:0:0:
256,192,197778,1,8,0:0:0:0:
256,192,197963,1,0,0:0:0:0:
256,192,198056,1,0,0:0:0:0:
256,192,198148,1,8,0:0:0:0:
256,192,198333,1,0,0:0:0:0:
256,192,198519,1,8,0:0:0:0:
256,192,198611,1,8,0:0:0:0:
256,192,198704,1,0,0:0:0:0:
256,192,198796,1,0,0:0:0:0:
256,192,198889,1,8,0:0:0:0:
256,192,199074,1,0,0:0:0:0:
256,192,199167,1,0,0:0:0:0:
256,192,199259,1,8,0:0:0:0:
256,192,199445,1,8,0:0:0:0:
256,192,199537,1,0,0:0:0:0:
256,192,199630,1,8,0:0:0:0:
256,192,199815,1,0,0:0:0:0:
256,192,200000,1,12,0:0:0:0:
256,192,200370,1,8,0:0:0:0:
256,192,200556,1,0,0:0:0:0:
256,192,200741,1,8,0:0:0:0:
256,192,201111,1,0,0:0:0:0:
256,192,201296,1,8,0:0:0:0:
256,192,201852,1,8,0:0:0:0:
256,192,202222,1,8,0:0:0:0:
256,192,202593,1,8,0:0:0:0:
256,192,202778,1,0,0:0:0:0:
256,192,202963,1,8,0:0:0:0:
256,192,203333,1,8,0:0:0:0:
256,192,203426,1,0,0:0:0:0:
256,192,203519,1,0,0:0:0:0:
256,192,203704,1,8,0:0:0:0:
256,192,203889,1,0,0:0:0:0:
256,192,204074,1,8,0:0:0:0:
256,192,204259,1,8,0:0:0:0:
256,192,204445,1,0,0:0:0:0:
256,192,204815,1,8,0:0:0:0:
256,192,205185,1,8,0:0:0:0:
256,192,205370,1,0,0:0:0:0:
256,192,205556,1,8,0:0:0:0:
256,192,205741,1,8,0:0:0:0:
256,192,205926,1,0,0:0:0:0:
256,192,206296,1,8,0:0:0:0:
256,192,206482,1,0,0:0:0:0:
256,192,206574,1,0,0:0:0:0:
256,192,206667,1,8,0:0:0:0:
256,192,206852,1,0,0:0:0:0:
256,192,207037,1,8,0:0:0:0:
256,192,207222,1,0,0:0:0:0:
256,192,207407,1,8,0:0:0:0:
256,192,207593,1,0,0:0:0:0:
256,192,207778,1,8,0:0:0:0:
256,192,208148,1,12,0:0:0:0:
256,192,208519,1,8,0:0:0:0:
256,192,208704,1,0,0:0:0:0:
256,192,208796,1,0,0:0:0:0:
256,192,208889,1,8,0:0:0:0:
256,192,209074,1,0,0:0:0:0:
256,192,209259,1,8,0:0:0:0:
256,192,209352,1,8,0:0:0:0:
256,192,209444,1,0,0:0:0:0:
256,192,209537,1,0,0:0:0:0:
256,192,209630,1,8,0:0:0:0:
256,192,209722,8,0,212593,0:0:0:0:
256,192,212963,5,0,0:0:0:0:
256,192,213148,1,0,0:0:0:0:
256,192,213333,1,8,0:0:0:0:
256,192,213519,1,0,0:0:0:0:
256,192,213704,1,8,0:0:0:0:
256,192,214074,1,0,0:0:0:0:
256,192,214259,1,0,0:0:0:0:
256,192,214444,1,8,0:0:0:0:
256,192,214815,1,8,0:0:0:0:
256,192,215185,1,0,0:0:0:0:
256,192,215370,1,0,0:0:0:0:
256,192,215556,1,8,0:0:0:0:
256,192,215741,1,0,0:0:0:0:
256,192,215833,1,0,0:0:0:0:
256,192,215926,1,8,0:0:0:0:
256,192,216111,1,0,0:0:0:0:
256,192,216296,1,8,0:0:0:0:
256,192,216481,1,8,0:0:0:0:
256,192,216574,1,8,0:0:0:0:
256,192,216667,1,0,0:0:0:0:
256,192,216852,1,8,0:0:0:0:
256,192,217037,1,8,0:0:0:0:
256,192,217129,1,0,0:0:0:0:
256,192,217222,1,8,0:0:0:0:
256,192,217315,1,8,0:0:0:0:
256,192,217407,1,0,0:0:0:0:
256,192,217593,1,0,0:0:0:0:
256,192,217778,1,8,0:0:0:0:
256,192,217870,1,0,0:0:0:0:
256,192,217963,1,8,0:0:0:0:
256,192,218148,1,8,0:0:0:0:
256,192,218333,1,0,0:0:0:0:
256,192,218426,1,0,0:0:0:0:
256,192,218519,1,8,0:0:0:0:
256,192,218704,1,0,0:0:0:0:
256,192,218796,1,0,0:0:0:0:
256,192,218889,1,8,0:0:0:0:
256,192,219074,1,8,0:0:0:0:
256,192,219166,1,0,0:0:0:0:
256,192,219259,1,8,0:0:0:0:
256,192,219444,1,8,0:0:0:0:
256,192,219537,1,0,0:0:0:0:
256,192,219630,1,8,0:0:0:0:
256,192,219722,1,0,0:0:0:0:
256,192,219815,1,8,0:0:0:0:
256,192,219907,1,0,0:0:0:0:
256,192,220000,1,8,0:0:0:0:
256,192,220185,1,0,0:0:0:0:
256,192,220278,1,8,0:0:0:0:
256,192,220370,1,0,0:0:0:0:
256,192,220556,1,0,0:0:0:0:
256,192,220741,1,8,0:0:0:0:
256,192,220864,1,0,0:0:0:0:
256,192,220988,1,0,0:0:0:0:
256,192,221111,1,8,0:0:0:0:
256,192,221296,1,8,0:0:0:0:
256,192,221481,1,4,0:0:0:0:
256,192,221852,1,0,0:0:0:0:
256,192,222037,1,0,0:0:0:0:
256,192,222222,1,8,0:0:0:0:
256,192,222593,1,8,0:0:0:0:
256,192,222778,1,0,0:0:0:0:
256,192,222963,1,0,0:0:0:0:
256,192,223056,1,0,0:0:0:0:
256,192,223148,1,0,0:0:0:0:
256,192,223333,1,8,0:0:0:0:
256,192,223519,1,0,0:0:0:0:
256,192,223611,1,0,0:0:0:0:
256,192,223704,1,8,0:0:0:0:
256,192,224074,1,0,0:0:0:0:
256,192,224259,1,0,0:0:0:0:
256,192,224444,1,12,0:0:0:0:
256,192,224815,1,0,0:0:0:0:
256,192,225000,1,0,0:0:0:0:
256,192,225093,1,0,0:0:0:0:
256,192,225185,1,8,0:0:0:0:
256,192,225370,1,0,0:0:0:0:
256,192,225556,1,8,0:0:0:0:
256,192,225926,1,0,0:0:0:0:
256,192,226111,1,0,0:0:0:0:
256,192,226204,1,0,0:0:0:0:
256,192,226296,1,8,0:0:0:0:
256,192,226481,1,0,0:0:0:0:
256,192,226667,1,8,0:0:0:0:
256,192,226759,1,8,0:0:0:0:
256,192,226852,1,0,0:0:0:0:
256,192,227037,1,8,0:0:0:0:
256,192,227130,1,8,0:0:0:0:
256,192,227222,1,0,0:0:0:0:
256,192,227407,1,4,0:0:0:0:
256,192,227778,1,0,0:0:0:0:
256,192,227963,1,0,0:0:0:0:
256,192,228056,1,0,0:0:0:0:
256,192,228148,1,8,0:0:0:0:
256,192,228333,1,8,0:0:0:0:
256,192,228426,1,8,0:0:0:0:
256,192,228519,1,8,0:0:0:0:
256,192,228704,1,0,0:0:0:0:
256,192,228796,1,0,0:0:0:0:
256,192,228889,1,8,0:0:0:0:
256,192,229074,1,0,0:0:0:0:
256,192,229259,1,8,0:0:0:0:
256,192,229444,1,0,0:0:0:0:
256,192,229537,1,0,0:0:0:0:
256,192,229630,1,8,0:0:0:0:
256,192,229815,1,0,0:0:0:0:
256,192,230000,1,8,0:0:0:0:
256,192,230185,1,0,0:0:0:0:
256,192,230278,1,0,0:0:0:0:
256,192,230370,1,0,0:0:0:0:
256,192,230741,1,8,0:0:0:0:
256,192,230926,1,0,0:0:0:0:
256,192,231019,1,0,0:0:0:0:
256,192,231111,1,8,0:0:0:0:
256,192,231296,1,0,0:0:0:0:
256,192,231481,1,8,0:0:0:0:
256,192,231574,1,8,0:0:0:0:
256,192,231667,1,0,0:0:0:0:
256,192,231852,1,8,0:0:0:0:
256,192,231944,1,8,0:0:0:0:
256,192,232037,1,0,0:0:0:0:
256,192,232222,1,8,0:0:0:0:
256,192,232315,1,8,0:0:0:0:
256,192,232407,1,0,0:0:0:0:
256,192,232593,1,4,0:0:0:0:
256,192,232963,1,4,0:0:0:0:
256,192,233333,1,12,0:0:0:0:
256,192,233704,1,8,0:0:0:0:
256,192,233889,1,0,0:0:0:0:
256,192,234074,1,8,0:0:0:0:
256,192,234167,1,8,0:0:0:0:
256,192,234259,1,0,0:0:0:0:
256,192,234444,1,8,0:0:0:0:
256,192,234630,1,0,0:0:0:0:
256,192,234722,1,0,0:0:0:0:
256,192,234815,1,8,0:0:0:0:
256,192,234907,1,8,0:0:0:0:
256,192,235000,1,0,0:0:0:0:
256,192,235185,1,8,0:0:0:0:
256,192,235370,1,0,0:0:0:0:
256,192,235463,1,0,0:0:0:0:
256,192,235556,1,8,0:0:0:0:
256,192,235741,1,0,0:0:0:0:
256,192,235926,1,8,0:0:0:0:
256,192,236019,1,8,0:0:0:0:
256,192,236111,1,0,0:0:0:0:
256,192,236296,1,8,0:0:0:0:
256,192,236481,1,0,0:0:0:0:
256,192,236667,1,8,0:0:0:0:
256,192,236759,1,0,0:0:0:0:
256,192,236852,1,0,0:0:0:0:
256,192,237037,1,8,0:0:0:0:
256,192,237130,1,8,0:0:0:0:
256,192,237222,1,0,0:0:0:0:
256,192,237315,1,0,0:0:0:0:
256,192,237407,1,8,0:0:0:0:
256,192,237593,1,0,0:0:0:0:
256,192,237685,1,0,0:0:0:0:
256,192,237778,1,8,0:0:0:0:
256,192,237963,1,0,0:0:0:0:
256,192,238148,1,8,0:0:0:0:
256,192,238241,1,0,0:0:0:0:
256,192,238333,1,0,0:0:0:0:
256,192,238519,1,0,0:0:0:0:
256,192,238889,1,8,0:0:0:0:
256,192,239074,1,0,0:0:0:0:
256,192,239167,1,8,0:0:0:0:
256,192,239259,1,8,0:0:0:0:
256,192,239444,1,0,0:0:0:0:
256,192,239630,1,8,0:0:0:0:
256,192,239815,1,0,0:0:0:0:
256,192,239907,1,0,0:0:0:0:
256,192,240000,1,8,0:0:0:0:
256,192,240093,1,8,0:0:0:0:
256,192,240185,1,0,0:0:0:0:
256,192,240370,1,0,0:0:0:0:
256,192,240556,1,8,0:0:0:0:
256,192,240648,1,8,0:0:0:0:
256,192,240741,1,0,0:0:0:0:
256,192,240926,1,0,0:0:0:0:
256,192,241111,1,8,0:0:0:0:
256,192,241204,1,0,0:0:0:0:
256,192,241296,1,0,0:0:0:0:
256,192,241481,1,8,0:0:0:0:
256,192,241667,1,0,0:0:0:0:
256,192,241759,1,0,0:0:0:0:
256,192,241852,1,8,0:0:0:0:
256,192,241944,1,0,0:0:0:0:
256,192,242037,1,8,0:0:0:0:
256,192,242222,1,8,0:0:0:0:
256,192,242407,1,0,0:0:0:0:
256,192,242500,1,0,0:0:0:0:
256,192,242593,1,8,0:0:0:0:
256,192,242963,1,8,0:0:0:0:
256,192,243148,1,0,0:0:0:0:
256,192,243241,1,0,0:0:0:0:
256,192,243333,1,8,0:0:0:0:
256,192,243519,1,0,0:0:0:0:
256,192,243704,1,8,0:0:0:0:
256,192,243889,1,0,0:0:0:0:
256,192,244074,1,0,0:0:0:0:
256,192,244444,1,4,0:0:0:0:
256,192,244815,1,12,0:0:0:0:
256,192,245185,1,12,0:0:0:0:
256,192,245556,1,0,0:0:0:0:
256,192,245648,1,0,0:0:0:0:
256,192,245741,1,0,0:0:0:0:
256,192,245926,1,8,0:0:0:0:
256,192,246111,1,0,0:0:0:0:
256,192,246204,1,0,0:0:0:0:
256,192,246296,1,8,0:0:0:0:
256,192,246389,1,8,0:0:0:0:
256,192,246481,1,0,0:0:0:0:
256,192,246667,1,8,0:0:0:0:
256,192,246852,1,0,0:0:0:0:
256,192,246944,1,0,0:0:0:0:
256,192,247037,1,8,0:0:0:0:
256,192,247222,1,0,0:0:0:0:
256,192,247407,1,8,0:0:0:0:
256,192,247500,1,0,0:0:0:0:
256,192,247593,1,0,0:0:0:0:
256,192,247778,1,8,0:0:0:0:
256,192,248148,1,8,0:0:0:0:
256,192,248241,1,0,0:0:0:0:
256,192,248333,1,0,0:0:0:0:
256,192,248519,1,8,0:0:0:0:
256,192,248704,1,0,0:0:0:0:
256,192,248796,1,0,0:0:0:0:
256,192,248889,1,8,0:0:0:0:
256,192,248981,1,8,0:0:0:0:
256,192,249074,1,0,0:0:0:0:
256,192,249259,1,8,0:0:0:0:
256,192,249352,1,0,0:0:0:0:
256,192,249444,1,0,0:0:0:0:
256,192,249630,1,8,0:0:0:0:
256,192,249815,1,0,0:0:0:0:
256,192,249907,1,0,0:0:0:0:
256,192,250000,1,0,0:0:0:0:
256,192,250185,1,0,0:0:0:0:
256,192,250370,1,12,0:0:0:0:
256,192,250556,1,0,0:0:0:0:
256,192,250648,1,0,0:0:0:0:
256,192,250741,1,8,0:0:0:0:
256,192,250926,1,0,0:0:0:0:
256,192,251111,1,12,0:0:0:0:
256,192,251481,1,8,0:0:0:0:
256,192,251667,1,0,0:0:0:0:
256,192,251852,1,8,0:0:0:0:
256,192,251944,1,0,0:0:0:0:
256,192,252037,1,0,0:0:0:0:
256,192,252222,1,8,0:0:0:0:
256,192,252407,1,0,0:0:0:0:
256,192,252500,1,0,0:0:0:0:
256,192,252593,1,8,0:0:0:0:
256,192,252778,1,0,0:0:0:0:
256,192,252870,1,0,0:0:0:0:
256,192,252963,1,8,0:0:0:0:
256,192,253056,1,8,0:0:0:0:
256,192,253148,1,0,0:0:0:0:
256,192,253333,1,8,0:0:0:0:
256,192,253519,1,0,0:0:0:0:
256,192,253704,1,8,0:0:0:0:
256,192,253796,1,8,0:0:0:0:
256,192,253889,1,0,0:0:0:0:
256,192,253981,1,0,0:0:0:0:
256,192,254074,1,8,0:0:0:0:
256,192,254167,8,0,257037,0:0:0:0:
256,192,257778,5,0,0:0:0:0:
256,192,258519,1,8,0:0:0:0:
256,192,259259,1,0,0:0:0:0:
256,192,259630,1,0,0:0:0:0:
256,192,260000,1,0,0:0:0:0:
256,192,260741,1,0,0:0:0:0:
256,192,261481,1,8,0:0:0:0:
256,192,262222,1,0,0:0:0:0:
256,192,262963,1,8,0:0:0:0:
256,192,263333,1,8,0:0:0:0:
256,192,263704,1,0,0:0:0:0:
256,192,264074,1,0,0:0:0:0:
256,192,264444,1,8,0:0:0:0:
256,192,265555,1,0,0:0:0:0:
256,192,265926,1,8,0:0:0:0:
256,192,266667,1,0,0:0:0:0:
256,192,267407,1,0,0:0:0:0:
256,192,267778,1,0,0:0:0:0:
256,192,268148,1,8,0:0:0:0:
256,192,268889,1,0,0:0:0:0:
256,192,269630,1,0,0:0:0:0:
256,192,270000,1,0,0:0:0:0:
256,192,270370,1,8,0:0:0:0:
256,192,271111,1,0,0:0:0:0:
256,192,271852,1,8,0:0:0:0:
256,192,272222,1,0,0:0:0:0:
256,192,272593,1,0,0:0:0:0:
256,192,272963,1,8,0:0:0:0:
256,192,273333,1,0,0:0:0:0:
256,192,273704,1,0,0:0:0:0:
256,192,274074,1,8,0:0:0:0:
256,192,274444,1,8,0:0:0:0:
256,192,274815,1,0,0:0:0:0:
256,192,275185,1,0,0:0:0:0:
256,192,275556,1,8,0:0:0:0:
256,192,275926,1,0,0:0:0:0:
256,192,276296,1,8,0:0:0:0:
256,192,277037,1,0,0:0:0:0:
256,192,277407,1,8,0:0:0:0:
256,192,277593,1,8,0:0:0:0:
256,192,277778,1,0,0:0:0:0:
256,192,278148,1,0,0:0:0:0:
256,192,278333,1,8,0:0:0:0:
256,192,278889,1,0,0:0:0:0:
256,192,279259,1,8,0:0:0:0:
256,192,279630,1,0,0:0:0:0:
256,192,279815,1,8,0:0:0:0:
256,192,280370,1,8,0:0:0:0:
256,192,280556,1,8,0:0:0:0:
256,192,280741,1,0,0:0:0:0:
256,192,281111,1,8,0:0:0:0:
256,192,281296,1,0,0:0:0:0:
256,192,281852,1,0,0:0:0:0:
256,192,282222,1,8,0:0:0:0:
256,192,282593,1,0,0:0:0:0:
256,192,282778,1,8,0:0:0:0:
256,192,282963,1,8,0:0:0:0:
256,192,283056,1,8,0:0:0:0:
256,192,283148,1,8,0:0:0:0:
256,192,283333,1,0,0:0:0:0:
256,192,283704,1,12,0:0:0:0:
256,192,284074,1,0,0:0:0:0:
256,192,284259,1,0,0:0:0:0:
256,192,284352,1,0,0:0:0:0:
256,192,284444,1,0,0:0:0:0:
256,192,284630,1,0,0:0:0:0:
256,192,284815,1,8,0:0:0:0:
256,192,285185,1,0,0:0:0:0:
256,192,285370,1,0,0:0:0:0:
256,192,285556,1,8,0:0:0:0:
256,192,285833,1,0,0:0:0:0:
256,192,285926,1,8,0:0:0:0:
256,192,286111,1,0,0:0:0:0:
256,192,286204,1,0,0:0:0:0:
256,192,286296,1,8,0:0:0:0:
256,192,286481,1,0,0:0:0:0:
256,192,286667,1,8,0:0:0:0:
256,192,287037,1,0,0:0:0:0:
256,192,287222,1,0,0:0:0:0:
256,192,287315,1,0,0:0:0:0:
256,192,287407,1,8,0:0:0:0:
256,192,287593,1,0,0:0:0:0:
256,192,287778,1,8,0:0:0:0:
256,192,288148,1,0,0:0:0:0:
256,192,288333,1,8,0:0:0:0:
256,192,288426,1,8,0:0:0:0:
256,192,288519,1,8,0:0:0:0:
256,192,288704,1,8,0:0:0:0:
256,192,288889,1,4,0:0:0:0:
256,192,289259,1,4,0:0:0:0:
256,192,289630,1,4,0:0:0:0:
256,192,290000,1,0,0:0:0:0:
256,192,290093,1,0,0:0:0:0:
256,192,290185,1,0,0:0:0:0:
256,192,290370,1,8,0:0:0:0:
256,192,290556,1,0,0:0:0:0:
256,192,290741,1,8,0:0:0:0:
256,192,290926,1,0,0:0:0:0:
256,192,291019,1,0,0:0:0:0:
256,192,291112,1,8,0:0:0:0:
256,192,291297,1,0,0:0:0:0:
256,192,291482,1,0,0:0:0:0:
256,192,291574,1,0,0:0:0:0:
256,192,291667,1,0,0:0:0:0:
256,192,291852,1,8,0:0:0:0:
256,192,292037,1,0,0:0:0:0:
256,192,292130,1,0,0:0:0:0:
256,192,292223,1,8,0:0:0:0:
256,192,292315,1,8,0:0:0:0:
256,192,292408,1,0,0:0:0:0:
256,192,292592,1,8,0:0:0:0:
256,192,292778,1,0,0:0:0:0:
256,192,292871,1,0,0:0:0:0:
256,192,292963,1,8,0:0:0:0:
256,192,293149,1,0,0:0:0:0:
256,192,293333,1,8,0:0:0:0:
256,192,293519,1,8,0:0:0:0:
256,192,293612,1,8,0:0:0:0:
256,192,293704,1,0,0:0:0:0:
256,192,293797,1,0,0:0:0:0:
256,192,293889,1,8,0:0:0:0:
256,192,294074,1,8,0:0:0:0:
256,192,294167,1,0,0:0:0:0:
256,192,294260,1,8,0:0:0:0:
256,192,294445,1,8,0:0:0:0:
256,192,294537,1,0,0:0:0:0:
256,192,294630,1,0,0:0:0:0:
256,192,294723,1,0,0:0:0:0:
256,192,294815,1,8,0:0:0:0:
256,192,295000,1,0,0:0:0:0:
256,192,295186,1,8,0:0:0:0:
256,192,295278,1,0,0:0:0:0:
256,192,295371,1,8,0:0:0:0:
256,192,295556,1,8,0:0:0:0:
256,192,295649,1,8,0:0:0:0:
256,192,295741,1,0,0:0:0:0:
256,192,295834,1,0,0:0:0:0:
256,192,295926,1,8,0:0:0:0:
256,192,296112,1,8,0:0:0:0:
256,192,296297,1,4,0:0:0:0:
256,192,296667,1,8,0:0:0:0:
256,192,296760,1,8,0:0:0:0:
256,192,296852,1,0,0:0:0:0:
256,192,296945,1,0,0:0:0:0:
256,192,297037,1,8,0:0:0:0:
256,192,297223,1,0,0:0:0:0:
256,192,297315,1,0,0:0:0:0:
256,192,297408,1,8,0:0:0:0:
256,192,297593,1,8,0:0:0:0:
256,192,297778,1,4,0:0:0:0:
256,192,298149,1,8,0:0:0:0:
256,192,298334,1,0,0:0:0:0:
256,192,298426,1,0,0:0:0:0:
256,192,298519,1,8,0:0:0:0:
256,192,298704,1,0,0:0:0:0:
256,192,298797,1,8,0:0:0:0:
256,192,298889,1,0,0:0:0:0:
256,192,298982,1,0,0:0:0:0:
256,192,299074,1,8,0:0:0:0:
256,192,299260,1,8,0:0:0:0:
256,192,299445,1,0,0:0:0:0:
256,192,299630,1,8,0:0:0:0:
256,192,299723,1,0,0:0:0:0:
256,192,299815,1,0,0:0:0:0:
256,192,299908,1,0,0:0:0:0:
256,192,300000,1,8,0:0:0:0:
256,192,300186,1,0,0:0:0:0:
256,192,300278,1,0,0:0:0:0:
256,192,300371,1,8,0:0:0:0:
256,192,300556,1,0,0:0:0:0:
256,192,300741,1,12,0:0:0:0:
256,192,301112,1,4,0:0:0:0:
256,192,301482,1,12,0:0:0:0:
256,192,301667,1,0,0:0:0:0:
256,192,301760,1,8,0:0:0:0:
256,192,301852,1,0,0:0:0:0:
256,192,302037,1,0,0:0:0:0:
256,192,302223,1,8,0:0:0:0:
256,192,302408,1,0,0:0:0:0:
256,192,302500,1,0,0:0:0:0:
256,192,302593,1,8,0:0:0:0:
256,192,302778,1,0,0:0:0:0:
256,192,302963,1,8,0:0:0:0:
256,192,303056,1,0,0:0:0:0:
256,192,303149,1,0,0:0:0:0:
256,192,303334,1,8,0:0:0:0:
256,192,303519,1,0,0:0:0:0:
256,192,303612,1,0,0:0:0:0:
256,192,303704,1,8,0:0:0:0:
256,192,303889,1,0,0:0:0:0:
256,192,303982,1,0,0:0:0:0:
256,192,304074,1,8,0:0:0:0:
256,192,304260,1,0,0:0:0:0:
256,192,304445,1,0,0:0:0:0:
256,192,304537,1,8,0:0:0:0:
256,192,304630,1,0,0:0:0:0:
256,192,304723,1,0,0:0:0:0:
256,192,304815,1,8,0:0:0:0:
256,192,305000,1,0,0:0:0:0:
256,192,305186,1,8,0:0:0:0:
256,192,305278,1,8,0:0:0:0:
256,192,305371,1,0,0:0:0:0:
256,192,305463,1,0,0:0:0:0:
256,192,305556,1,8,0:0:0:0:
256,192,305741,1,0,0:0:0:0:
256,192,305834,1,0,0:0:0:0:
256,192,305926,1,8,0:0:0:0:
256,192,306112,1,8,0:0:0:0:
256,192,306204,1,0,0:0:0:0:
256,192,306297,1,8,0:0:0:0:
256,192,306389,1,0,0:0:0:0:
256,192,306482,1,0,0:0:0:0:
256,192,306667,1,8,0:0:0:0:
256,192,306852,1,0,0:0:0:0:
256,192,306945,1,0,0:0:0:0:
256,192,307037,1,8,0:0:0:0:
256,192,307223,1,0,0:0:0:0:
256,192,307408,1,12,0:0:0:0:
256,192,307778,1,8,0:0:0:0:
256,192,307963,1,0,0:0:0:0:
256,192,308149,1,8,0:0:0:0:
256,192,308519,1,8,0:0:0:0:
256,192,308612,1,8,0:0:0:0:
256,192,308704,1,0,0:0:0:0:
256,192,308889,1,8,0:0:0:0:
256,192,309074,1,0,0:0:0:0:
256,192,309260,1,8,0:0:0:0:
256,192,309445,1,0,0:0:0:0:
256,192,309630,1,12,0:0:0:0:
256,192,310000,1,8,0:0:0:0:
256,192,310093,1,0,0:0:0:0:
256,192,310186,1,0,0:0:0:0:
256,192,310371,1,8,0:0:0:0:
256,192,310556,1,0,0:0:0:0:
256,192,310740,1,8,0:0:0:0:
256,192,310926,1,8,0:0:0:0:
256,192,311112,1,4,0:0:0:0:
256,192,311482,1,8,0:0:0:0:
256,192,311574,1,0,0:0:0:0:
256,192,311667,1,0,0:0:0:0:
256,192,311852,1,8,0:0:0:0:
256,192,312037,1,0,0:0:0:0:
256,192,312223,1,8,0:0:0:0:
256,192,312408,1,8,0:0:0:0:
256,192,312593,1,4,0:0:0:0:
256,192,312963,1,8,0:0:0:0:
256,192,313149,1,0,0:0:0:0:
256,192,313241,1,0,0:0:0:0:
256,192,313334,1,8,0:0:0:0:
256,192,313519,1,0,0:0:0:0:
256,192,313704,1,8,0:0:0:0:
256,192,313797,1,0,0:0:0:0:
256,192,313889,1,0,0:0:0:0:
256,192,314074,1,8,0:0:0:0:
256,192,314260,1,0,0:0:0:0:
256,192,314445,1,8,0:0:0:0:
256,192,314630,1,0,0:0:0:0:
256,192,314815,1,4,0:0:0:0:
256,192,315371,1,4,0:0:0:0:
256,192,315556,1,4,0:0:0:0:
256,192,315926,1,4,0:0:0:0:
256,192,316111,1,12,0:0:0:0:
256,192,316296,8,0,318518,0:0:0:0:
256,192,318889,5,0,0:0:0:0:
256,192,319074,1,8,0:0:0:0:
256,192,319259,1,4,0:0:0:0:
256,192,319630,1,8,0:0:0:0:
256,192,319815,1,0,0:0:0:0:
256,192,320370,1,0,0:0:0:0:
256,192,320741,1,8,0:0:0:0:
256,192,321111,1,8,0:0:0:0:
256,192,321296,1,0,0:0:0:0:
256,192,321852,1,0,0:0:0:0:
256,192,322037,1,8,0:0:0:0:
256,192,322222,1,8,0:0:0:0:
256,192,322593,1,8,0:0:0:0:
256,192,322778,1,0,0:0:0:0:
256,192,323333,1,8,0:0:0:0:
256,192,323704,1,0,0:0:0:0:
256,192,324074,1,8,0:0:0:0:
256,192,324259,1,0,0:0:0:0:
256,192,324444,1,8,0:0:0:0:
256,192,324568,1,0,0:0:0:0:
256,192,324691,1,0,0:0:0:0:
256,192,324815,1,8,0:0:0:0:
256,192,324938,1,0,0:0:0:0:
256,192,325062,1,0,0:0:0:0:
256,192,325185,1,8,0:0:0:0:
256,192,325370,1,0,0:0:0:0:
256,192,325463,1,0,0:0:0:0:
256,192,325556,1,8,0:0:0:0:
256,192,325741,1,0,0:0:0:0:
256,192,325833,1,0,0:0:0:0:
256,192,325926,1,8,0:0:0:0:
256,192,326019,1,8,0:0:0:0:
256,192,326111,1,0,0:0:0:0:
256,192,326296,1,8,0:0:0:0:
256,192,326481,1,0,0:0:0:0:
256,192,326574,1,0,0:0:0:0:
256,192,326667,1,8,0:0:0:0:
256,192,326852,1,0,0:0:0:0:
256,192,326944,1,0,0:0:0:0:
256,192,327037,1,0,0:0:0:0:
256,192,327222,1,8,0:0:0:0:
256,192,327315,1,0,0:0:0:0:
256,192,327407,1,8,0:0:0:0:
256,192,327500,1,0,0:0:0:0:
256,192,327593,1,0,0:0:0:0:
256,192,327778,1,8,0:0:0:0:
256,192,327870,1,0,0:0:0:0:
256,192,327963,1,8,0:0:0:0:
256,192,328056,1,0,0:0:0:0:
256,192,328148,8,0,330370,0:0:0:0:
256,192,331111,5,8,0:0:0:0:
256,192,332222,1,8,0:0:0:0:
256,192,332593,1,8,0:0:0:0:
256,192,332963,1,0,0:0:0:0:
256,192,333333,1,8,0:0:0:0:
256,192,333704,1,0,0:0:0:0:
256,192,334074,1,8,0:0:0:0:
256,192,334444,1,8,0:0:0:0:
256,192,334815,1,0,0:0:0:0:
256,192,335185,1,0,0:0:0:0:
256,192,335556,1,8,0:0:0:0:
256,192,336296,1,8,0:0:0:0:
256,192,336481,1,0,0:0:0:0:
256,192,336667,1,0,0:0:0:0:
256,192,336852,1,8,0:0:0:0:
256,192,337037,1,8,0:0:0:0:
256,192,337778,1,8,0:0:0:0:
256,192,338148,1,0,0:0:0:0:
256,192,338519,1,8,0:0:0:0:
256,192,338889,1,8,0:0:0:0:
256,192,339259,1,0,0:0:0:0:
256,192,339630,1,0,0:0:0:0:
256,192,340000,1,8,0:0:0:0:
256,192,340370,1,0,0:0:0:0:
256,192,340556,1,0,0:0:0:0:
256,192,340741,1,8,0:0:0:0:
256,192,341111,1,8,0:0:0:0:
256,192,341481,1,8,0:0:0:0:
256,192,342222,1,8,0:0:0:0:
256,192,342407,1,8,0:0:0:0:
256,192,342593,1,0,0:0:0:0:
256,192,342778,1,0,0:0:0:0:
256,192,342963,1,8,0:0:0:0:
256,192,343333,1,0,0:0:0:0:
256,192,343704,1,0,0:0:0:0:
256,192,344074,1,8,0:0:0:0:
256,192,344444,1,8,0:0:0:0:
256,192,344815,1,8,0:0:0:0:
256,192,345185,1,8,0:0:0:0:
256,192,345556,1,0,0:0:0:0:
256,192,345926,1,0,0:0:0:0:
256,192,346296,1,8,0:0:0:0:
256,192,346667,1,8,0:0:0:0:
256,192,347037,1,8,0:0:0:0:
256,192,347407,1,0,0:0:0:0:
256,192,347778,1,0,0:0:0:0:
256,192,348148,1,8,0:0:0:0:
256,192,348519,1,0,0:0:0:0:
256,192,348889,1,8,0:0:0:0:
256,192,349259,1,0,0:0:0:0:
256,192,349630,1,8,0:0:0:0:
256,192,350000,1,0,0:0:0:0:
256,192,350370,1,8,0:0:0:0:
256,192,350741,1,8,0:0:0:0:
256,192,351111,1,0,0:0:0:0:
256,192,351481,1,8,0:0:0:0:
256,192,351667,1,0,0:0:0:0:
256,192,351852,1,8,0:0:0:0:
256,192,352227,1,0,0:0:0:0:
256,192,352602,1,0,0:0:0:0:
256,192,352977,1,8,0:0:0:0:
256,192,353352,1,0,0:0:0:0:
256,192,353739,1,0,0:0:0:0:
256,192,354126,1,8,0:0:0:0:
256,192,354513,1,0,0:0:0:0:
256,192,354900,1,8,0:0:0:0:
256,192,355287,1,0,0:0:0:0:
256,192,355674,1,0,0:0:0:0:
256,192,356061,1,8,0:0:0:0:
256,192,356889,1,0,0:0:0:0:
256,192,357330,1,0,0:0:0:0:
256,192,357806,1,0,0:0:0:0:
256,192,358153,1,8,0:0:0:0:
256,192,358240,1,8,0:0:0:0:
256,192,358327,1,0,0:0:0:0:
256,192,358927,1,0,0:0:0:0:
256,192,359321,1,0,0:0:0:0:
256,192,359691,1,8,0:0:0:0:
256,192,360107,1,0,0:0:0:0:
256,192,360524,1,8,0:0:0:0:
256,192,360985,1,0,0:0:0:0:
256,192,361530,1,0,0:0:0:0:
256,192,362204,1,8,0:0:0:0:
256,192,363357,1,6,0:0:0:0:
