osu file format v14

[General]
AudioFilename: audio.ogg
AudioLeadIn: 0
PreviewTime: 42122
Countdown: 0
SampleSet: Normal
StackLeniency: 0.7
Mode: 1
LetterboxInBreaks: 0
WidescreenStoryboard: 1

[Editor]
Bookmarks: 17613
DistanceSpacing: 1.5
BeatDivisor: 4
GridSize: 32
TimelineZoom: 0.9999999

[Metadata]
Title:Hinata no Kuni (TV Size)
TitleUnicode:ひなたの国 (TV Size)
Artist:Ito Kashitaro
ArtistUnicode:伊東歌詞太郎
Creator:_gt
Version:Futsuu
Source:夜は猫といっしょ
Tags:anime japanese jpop j-pop pop ed ending yoru wa neko to issho nights with a cat ずっとネコ初心者 zutto neko shoshinsha 河野圭 kei kawano
BeatmapID:4446726
BeatmapSetID:2117377

[Difficulty]
HPDrainRate:8
CircleSize:5
OverallDifficulty:4
ApproachRate:5
SliderMultiplier:1.4
SliderTickRate:1

[Events]
//Background and Video events
0,0,"kv2_pc-back.jpg",0,20
//Break Periods
//Storyboard Layer 0 (Background)
//Storyboard Layer 1 (Fail)
//Storyboard Layer 2 (Pass)
//Storyboard Layer 3 (Foreground)
//Storyboard Layer 4 (Overlay)
//Storyboard Sound Samples

[TimingPoints]
471,535.714285714286,4,1,0,80,1,0
34689,-100,4,1,0,70,0,0
42122,-100,4,1,0,80,0,0
43261,-100,4,1,0,90,0,0
43328,-100,4,1,0,90,0,1
77479,-100,4,1,0,60,0,1
77613,-100,4,1,0,60,0,0

[HitObjects]
142,155,471,5,0,0:0:0:0:
173,134,738,1,0,0:0:0:0:
142,155,1006,1,8,0:0:0:0:
142,155,1408,1,0,0:0:0:0:
265,66,1810,1,0,0:0:0:0:
265,66,2078,1,8,0:0:0:0:
265,66,2613,1,0,0:0:0:0:
265,66,3149,1,0,0:0:0:0:
265,66,3417,1,8,0:0:0:0:
163,133,3953,1,8,0:0:0:0:
163,133,4221,1,0,0:0:0:0:
205,180,4756,1,0,0:0:0:0:
155,121,5024,1,8,0:0:0:0:
155,121,5292,1,0,0:0:0:0:
205,180,5694,1,8,0:0:0:0:
191,135,6096,1,8,0:0:0:0:
191,135,6363,1,0,0:0:0:0:
191,135,6899,1,8,0:0:0:0:
191,135,7435,1,0,0:0:0:0:
191,135,7703,1,0,0:0:0:0:
173,153,8506,1,8,0:0:0:0:
142,155,9042,1,0,0:0:0:0:
173,134,9310,1,0,0:0:0:0:
142,155,9578,1,8,0:0:0:0:
142,155,9979,1,0,0:0:0:0:
265,66,10381,1,0,0:0:0:0:
265,66,10649,1,8,0:0:0:0:
265,66,11185,1,0,0:0:0:0:
265,66,11721,1,0,0:0:0:0:
265,66,11988,1,8,0:0:0:0:
163,133,12524,1,8,0:0:0:0:
163,133,12792,1,0,0:0:0:0:
205,180,13328,1,0,0:0:0:0:
155,121,13596,1,8,0:0:0:0:
155,121,13863,1,0,0:0:0:0:
205,180,14265,1,8,0:0:0:0:
191,135,14667,1,8,0:0:0:0:
191,135,14935,1,0,0:0:0:0:
177,163,15203,1,0,0:0:0:0:
191,135,15471,1,8,0:0:0:0:
191,135,16542,1,0,0:0:0:0:
200,160,17078,1,8,0:0:0:0:
142,155,17613,1,0,0:0:0:0:
173,134,17881,1,0,0:0:0:0:
142,155,18149,1,8,0:0:0:0:
142,155,18551,1,0,0:0:0:0:
265,66,18953,1,0,0:0:0:0:
265,66,19221,1,8,0:0:0:0:
265,66,19756,1,0,0:0:0:0:
265,66,20292,1,0,0:0:0:0:
265,66,20560,1,8,0:0:0:0:
163,133,21096,1,8,0:0:0:0:
163,133,21363,1,0,0:0:0:0:
205,180,21899,1,0,0:0:0:0:
155,121,22167,1,8,0:0:0:0:
155,121,22435,1,0,0:0:0:0:
205,180,22837,1,8,0:0:0:0:
191,135,23238,1,8,0:0:0:0:
191,135,23506,1,0,0:0:0:0:
191,135,24042,1,8,0:0:0:0:
191,135,24578,1,0,0:0:0:0:
191,135,24846,1,0,0:0:0:0:
114,146,25113,1,8,0:0:0:0:
173,153,25649,1,8,0:0:0:0:
142,155,26185,1,0,0:0:0:0:
173,134,26453,1,0,0:0:0:0:
142,155,26721,1,8,0:0:0:0:
142,155,26988,1,0,0:0:0:0:
265,66,27524,1,0,0:0:0:0:
265,66,27792,1,8,0:0:0:0:
265,66,28328,1,0,0:0:0:0:
265,66,28863,1,0,0:0:0:0:
265,66,29131,1,8,0:0:0:0:
163,133,29667,1,8,0:0:0:0:
163,133,29935,1,0,0:0:0:0:
205,180,30471,1,0,0:0:0:0:
155,121,30738,1,8,0:0:0:0:
155,121,31006,1,0,0:0:0:0:
205,180,31408,1,8,0:0:0:0:
191,135,31810,1,8,0:0:0:0:
191,135,32078,1,0,0:0:0:0:
177,163,32346,1,0,0:0:0:0:
191,135,32613,1,8,0:0:0:0:
191,135,33149,1,0,0:0:0:0:
191,135,33685,1,0,0:0:0:0:
200,160,34221,1,8,0:0:0:0:
130,135,34756,1,8,0:0:0:0:
119,133,35828,1,8,0:0:0:0:
117,133,36363,1,0,0:0:0:0:
110,131,36899,1,8,0:0:0:0:
110,131,37435,1,0,0:0:0:0:
110,131,37703,1,8,0:0:0:0:
110,131,38238,1,0,0:0:0:0:
110,131,38506,1,0,0:0:0:0:
96,131,39042,1,8,0:0:0:0:
96,131,39578,1,0,0:0:0:0:
96,131,40113,1,8,0:0:0:0:
96,131,40649,1,8,0:0:0:0:
96,131,41185,1,0,0:0:0:0:
170,208,41453,1,0,0:0:0:0:
96,131,42256,1,8,0:0:0:0:
256,224,42524,1,8,0:0:0:0:
241,209,42792,1,0,0:0:0:0:
234,206,43328,1,12,0:0:0:0:
277,176,43596,1,0,0:0:0:0:
225,217,43863,1,8,0:0:0:0:
225,217,44399,1,0,0:0:0:0:
225,217,44667,1,0,0:0:0:0:
225,217,44935,1,8,0:0:0:0:
225,217,45471,1,0,0:0:0:0:
178,181,45738,1,8,0:0:0:0:
178,181,46006,1,0,0:0:0:0:
178,181,46274,1,0,0:0:0:0:
243,238,46542,1,8,0:0:0:0:
215,243,46810,1,0,0:0:0:0:
214,243,47078,1,8,0:0:0:0:
243,238,47613,1,0,0:0:0:0:
179,182,47881,1,0,0:0:0:0:
243,238,48149,1,8,0:0:0:0:
243,238,48685,1,0,0:0:0:0:
243,238,48953,1,8,0:0:0:0:
243,238,49221,1,0,0:0:0:0:
243,238,49756,1,0,0:0:0:0:
196,160,50024,1,0,0:0:0:0:
243,238,50292,1,8,0:0:0:0:
196,160,50560,1,8,0:0:0:0:
196,160,50828,1,0,0:0:0:0:
183,183,51096,1,0,0:0:0:0:
183,183,51363,1,8,0:0:0:0:
165,170,51899,1,8,0:0:0:0:
196,160,52167,1,8,0:0:0:0:
196,160,52435,1,0,0:0:0:0:
196,160,52971,1,0,0:0:0:0:
165,170,53238,1,0,0:0:0:0:
165,170,53506,1,8,0:0:0:0:
165,170,54042,1,8,0:0:0:0:
287,174,54310,1,0,0:0:0:0:
165,170,54578,1,8,0:0:0:0:
287,174,54846,1,8,0:0:0:0:
165,170,55113,1,0,0:0:0:0:
165,170,55381,1,8,0:0:0:0:
165,170,55649,1,8,0:0:0:0:
165,170,56185,1,0,0:0:0:0:
165,170,56453,1,0,0:0:0:0:
165,170,56721,1,8,0:0:0:0:
165,170,57256,1,8,0:0:0:0:
165,170,57524,1,0,0:0:0:0:
165,170,57792,1,0,0:0:0:0:
165,170,58060,1,8,0:0:0:0:
200,165,58596,1,0,0:0:0:0:
200,165,58863,1,8,0:0:0:0:
200,165,59131,1,0,0:0:0:0:
200,165,59399,1,0,0:0:0:0:
234,206,60471,1,0,0:0:0:0:
173,153,60738,1,8,0:0:0:0:
225,217,61006,1,8,0:0:0:0:
225,217,61542,1,0,0:0:0:0:
225,217,61810,1,0,0:0:0:0:
225,217,62078,1,8,0:0:0:0:
225,217,62614,1,0,0:0:0:0:
165,157,62881,1,0,0:0:0:0:
225,217,63149,1,8,0:0:0:0:
165,157,63417,1,0,0:0:0:0:
243,238,63685,1,0,0:0:0:0:
215,243,63953,1,8,0:0:0:0:
214,243,64221,1,8,0:0:0:0:
243,238,64756,1,0,0:0:0:0:
161,145,65024,1,8,0:0:0:0:
161,145,65292,1,0,0:0:0:0:
161,145,65828,1,8,0:0:0:0:
243,238,66096,1,0,0:0:0:0:
243,238,66364,1,8,0:0:0:0:
243,238,66899,1,0,0:0:0:0:
161,145,67167,1,0,0:0:0:0:
243,238,67435,1,8,0:0:0:0:
161,145,67703,1,8,0:0:0:0:
243,238,67971,1,8,0:0:0:0:
183,183,68239,1,0,0:0:0:0:
183,183,68506,1,8,0:0:0:0:
165,170,69042,1,8,0:0:0:0:
165,145,69310,1,0,0:0:0:0:
165,170,69578,1,8,0:0:0:0:
165,170,70114,1,0,0:0:0:0:
165,170,70381,1,0,0:0:0:0:
165,170,70649,1,8,0:0:0:0:
165,170,71185,1,8,0:0:0:0:
160,144,71453,1,0,0:0:0:0:
165,170,71721,1,8,0:0:0:0:
160,144,71988,1,8,0:0:0:0:
165,170,72256,1,0,0:0:0:0:
165,170,72524,1,0,0:0:0:0:
165,170,72792,1,8,0:0:0:0:
165,170,73328,1,12,0:0:0:0:
193,200,73863,1,0,0:0:0:0:
193,200,74131,1,8,0:0:0:0:
193,200,74399,1,0,0:0:0:0:
193,200,74667,1,0,0:0:0:0:
193,200,74935,1,12,0:0:0:0:
222,171,75738,1,0,0:0:0:0:
222,171,76006,1,8,0:0:0:0:
222,171,76274,1,0,0:0:0:0:
222,171,76542,1,8,0:0:0:0:
222,171,77078,1,8,0:0:0:0:
222,171,77346,1,0,0:0:0:0:
166,178,79756,1,8,0:0:0:0:
166,178,80292,1,8,0:0:0:0:
166,178,80828,1,0,0:0:0:0:
166,178,81363,1,0,0:0:0:0:
166,178,84042,1,8,0:0:0:0:
166,178,84578,1,0,0:0:0:0:
166,178,85113,1,0,0:0:0:0:
165,167,85649,1,8,0:0:0:0:
166,178,86185,1,0,0:0:0:0:
