osu file format v14

[General]
AudioFilename: audio.mp3
AudioLeadIn: 0
PreviewTime: 202725
Countdown: 0
SampleSet: Soft
StackLeniency: 0.7
Mode: 0
LetterboxInBreaks: 0
WidescreenStoryboard: 0

[Editor]
Bookmarks: 652,20445,37765,42713,79827,84775,89724,94672,99621,100858,120652,128074,142920,154054,159002,169363,178796,193641,197353,201914,202725,203555,243142,260462,262936,271596,272833,280256,282730,292627,297575,305822
DistanceSpacing: 0.3
BeatDivisor: 4
GridSize: 4
TimelineZoom: 5.699996

[Metadata]
Title:Fairytale,
TitleUnicode:Fairytale,
Artist:Ito Kashitaro
ArtistUnicode:伊東歌詞太郎
Creator:Hyokar
Version:Firework Memories
Source:
Tags:gumi utaite male vocal vocaloid cover japanese rock jrock j-rock buzzG ANDRIVEBOiz sanairrt
BeatmapID:3715625
BeatmapSetID:1811481

[Difficulty]
HPDrainRate:5.5
CircleSize:4.2
OverallDifficulty:9
ApproachRate:9.4
SliderMultiplier:1.88
SliderTickRate:1

[Events]
//Background and Video events
0,0,"bg.jpg",0,0
//Break Periods
//Storyboard Layer 0 (Background)
//Storyboard Layer 1 (Fail)
//Storyboard Layer 2 (Pass)
//Storyboard Layer 3 (Foreground)
//Storyboard Layer 4 (Overlay)
//Storyboard Sound Samples

[TimingPoints]
652,309.278350515464,4,2,1,35,1,0
652,-181.818181818182,4,2,1,35,0,0
20136,-250,4,2,1,35,0,0
20368,-250,4,2,1,5,0,0
20445,-166.666666666667,4,2,1,35,0,0
37765,-200,4,2,1,30,0,0
39079,-400,4,2,1,30,0,0
39311,-400,4,2,1,32,0,0
39621,-400,4,2,1,34,0,0
39930,-400,4,2,1,36,0,0
40239,-400,4,2,1,38,0,0
40548,-400,4,2,1,42,0,0
40858,-400,4,2,1,44,0,0
41167,-400,4,2,1,46,0,0
41476,-400,4,2,1,48,0,0
41786,-400,4,2,1,50,0,0
42095,-400,4,2,1,52,0,0
42404,-400,4,2,1,54,0,0
42713,-90.9090909090909,4,2,1,80,0,1
52533,-90.9090909090909,4,2,1,5,0,1
52610,-90.9090909090909,4,2,1,80,0,1
67688,-90.9090909090909,4,2,1,5,0,1
67765,-90.9090909090909,4,2,1,80,0,1
79827,-133.333333333333,4,2,1,40,0,0
84775,-111.111111111111,4,2,1,50,0,0
89724,-105.263157894737,4,2,1,70,0,0
94672,-90.9090909090909,4,2,1,80,0,1
99621,-333.333333333333,4,2,1,65,0,0
100858,-133.333333333333,4,2,1,50,0,0
120652,-200,4,2,1,35,0,0
127997,-200,4,2,1,10,0,0
128074,-161.290322580645,4,2,1,40,0,0
142920,-133.333333333333,4,2,1,50,0,0
154054,-113.636363636364,4,2,1,62,0,0
159002,-105.263157894737,4,2,1,80,0,0
176322,-100,4,2,1,70,0,0
178796,-113.636363636364,4,2,1,60,0,0
188693,-113.636363636364,4,2,1,70,0,0
197353,-250,4,2,1,40,0,0
198590,-333.333333333333,4,2,1,50,0,0
199827,-500,4,2,1,60,0,0
200909,-500,4,2,1,10,0,0
201682,-500,4,2,1,30,0,0
201914,309.278350515464,4,2,1,50,1,0
201914,-200,4,2,1,50,0,0
202223,-200,4,2,1,20,0,0
202285,309.278350515464,4,2,1,50,1,0
202285,-200,4,2,1,50,0,0
202725,309.278350515464,4,2,1,65,1,0
202725,-250,4,2,1,65,0,0
203188,-250,4,2,1,5,0,0
203255,309.278350515464,4,2,1,60,1,0
203255,-133.333333333333,4,2,1,60,0,0
203555,309.278350515464,4,2,1,80,1,1
203555,-90.9090909090909,4,2,1,80,0,1
228529,-90.9090909090909,4,2,1,5,0,1
228606,-90.9090909090909,4,2,1,80,0,1
241905,-200,4,2,1,40,0,1
243142,-100,4,2,1,70,0,0
243374,-100,4,2,1,5,0,0
243451,-100,4,2,1,60,0,0
260462,-100,4,2,1,70,0,0
262936,-90.9090909090909,4,2,1,80,0,1
282730,-454.545454545455,4,2,2,50,0,0
292627,-454.545454545455,4,2,2,40,0,0
293245,-454.545454545455,4,2,2,44,0,0
293864,-454.545454545455,4,2,2,48,0,0
294482,-454.545454545455,4,2,2,52,0,0
295101,-454.545454545455,4,2,2,56,0,0
295719,-454.545454545455,4,2,2,60,0,0
296338,-454.545454545455,4,2,2,64,0,0
296957,-454.545454545455,4,2,2,68,0,0
297575,-454.545454545455,4,2,2,72,0,0

[Colours]
Combo1 : 185,217,209
Combo2 : 204,204,159
Combo3 : 255,202,149

[HitObjects]
103,264,652,6,0,L|207:223,1,103.400003155518,2|2,1:2|0:0,0:0:0:0:
165,67,1115,2,0,P|120:98|133:154,1,103.400003155518,2|2,0:0|0:0,0:0:0:0:
220,141,1579,2,0,B|263:158|301:132|274:111|318:88|357:99,1,155.100004733277,2|0,0:0|0:0,0:0:0:0:
423,180,2198,2,0,P|441:130|473:67,2,103.400003155518,2|2|2,0:0|0:0|0:0,0:0:0:0:
495,356,3126,6,0,P|444:373|395:335,1,103.400003155518,2|2,0:0|0:0,0:0:0:0:
312,359,3590,2,0,P|302:329|289:295,1,51.7000015777588,2|0,0:0|0:0,0:0:0:0:
229,245,3899,1,2,0:0:0:0:
345,185,4054,2,0,P|393:149|346:69,1,155.100004733277,2|0,0:0|0:0,0:0:0:0:
286,121,4672,2,0,B|228:117|248:154|189:146,1,103.400003155518,2|2,0:0|0:0,0:0:0:0:
31,14,5291,5,2,0:0:0:0:
150,72,5445,1,2,0:0:0:0:
46,141,5600,2,0,L|73:73,1,51.7000015777588,2|0,0:0|0:0,0:0:0:0:
158,219,5909,1,2,0:0:0:0:
94,324,6064,2,0,L|70:256,1,51.7000015777588,2|0,0:0|0:0,0:0:0:0:
22,367,6373,1,2,0:0:0:0:
172,295,6528,6,0,P|261:311|366:344,1,180.950005522156,2|0,0:0|0:0,0:0:0:0:
410,376,7146,2,0,P|434:365|469:353,1,51.7000015777588,2|0,0:0|0:0,0:0:0:0:
426,233,7456,1,2,0:0:0:0:
431,218,7765,2,0,P|444:174|454:146,1,51.7000015777588,2|0,0:0|0:0,0:0:0:0:
495,20,8074,6,0,P|448:36|399:58,1,103.400003155518,2|2,0:0|0:0,0:0:0:0:
249,23,8538,2,0,P|276:22|299:39,1,51.7000015777588,2|2,0:0|0:0,0:0:0:0:
302,126,8847,1,2,0:0:0:0:
181,223,9002,2,0,P|156:166|231:113,1,155.100004733277,2|0,0:0|0:0,0:0:0:0:
259,194,9621,2,0,P|310:207|375:229,1,103.400003155518,2|2,0:0|0:0,0:0:0:0:
498,366,10239,5,2,0:0:0:0:
380,322,10394,1,2,0:0:0:0:
487,247,10548,2,0,L|466:184,1,51.7000015777588,2|0,0:0|0:0,0:0:0:0:
335,112,10858,1,2,0:0:0:0:
448,40,11012,2,0,L|425:106,1,51.7000015777588,2|2,0:0|0:0,0:0:0:0:
377,208,11322,1,2,0:0:0:0:
377,208,11476,2,0,P|286:262|231:209,1,180.950005522156,2|0,0:0|0:0,0:0:0:0:
187,168,12095,2,0,B|161:159|130:175|153:186|117:204|90:189,2,103.400003155518,2|2|2,0:0|0:0|0:0,0:0:0:0:
343,128,13023,6,0,L|413:145,1,51.7000015777588,2|0,0:0|0:0,0:0:0:0:
321,242,13332,1,2,0:0:0:0:
262,125,13487,2,0,P|272:95|287:58,1,51.7000015777588,2|2,0:0|0:0,0:0:0:0:
171,186,13796,1,2,0:0:0:0:
117,301,13950,2,0,P|94:237|57:150,1,155.100004733277,2|0,0:0|0:0,0:0:0:0:
0,89,14569,2,0,P|26:68|59:74,1,51.7000015777588,2|0,0:0|0:0,0:0:0:0:
119,10,14878,1,2,0:0:0:0:
119,10,15033,2,0,P|170:16|180:76,1,103.400003155518,2|2,0:0|0:0,0:0:0:0:
348,152,15497,6,0,B|393:130|444:116,1,103.400003155518,2|2,0:0|0:0,0:0:0:0:
380,8,15961,2,0,P|361:32|372:71,1,51.7000015777588,2|2,0:0|0:0,0:0:0:0:
444,115,16270,1,2,0:0:0:0:
355,278,16425,6,0,P|295:259|244:252,1,103.400003155518,2|0,0:0|0:0,0:0:0:0:
127,350,17043,2,0,P|174:362|209:303,1,103.400003155518,2|2,0:0|0:0,0:0:0:0:
124,197,17662,2,0,L|148:266,1,51.7000015777588,2|0,0:0|0:0,0:0:0:0:
132,116,17971,6,0,P|96:101|64:92,1,51.7000015777588,2|0,0:0|0:0,0:0:0:0:
177,47,18280,1,2,0:0:0:0:
279,182,18435,2,0,P|315:167|347:158,1,51.7000015777588,2|2,0:0|0:0,0:0:0:0:
234,113,18744,1,2,0:0:0:0:
146,237,18899,2,0,P|174:314|239:315,1,155.100004733277,2|0,0:0|0:0,0:0:0:0:
330,276,19517,2,0,P|346:322|355:346,1,51.7000015777588,2|0,0:0|0:0,0:0:0:0:
251,217,19827,2,0,P|267:171|276:145,1,51.7000015777588,2|0,0:0|0:0,0:0:0:0:
308,73,20136,2,0,P|313:55|310:73,1,56.4,2|0,0:0|0:0,0:0:0:0:
308,73,20445,6,0,P|347:82|362:164,1,112.799996557617,2|2,0:0|0:0,0:0:0:0:
392,241,21064,1,2,0:0:0:0:
382,248,21373,2,0,B|332:234|263:277|312:302|246:349|173:313,1,225.599993115235,2|2,0:0|0:0,0:0:0:0:
3,137,22610,5,2,0:0:0:0:
61,227,22920,2,0,P|79:173|104:112,1,112.799996557617,2|2,0:0|0:0,0:0:0:0:
171,8,23538,2,0,P|180:34|192:65,1,56.3999982788086,2|2,0:0|0:0,0:0:0:0:
263,122,23847,2,0,P|334:170|410:126,1,169.199994836426,2|2,0:0|0:0,0:0:0:0:
443,53,24466,1,2,0:0:0:0:
508,268,25084,6,0,P|475:277|439:295,1,56.3999982788086,2|0,0:0|0:0,0:0:0:0:
394,358,25394,2,0,P|344:340|268:318,1,112.799996557617,2|2,0:0|0:0,0:0:0:0:
165,346,26012,2,0,P|147:289|198:248,1,112.799996557617,2|2,0:0|0:0,0:0:0:0:
287,184,26631,2,0,P|305:127|254:86,1,112.799996557617,2|2,0:0|0:0,0:0:0:0:
172,15,27249,2,0,B|129:1|78:27|119:47|63:79|15:55,1,169.199994836426,2|0,0:0|0:0,0:0:0:0:
87,136,27868,6,0,L|129:254,2,112.799996557617,2|2|2,0:0|0:0|0:0,0:0:0:0:
216,156,28796,1,2,0:0:0:0:
216,156,29105,2,0,L|253:49,2,112.799996557617,2|2|2,0:0|0:0|0:0,0:0:0:0:
309,308,30188,5,2,0:0:0:0:
309,308,30342,2,0,P|352:278|347:214,1,112.799996557617,2|2,0:0|0:0,0:0:0:0:
388,137,30806,2,0,P|340:114|287:151,1,112.799996557617,2|2,0:0|0:0,0:0:0:0:
198,152,31270,2,0,P|202:204|260:231,1,112.799996557617,2|0,0:0|0:0,0:0:0:0:
429,293,31889,2,0,L|459:173,1,112.799996557617,2|0,0:0|0:0,0:0:0:0:
494,28,32507,5,2,0:0:0:0:
494,28,32816,2,0,P|474:66|403:68,1,112.799996557617,2|2,0:0|0:0,0:0:0:0:
268,86,33280,2,0,P|310:84|348:144,1,112.799996557617,2|2,0:0|0:0,0:0:0:0:
425,250,33744,2,0,P|402:213|435:151,1,112.799996557617,2|0,0:0|0:0,0:0:0:0:
276,162,34363,2,0,L|166:195,1,112.799996557617,2|0,0:0|0:0,0:0:0:0:
30,346,35136,5,2,0:0:0:0:
30,346,35291,2,0,L|65:218,1,112.799996557617,2|2,0:0|0:0,0:0:0:0:
131,126,35909,2,0,L|112:58,1,56.3999982788086,2|0,0:0|0:0,0:0:0:0:
42,14,36219,2,0,P|-5:66|47:135,1,169.199994836426,2|0,0:0|0:0,0:0:0:0:
115,71,36837,1,2,0:0:0:0:
115,71,37146,2,0,B|183:49|235:102|197:111|248:164|328:132,1,225.599993115235,2|2,0:0|0:0,0:0:0:0:
281,332,38950,6,0,L|289:347,2,15.6666666666667,2|2|2,0:0|0:0|0:0,0:0:0:0:
277,325,39079,2,0,B|264:282|305:220|400:213|357:284|519:190|529:89|440:2|329:31|288:88|316:143,1,505.25,6|10,0:1|2:1,0:0:0:0:
120,216,42713,6,0,L|14:184,1,103.400003155518,4|2,1:2|0:0,0:0:0:0:
204,118,43023,1,8,0:0:0:0:
109,293,43177,1,0,0:0:0:0:
252,214,43332,1,0,1:0:0:0:
115,127,43487,1,0,1:0:0:0:
234,321,43641,2,0,L|337:289,1,103.400003155518,10|2,0:0|1:2,0:0:0:0:
487,200,43950,6,0,P|520:242|508:289,1,103.400003155518,2|0,0:0|1:0,0:0:0:0:
337,185,44260,2,0,P|332:142|375:102,1,103.400003155518,10|0,0:0|0:0,0:0:0:0:
512,11,44569,1,0,1:0:0:0:
414,171,44724,1,0,1:0:0:0:
284,28,44878,2,0,L|173:66,1,103.400003155518,10|0,0:0|0:0,0:0:0:0:
37,174,45188,6,0,P|21:125|4:73,1,103.400003155518,2|2,1:2|0:0,0:0:0:0:
188,226,45497,2,0,P|173:270|154:324,1,103.400003155518,10|0,0:0|0:0,0:0:0:0:
129,157,45806,1,2,1:2:0:0:
247,283,45961,1,2,1:2:0:0:
75,368,46115,2,0,P|25:351|13:301,1,103.400003155518,10|0,0:0|1:0,0:0:0:0:
188,226,46425,6,0,L|295:186,1,103.400003155518,2|0,0:0|1:0,0:0:0:0:
112,78,46734,2,0,L|1:46,1,103.400003155518,10|0,0:0|0:0,0:0:0:0:
100,231,47043,1,2,1:2:0:0:
268,21,47198,1,0,1:0:0:0:
330,269,47353,2,0,P|372:235|373:188,1,103.400003155518,10|0,0:0|0:0,0:0:0:0:
268,21,47662,6,0,B|218:67|218:67|285:191,1,206.800006311035,2|10,1:2|0:0,0:0:0:0:
129,310,48126,1,2,0:0:0:0:
192,383,48280,2,0,L|232:287,1,103.400003155518,2|0,1:2|1:0,0:0:0:0:
35,113,48590,2,0,P|73:151|128:135,1,103.400003155518,10|0,0:0|1:0,0:0:0:0:
278,35,48899,6,0,L|397:68,1,103.400003155518,2|2,0:0|1:2,0:0:0:0:
512,180,49208,2,0,L|394:211,1,103.400003155518,10|0,0:0|0:0,0:0:0:0:
228,293,49517,1,2,1:2:0:0:
297,114,49672,1,0,1:0:0:0:
457,277,49827,2,0,P|411:303|363:274,1,103.400003155518,10|0,0:0|0:0,0:0:0:0:
184,182,50136,6,0,B|132:163|70:200|119:223|59:266|3:238,2,206.800006311035,2|10|2,1:2|0:0|1:2,0:0:0:0:
45,95,50909,1,2,1:2:0:0:
112,15,51064,2,0,P|151:51|136:105,1,103.400003155518,10|0,0:0|0:0,0:0:0:0:
288,221,51373,5,2,0:0:0:0:
143,96,51528,1,0,1:0:0:0:
100,295,51682,2,0,L|-10:341,1,103.400003155518,10|0,0:0|0:0,0:0:0:0:
205,157,51992,2,0,L|303:112,1,103.400003155518,2|0,1:2|1:0,0:0:0:0:
451,255,52301,2,0,P|500:212|464:131,1,155.100004733277,10|0,0:0|0:0,0:0:0:0:
418,68,52610,6,0,L|388:166,1,103.400003155518,4|2,1:2|0:0,0:0:0:0:
325,311,52920,1,10,0:0:0:0:
205,157,53074,2,0,L|244:252,1,103.400003155518,2|0,0:0|1:0,0:0:0:0:
415,277,53383,1,2,1:2:0:0:
254,374,53538,2,0,B|200:386|141:340|200:335|138:278|79:303,1,206.800006311035,10|2,0:0|0:0,0:0:0:0:
244,252,54002,1,2,1:2:0:0:
56,141,54157,2,0,P|19:184|35:236,1,103.400003155518,10|2,0:0|0:0,0:0:0:0:
190,125,54466,6,0,L|165:16,1,103.400003155518,2|0,1:2|1:0,0:0:0:0:
340,237,54775,2,0,L|310:337,1,103.400003155518,10|2,0:0|0:0,0:0:0:0:
433,178,55084,1,2,1:2:0:0:
244,252,55239,1,0,1:0:0:0:
414,368,55394,2,0,P|495:344|479:239,1,206.800006311035,8|2,0:0|1:2,0:0:0:0:
364,118,55858,5,0,1:0:0:0:
403,36,56012,2,0,P|451:18|508:-4,1,103.400003155518,10|0,0:0|1:0,0:0:0:0:
307,193,56322,2,0,P|290:148|266:89,1,103.400003155518,2|0,1:2|1:2,0:0:0:0:
176,268,56631,2,0,P|158:313|135:372,1,103.400003155518,10|2,0:0|0:0,0:0:0:0:
103,167,56940,1,2,1:2:0:0:
238,321,57095,1,8,3:0:0:0:
264,97,57249,1,4,3:0:0:0:
98,248,57404,5,8,3:0:0:0:
98,248,57481,1,0,1:0:0:0:
98,248,57559,2,0,P|12:213|34:115,1,206.800006311035,4|10,1:2|0:0,0:0:0:0:
294,9,58023,2,0,B|214:24|214:24|186:58|186:58|106:74,1,206.800006311035,2|0,1:2|0:0,0:0:0:0:
313,156,58487,2,0,L|413:128,1,103.400003155518,10|0,0:0|0:0,0:0:0:0:
263,293,58796,2,0,L|163:266,1,103.400003155518,2|0,1:2|1:0,0:0:0:0:
373,362,59105,6,0,P|403:324|392:273,1,103.400003155518,10|2,0:0|0:0,0:0:0:0:
184,128,59414,2,0,P|201:172|253:189,1,103.400003155518,10|0,0:0|1:0,0:0:0:0:
460,71,59724,2,0,P|412:64|372:100,1,103.400003155518,10|0,0:0|0:0,0:0:0:0:
299,281,60033,5,4,1:2:0:0:
260,117,60188,1,8,3:0:0:0:
172,323,60342,1,4,3:0:0:0:
324,196,60497,1,8,3:0:0:0:
324,196,60574,1,8,3:0:0:0:
324,196,60652,1,2,1:2:0:0:
111,128,60806,1,2,1:2:0:0:
282,330,60961,2,0,L|300:276,1,51.7000015777588,10|0,0:0|0:0,0:0:0:0:
415,94,61115,2,0,L|433:143,1,51.7000015777588,4|0,1:2|0:0,0:0:0:0:
498,271,61270,6,0,B|436:291|394:234|436:241|377:174|321:196,1,206.800006311035,2|8,0:0|0:0,0:0:0:0:
246,135,61734,2,0,P|213:177|227:224,1,103.400003155518,4|0,1:2|0:0,0:0:0:0:
371,335,62043,1,10,2:3:0:0:
171,274,62198,1,4,2:3:0:0:
360,161,62353,1,10,0:0:0:0:
209,374,62507,6,0,P|114:339|12:311,1,206.800006311035,4|10,1:2|0:0,0:0:0:0:
179,188,62971,1,2,0:0:0:0:
11,104,63126,1,2,1:2:0:0:
154,273,63280,1,0,1:0:0:0:
285,96,63435,2,0,P|299:53|321:-1,1,103.400003155518,10|0,0:0|1:0,0:0:0:0:
512,217,63744,6,0,B|452:200|404:238|447:260|400:305|336:284,2,206.800006311035,2|10|2,1:2|0:0|1:2,0:0:0:0:
357,378,64517,1,0,1:0:0:0:
204,207,64672,2,0,P|220:250|239:307,1,103.400003155518,10|0,0:0|0:0,0:0:0:0:
277,88,64981,6,0,P|245:64|189:83,1,103.400003155518,2|0,1:2|0:0,0:0:0:0:
36,253,65291,2,0,P|79:267|125:237,1,103.400003155518,10|2,0:0|0:0,0:0:0:0:
3,89,65600,1,2,1:2:0:0:
184,184,65755,1,0,1:0:0:0:
2,350,65909,6,0,L|38:245,1,103.400003155518,10|2,0:0|1:2,0:0:0:0:
88,27,66219,2,0,L|129:128,1,103.400003155518,2|0,0:0|1:0,0:0:0:0:
270,287,66528,6,0,P|327:288|359:244,1,103.400003155518,10|0,0:0|0:0,0:0:0:0:
444,102,66837,1,2,1:2:0:0:
491,288,66992,1,0,1:0:0:0:
289,198,67146,2,0,L|184:236,1,103.400003155518,10|2,0:0|0:0,0:0:0:0:
48,363,67456,6,0,P|-1:313|34:240,1,155.100004733277,2|0,1:2|0:0,0:0:0:0:
82,294,67765,2,0,L|180:328,1,103.400003155518,10|2,0:0|0:0,0:0:0:0:
361,379,68074,1,2,1:2:0:0:
196,226,68229,1,0,1:0:0:0:
263,382,68383,2,0,L|301:278,1,103.400003155518,10|0,0:0|1:0,0:0:0:0:
413,131,68693,6,0,L|461:228,1,103.400003155518,2|2,0:0|1:2,0:0:0:0:
333,53,69002,2,0,P|380:30|429:6,1,103.400003155518,10|0,0:0|0:0,0:0:0:0:
289,181,69311,2,0,P|239:203|186:230,1,103.400003155518,2|0,1:2|1:0,0:0:0:0:
42,14,69621,2,0,P|-1:52|15:105,1,103.400003155518,10|0,0:0|0:0,0:0:0:0:
39,284,69930,6,0,P|70:193|117:81,1,206.800006311035,0|10,1:0|0:0,0:0:0:0:
296,18,70394,1,2,0:0:0:0:
195,178,70548,1,2,1:2:0:0:
121,5,70703,1,0,1:0:0:0:
317,110,70858,1,10,0:0:0:0:
114,204,71012,2,0,P|132:255|146:304,1,103.400003155518,2|2,1:2|0:0,0:0:0:0:
324,371,71322,5,0,1:0:0:0:
475,204,71476,2,0,P|431:179|379:198,1,103.400003155518,12|2,0:0|0:0,0:0:0:0:
226,96,71786,1,10,2:3:0:0:
226,96,71863,1,0,1:0:0:0:
226,96,71940,2,0,L|204:28,1,51.7000015777588,2|8,1:2|0:0,0:0:0:0:
309,200,72095,1,10,2:3:0:0:
309,200,72172,1,0,1:0:0:0:
309,200,72249,2,0,L|290:266,1,51.7000015777588,0|0,1:0|1:0,0:0:0:0:
188,366,72404,6,0,P|112:375|62:271,1,206.800006311035,4|8,1:2|0:0,0:0:0:0:
20,137,72868,1,2,0:0:0:0:
160,282,73023,2,0,B|209:260|279:302|210:316|286:360|342:332,1,206.800006311035,2|10,1:2|0:0,0:0:0:0:
481,223,73487,1,2,1:2:0:0:
443,370,73641,6,0,P|427:328|398:259,1,103.400003155518,2|0,0:0|1:0,0:0:0:0:
278,132,73950,2,0,P|293:87|323:18,1,103.400003155518,10|0,0:0|0:0,0:0:0:0:
190,187,74260,1,2,1:2:0:0:
366,120,74414,1,0,1:0:0:0:
210,14,74569,2,0,P|162:4|124:51,1,103.400003155518,10|0,0:0|0:0,0:0:0:0:
5,177,74878,6,0,L|106:151,1,103.400003155518,2|2,1:2|0:0,0:0:0:0:
269,292,75188,2,0,L|168:266,1,103.400003155518,12|0,0:0|0:0,0:0:0:0:
19,374,75497,1,2,1:2:0:0:
82,232,75652,1,0,1:0:0:0:
226,363,75806,2,0,P|273:378|334:335,1,103.400003155518,12|2,0:0|0:0,0:0:0:0:
445,223,76115,6,0,P|412:124|375:24,1,206.800006311035,2|12,1:2|0:0,0:0:0:0:
306,182,76579,1,0,1:0:0:0:
306,182,76657,1,0,1:0:0:0:
306,182,76734,2,0,L|203:151,1,103.400003155518,10|0,2:3|1:0,0:0:0:0:
63,42,77043,2,0,L|163:11,1,103.400003155518,6|0,2:3|1:0,0:0:0:0:
88,255,77353,6,0,P|7:226|32:125,1,206.800006311035,4|0,1:2|1:0,0:0:0:0:
215,154,77816,1,10,0:0:0:0:
112,354,77971,2,0,L|8:324,1,103.400003155518,2|0,1:2|1:0,0:0:0:0:
122,141,78280,5,12,0:0:0:0:
243,289,78435,1,2,0:0:0:0:
343,90,78590,2,0,P|389:76|440:117,1,103.400003155518,2|10,1:2|0:0,0:0:0:0:
273,198,78899,2,0,P|227:214|182:171,1,103.400003155518,2|10,1:2|0:0,0:0:0:0:
22,32,79208,5,2,1:2:0:0:
112,275,79363,1,10,1:2:0:0:
221,46,79517,1,10,0:0:0:0:
1,230,79672,1,10,0:0:0:0:
325,297,79827,5,4,1:2:0:0:
160,111,80136,2,0,L|181:188,1,70.5000026893617,2|2,0:0|0:0,0:0:0:0:
254,246,80445,2,0,L|230:326,1,70.5000026893617,2|2,0:0|0:0,0:0:0:0:
143,360,80755,1,2,0:0:0:0:
143,360,81064,6,0,P|99:369|69:344,2,70.5000026893617,2|2|2,0:0|0:0|0:0,0:0:0:0:
233,313,81528,1,2,0:0:0:0:
233,313,81682,2,0,L|314:342,1,70.5000026893617,2|2,0:0|0:0,0:0:0:0:
340,244,81992,2,0,L|421:215,1,70.5000026893617,2|2,0:0|0:0,0:0:0:0:
500,357,82301,5,6,2:3:0:0:
500,357,82610,2,0,L|474:264,1,70.5000026893617,2|2,0:0|0:0,0:0:0:0:
406,220,82920,2,0,L|431:128,1,70.5000026893617,2|2,0:0|0:0,0:0:0:0:
479,62,83229,1,2,0:0:0:0:
479,62,83538,6,0,P|449:40|408:49,2,70.5000026893617,2|2|2,0:0|0:0|0:0,0:0:0:0:
424,151,84002,1,10,1:2:0:0:
424,151,84079,1,10,1:2:0:0:
424,151,84157,1,10,1:2:0:0:
308,28,84311,1,10,2:3:0:0:
361,208,84466,1,6,2:3:0:0:
479,62,84621,1,2,1:2:0:0:
312,133,84775,6,0,B|272:150|215:122|256:97|202:72|150:89,1,169.199994836426,4|2,1:2|0:0,0:0:0:0:
82,153,85239,1,2,1:2:0:0:
82,153,85394,2,0,P|66:109|49:69,1,84.599997418213,10|2,0:0|0:0,0:0:0:0:
156,189,85703,1,2,1:2:0:0:
0,142,85858,1,10,0:0:0:0:
169,196,86012,6,0,P|152:235|138:274,1,84.599997418213,2|2,1:2|0:0,0:0:0:0:
97,357,86322,2,0,P|52:369|21:335,1,84.599997418213,2|2,0:0|1:2,0:0:0:0:
184,365,86631,1,10,0:0:0:0:
195,359,86940,6,0,P|276:334|357:313,1,169.199994836426,2|2,1:2|1:2,0:0:0:0:
500,375,87559,6,0,P|518:340|499:299,1,84.599997418213,2|2,0:0|1:2,0:0:0:0:
414,167,87868,2,0,P|390:198|401:242,1,84.599997418213,10|2,0:0|0:0,0:0:0:0:
483,101,88177,6,0,P|442:90|401:77,1,84.599997418213,2|10,1:2|0:0,0:0:0:0:
328,16,88487,1,2,1:2:0:0:
248,151,88641,1,10,0:0:0:0:
179,9,88796,1,4,1:2:0:0:
335,137,88950,1,10,0:0:0:0:
335,137,89028,1,8,0:0:0:0:
335,137,89105,2,0,L|306:233,1,84.599997418213,2|2,0:0|0:0,0:0:0:0:
303,228,89337,1,10,0:0:0:0:
296,240,89414,2,0,P|270:231|234:224,1,42.2999987091065,10|10,1:2|0:0,0:0:0:0:
137,360,89569,2,0,P|163:351|199:344,1,42.2999987091065,10|10,1:2|0:0,0:0:0:0:
21,233,89724,6,0,L|50:324,1,89.2999976154328,4|2,1:2|1:2,0:0:0:0:
90,167,90033,2,0,P|56:138|0:148,1,89.2999976154328,10|2,0:0|0:0,0:0:0:0:
123,260,90342,1,2,1:2:0:0:
205,113,90497,1,2,1:2:0:0:
240,303,90652,2,0,P|283:304|316:275,1,89.2999976154328,10|2,0:0|0:0,0:0:0:0:
393,149,90961,5,2,1:2:0:0:
478,285,91115,1,2,1:2:0:0:
305,191,91270,1,10,0:0:0:0:
480,126,91425,1,2,1:2:0:0:
417,351,91579,2,0,L|384:247,1,89.2999976154328,2|2,0:0|1:2,0:0:0:0:
248,93,91889,2,0,L|220:178,1,89.2999976154328,10|2,0:0|0:0,0:0:0:0:
95,322,92198,5,2,1:2:0:0:
241,255,92353,1,2,1:2:0:0:
96,124,92507,2,0,P|55:160|72:210,1,89.2999976154328,10|2,0:0|0:0,0:0:0:0:
186,353,92816,1,2,0:0:0:0:
145,197,92971,1,2,1:2:0:0:
0,329,93126,2,0,P|28:375|80:367,1,89.2999976154328,10|2,0:0|0:0,0:0:0:0:
241,255,93435,5,2,1:2:0:0:
81,297,93590,1,2,1:2:0:0:
173,121,93744,1,10,0:0:0:0:
216,339,93899,1,8,1:2:0:0:
216,339,93976,1,8,1:2:0:0:
216,339,94054,1,10,0:0:0:0:
53,185,94208,1,12,2:3:0:0:
241,255,94363,2,0,P|285:238|353:217,1,89.2999976154328,10|2,2:3|0:0,0:0:0:0:
481,101,94672,5,12,1:2:0:0:
323,377,94827,1,2,1:2:0:0:
239,84,94981,5,10,1:2:0:0:
458,313,95136,1,2,1:2:0:0:
408,25,95291,5,10,1:2:0:0:
221,278,95445,1,2,1:2:0:0:
135,3,95600,5,10,1:2:0:0:
415,153,95755,1,2,1:2:0:0:
240,353,95909,6,0,P|193:356|153:319,1,103.400003155518,10|2,1:2|1:2,0:0:0:0:
318,166,96219,2,0,P|352:135|409:139,1,103.400003155518,10|2,1:2|1:2,0:0:0:0:
181,75,96528,1,10,1:2:0:0:
325,262,96682,1,2,1:2:0:0:
510,88,96837,2,0,P|495:134|478:200,1,103.400003155518,14|2,1:2|1:2,0:0:0:0:
387,371,97146,5,12,1:2:0:0:
208,69,97301,1,2,1:2:0:0:
192,333,97456,5,10,1:2:0:0:
427,78,97610,1,2,1:2:0:0:
111,64,97765,5,10,1:2:0:0:
111,64,97842,1,10,1:2:0:0:
111,64,97920,2,0,L|61:48,1,51.7000015777588,2|2,1:2|0:0,0:0:0:0:
237,229,98074,5,6,2:3:0:0:
237,229,98152,1,10,2:3:0:0:
237,229,98229,2,0,L|298:209,1,51.7000015777588,2|0,1:2|1:0,0:0:0:0:
89,351,98383,6,0,P|53:313|71:256,1,103.400003155518,12|2,0:0|1:2,0:0:0:0:
213,65,98693,2,0,P|251:103|236:158,1,103.400003155518,10|2,0:0|1:2,0:0:0:0:
10,30,99002,5,10,0:0:0:0:
185,301,99157,1,10,0:0:0:0:
147,22,99311,1,10,1:2:0:0:
0,225,99466,1,2,1:2:0:0:
233,238,99621,6,2,B|316:212,1,84.599997418213
386,159,100239,2,0,L|432:170,2,42.2999987091065,10|2|2,1:2|1:2|1:2,0:0:0:0:
304,48,100858,6,0,P|247:72|256:149,1,141.000005378723,4|10,1:2|0:0,0:0:0:0:
316,217,101322,2,0,L|237:240,1,70.5000026893617,2|2,0:0|1:2,0:0:0:0:
161,192,101631,1,2,1:2:0:0:
59,319,101786,2,0,B|96:304|138:328|103:343|150:369|188:353,1,141.000005378723,10|0,0:0|1:0,0:0:0:0:
272,316,102249,1,2,1:2:0:0:
161,192,102404,2,0,P|138:222|144:261,1,70.5000026893617,10|0,0:0|0:0,0:0:0:0:
195,123,102713,2,0,P|180:88|143:73,1,70.5000026893617,2|0,0:0|1:0,0:0:0:0:
255,170,103023,2,0,P|292:174|323:150,1,70.5000026893617,10|0,0:0|0:0,0:0:0:0:
326,148,103255,1,2,0:0:0:0:
336,137,103332,6,0,P|410:158|484:176,1,141.000005378723,2|10,1:2|0:0,0:0:0:0:
396,291,103796,2,0,P|383:254|369:209,1,70.5000026893617,2|2,1:2|0:0,0:0:0:0:
474,317,104105,1,2,1:2:0:0:
328,369,104260,2,0,B|286:375|249:342|285:339|244:300|198:315,2,141.000005378723,10|2|10,0:0|0:0|0:0,0:0:0:0:
458,230,105188,5,2,1:2:0:0:
354,146,105342,1,0,1:0:0:0:
268,244,105497,2,0,P|232:231|188:219,1,70.5000026893617,10|2,0:0|0:0,0:0:0:0:
190,220,105729,1,2,0:0:0:0:
180,225,105806,2,0,P|145:206|103:224,1,70.5000026893617,2|0,1:2|0:0,0:0:0:0:
16,286,106115,1,10,0:0:0:0:
147,375,106270,2,0,P|131:321|119:283,1,70.5000026893617,2|2,1:2|0:0,0:0:0:0:
21,187,106579,1,2,1:2:0:0:
169,136,106734,6,0,L|215:-21,1,141.000005378723,10|0,0:0|1:0,0:0:0:0:
114,53,107198,1,2,1:2:0:0:
114,53,107353,2,0,P|77:55|50:29,1,70.5000026893617,10|0,0:0|0:0,0:0:0:0:
169,135,107662,2,0,P|189:166|180:202,1,70.5000026893617,2|0,0:0|1:0,0:0:0:0:
244,76,107971,2,0,P|260:42|296:32,1,70.5000026893617,10|0,0:0|0:0,0:0:0:0:
433,155,108280,6,0,B|391:161|355:131|390:125|349:86|303:101,1,141.000005378723,2|10,1:2|0:0,0:0:0:0:
237,152,108744,2,0,P|205:144|169:135,1,70.5000026893617,2|2,1:2|0:0,0:0:0:0:
99,69,109054,1,0,1:0:0:0:
5,238,109208,6,0,P|68:255|126:191,1,141.000005378723,12|2,0:0|0:0,0:0:0:0:
45,149,109672,1,0,1:0:0:0:
177,287,109827,2,0,P|209:279|245:270,1,70.5000026893617,10|2,0:0|1:2,0:0:0:0:
257,273,110059,1,8,0:0:0:0:
268,279,110136,1,8,0:0:0:0:
402,143,110291,5,8,3:0:0:0:
415,137,110368,1,8,0:0:0:0:
428,132,110445,1,10,1:2:0:0:
476,145,110523,1,8,0:0:0:0:
504,185,110600,1,6,2:3:0:0:
498,233,110677,1,8,3:0:0:0:
463,268,110755,6,0,L|319:230,1,141.000005378723,4|10,0:0|0:0,0:0:0:0:
266,162,111219,2,0,L|181:184,1,70.5000026893617,2|2,0:0|0:0,0:0:0:0:
123,242,111528,1,2,1:2:0:0:
9,129,111682,6,0,P|28:83|126:102,1,141.000005378723,10|0,0:0|1:0,0:0:0:0:
210,88,112146,1,2,1:2:0:0:
210,88,112301,2,0,P|222:55|237:15,1,70.5000026893617,10|0,0:0|0:0,0:0:0:0:
150,153,112610,2,0,P|115:158|73:166,1,70.5000026893617,2|0,0:0|1:0,0:0:0:0:
236,163,112920,2,0,P|257:190|285:222,1,70.5000026893617,10|0,0:0|0:0,0:0:0:0:
286,228,113152,1,2,0:0:0:0:
292,239,113229,6,0,P|334:255|365:233,1,70.5000026893617,2|2,1:2|0:0,0:0:0:0:
487,155,113538,1,10,0:0:0:0:
487,155,113693,2,0,L|457:250,1,70.5000026893617,2|2,1:2|0:0,0:0:0:0:
426,322,114002,1,2,1:2:0:0:
323,165,114157,6,0,B|285:154|242:175|277:194|231:219|184:201,1,141.000005378723,12|2,0:0|0:0,0:0:0:0:
112,146,114621,1,0,1:0:0:0:
19,280,114775,6,0,P|59:266|95:258,1,70.5000026893617,10|0,0:0|0:0,0:0:0:0:
200,341,115084,1,2,1:2:0:0:
200,341,115239,2,0,P|234:349|267:361,1,70.5000026893617,2|10,1:2|0:0,0:0:0:0:
345,255,115548,1,2,0:0:0:0:
345,255,115626,1,2,0:0:0:0:
345,255,115703,6,0,P|399:282|393:369,1,141.000005378723,4|10,1:2|0:0,0:0:0:0:
259,260,116167,2,0,L|285:177,1,70.5000026893617,2|2,0:0|0:0,0:0:0:0:
313,102,116476,1,2,1:2:0:0:
192,204,116631,6,0,B|113:189|143:258|50:240,1,141.000005378723,10|0,0:0|1:0,0:0:0:0:
58,72,117249,2,0,P|4:99|10:186,1,141.000005378723,10|2,0:0|0:0,0:0:0:0:
63,242,117713,1,0,1:0:0:0:
181,126,117868,2,0,P|146:137|92:150,1,70.5000026893617,10|0,0:0|0:0,0:0:0:0:
259,260,118177,6,0,P|328:277|396:299,1,141.000005378723,4|10,1:2|0:0,0:0:0:0:
471,360,118641,2,0,P|495:333|487:289,1,70.5000026893617,2|2,1:2|0:0,0:0:0:0:
446,217,118950,1,2,1:2:0:0:
378,61,119105,6,0,P|352:127|327:208,1,141.000005378723,12|2,0:0|0:0,0:0:0:0:
259,260,119569,1,2,1:2:0:0:
120,168,119724,6,0,P|135:204|149:248,1,70.5000026893617,10|8,0:0|0:0,0:0:0:0:
152,247,119956,1,8,0:0:0:0:
159,261,120033,2,0,P|121:299|58:290,2,105.750004034043,10|6|10,2:3|2:3|2:3,0:0:0:0:
244,181,120652,6,0,P|288:173|322:203,1,94,4|2,1:2|0:0,0:0:0:0:
393,227,121115,2,0,P|377:269|334:283,1,94,2|2,0:0|0:0,0:0:0:0:
281,339,121579,2,0,P|251:304|261:259,2,94,2|2|2,0:0|0:0|0:0,0:0:0:0:
381,145,122507,6,0,P|339:131|284:118,1,94,2|2,0:0|0:0,0:0:0:0:
228,56,122971,2,0,P|186:70|131:83,1,94,2|2,0:0|0:0,0:0:0:0:
64,140,123435,2,0,P|46:96|22:43,2,94,2|2|2,0:0|0:0|0:0,0:0:0:0:
211,209,124363,6,0,P|246:222|302:191,1,94,2|2,0:0|0:0,0:0:0:0:
402,176,124827,2,0,P|373:199|372:263,1,94,2|2,0:0|0:0,0:0:0:0:
333,359,125291,2,0,P|326:322|271:289,2,94,6|2|2,2:1|0:0|0:0,0:0:0:0:
179,297,126219,6,0,L|213:202,1,94,2|2,0:0|0:0,0:0:0:0:
141,142,126682,2,0,L|107:47,1,94,2|2,0:0|0:0,0:0:0:0:
115,42,127069,1,2,0:0:0:0:
124,31,127146,1,6,0:0:0:0:
205,90,127301,6,2,P|228:80|263:68,1,47
337,114,127610,1,0,0:0:0:0:
337,114,127765,2,0,P|368:127|408:139,1,70.5,0|0,1:0|0:0,0:0:0:0:
468,104,128074,6,0,B|502:141|474:208|445:166|418:226|444:268,1,174.839993063599,10|2,1:0|0:0,0:0:0:0:
498,335,128693,2,0,P|474:356|433:349,1,58.2799976878663,2|0,0:0|0:0,0:0:0:0:
366,309,129002,6,0,L|184:358,1,174.839993063599,2|2,0:0|0:0,0:0:0:0:
105,377,129621,2,0,L|126:305,1,58.2799976878663,2|2,0:0|0:0,0:0:0:0:
72,236,129930,6,0,P|149:208|208:267,1,174.839993063599,2|0,0:0|0:0,0:0:0:0:
276,198,130548,2,0,L|255:126,1,58.2799976878663,2|2,0:0|0:0,0:0:0:0:
311,56,130858,6,0,P|233:27|175:86,1,174.839993063599,2|2,0:0|0:0,0:0:0:0:
89,148,131476,2,0,L|157:168,1,58.2799976878663,2|0,0:0|0:0,0:0:0:0:
213,232,131786,6,0,B|258:249|312:217|268:198|328:166|377:191,1,174.839993063599,2|0,1:2|0:0,0:0:0:0:
447,244,132404,2,0,P|477:216|450:140,1,116.559995375733,2|6,0:0|2:1,0:0:0:0:
339,46,133023,5,2,0:0:0:0:
266,115,133177,2,0,P|227:99|188:88,1,58.2799976878663,2|2,0:0|0:0,0:0:0:0:
118,88,133487,2,0,L|142:35,2,58.2799976878663,2|2|2,0:0|0:0|0:0,0:0:0:0:
70,189,133950,2,0,P|109:173|148:162,1,58.2799976878663,2|0,0:0|0:0,0:0:0:0:
213,176,134260,6,0,L|237:228,1,58.2799976878663,2|0,0:0|0:0,0:0:0:0:
325,272,134569,2,0,P|301:330|284:387,2,116.559995375733,0|0|4,0:0|0:0|0:0,0:0:0:0:
424,136,135497,6,0,P|388:192|294:170,1,174.839993063599,10|0,2:1|0:0,0:0:0:0:
226,105,136115,2,0,B|157:102|190:157|96:143,2,116.559995375733,2|2|0,0:0|0:0|0:0,0:0:0:0:
292,31,136889,1,2,0:0:0:0:
292,31,137043,2,0,L|316:98,1,58.2799976878663,2|2,0:0|0:0,0:0:0:0:
382,151,137353,2,0,L|346:269,1,116.559995375733,2|2,0:0|0:0,0:0:0:0:
312,353,137816,5,0,0:0:0:0:
237,298,137971,2,0,L|170:318,1,58.2799976878663
100,366,138280,2,0,P|77:326|115:260,2,116.559995375733,2|2|2,0:0|0:0|0:0,0:0:0:0:
195,200,139208,6,0,L|379:246,1,174.839993063599,6|0,1:0|0:0,0:0:0:0:
460,243,139827,2,0,P|459:214|440:193,1,58.2799976878663,2|2,0:0|0:0,0:0:0:0:
428,184,140059,1,2,0:0:0:0:
415,175,140136,2,0,P|376:151|404:77,1,116.559995375733,2|2,0:0|0:0,0:0:0:0:
506,3,140600,5,2,0:0:0:0:
506,3,140755,2,0,L|429:29,1,58.2799976878663,2|0,0:0|0:0,0:0:0:0:
385,87,141064,2,0,L|312:62,1,58.2799976878663,2|2,0:0|0:0,0:0:0:0:
247,22,141373,1,2,0:0:0:0:
247,22,141528,1,2,0:0:0:0:
179,96,141682,2,0,L|208:169,1,58.2799976878663,2|10,0:0|1:0,0:0:0:0:
196,163,141914,1,10,1:2:0:0:
190,174,141992,5,10,1:2:0:0:
240,302,142146,1,8,3:0:0:0:
294,198,142301,1,2,1:2:0:0:
143,315,142456,1,8,3:0:0:0:
287,208,142610,1,4,3:0:0:0:
104,162,142765,1,0,1:0:0:0:
104,162,142842,1,0,1:0:0:0:
104,162,142920,6,0,P|41:182|35:262,1,141.000005378723,4|0,1:2|0:0,0:0:0:0:
117,380,143538,2,0,L|146:305,1,70.5000026893617,2|2,1:2|0:0,0:0:0:0:
187,229,143847,6,0,B|228:215|272:241|234:255|285:285|339:264,1,141.000005378723,10|2,0:0|0:0,0:0:0:0:
433,165,144466,2,0,L|410:96,2,47.0000017929078,2|8|8,0:0|0:0|0:0,0:0:0:0:
503,201,144775,2,0,P|458:247|381:229,1,141.000005378723,2|2,1:2|0:0,0:0:0:0:
309,174,145239,1,8,0:0:0:0:
309,174,145316,1,8,0:0:0:0:
309,174,145394,2,0,L|228:158,1,70.5000026893617,2|2,0:0|1:2,0:0:0:0:
158,103,145703,6,0,P|83:98|52:165,1,141.000005378723,10|2,0:0|0:0,0:0:0:0:
67,245,146167,2,0,L|-8:266,2,70.5000026893617,2|2|2,0:0|0:0|0:0,0:0:0:0:
139,317,146631,6,0,L|208:330,1,70.5000026893617,2|0,1:2|0:0,0:0:0:0:
305,320,146940,2,0,L|290:364,2,47.0000017929078,2|8|8,0:0|0:0|0:0,0:0:0:0:
364,248,147249,2,0,P|334:226|290:236,1,70.5000026893617,2|0,1:2|0:0,0:0:0:0:
202,230,147559,6,0,L|158:70,1,141.000005378723,10|2,0:0|0:0,0:0:0:0:
69,10,148023,1,2,0:0:0:0:
69,10,148177,2,0,P|101:28|137:19,1,70.5000026893617,2|0,0:0|0:0,0:0:0:0:
233,52,148487,2,0,P|265:34|301:43,1,70.5000026893617,2|2,1:2|0:0,0:0:0:0:
383,89,148796,6,0,P|415:74|463:59,2,70.5000026893617,2|8|2,0:0|2:3|0:0,0:0:0:0:
319,163,149260,1,6,2:3:0:0:
240,276,149414,6,0,P|208:261|160:246,1,70.5000026893617,10|8,0:0|3:0,0:0:0:0:
166,244,149646,1,8,3:0:0:0:
157,235,149724,2,0,L|111:250,3,35.2500013446808,10|0|8|0,2:3|1:0|3:0|1:0,0:0:0:0:
48,188,150033,2,0,L|2:173,3,35.2500013446808,0|0|8|0,1:0|1:0|3:0|1:0,0:0:0:0:
118,99,150342,6,0,P|147:125|145:165,1,70.5000026893617,4|0,1:2|0:0,0:0:0:0:
214,304,150652,2,0,P|218:269|245:248,1,70.5000026893617,2|0,0:0|0:0,0:0:0:0:
258,244,150883,1,8,0:0:0:0:
269,243,150961,2,0,P|312:256|360:268,1,70.5000026893617,2|2,1:2|0:0,0:0:0:0:
469,358,151270,6,0,L|498:265,1,70.5000026893617,10|2,1:2|0:0,0:0:0:0:
422,222,151579,2,0,L|393:129,1,70.5000026893617,2|8,0:0|0:0,0:0:0:0:
405,144,151811,1,8,0:0:0:0:
412,133,151889,1,2,0:0:0:0:
506,9,152043,1,0,0:0:0:0:
506,9,152198,6,0,P|445:35|361:64,1,141.000005378723,2|2,1:2|0:0,0:0:0:0:
308,133,152662,1,4,1:2:0:0:
308,133,152816,2,0,P|277:120|235:105,1,70.5000026893617,2|10,0:0|1:2,0:0:0:0:
230,100,153048,1,8,0:0:0:0:
218,94,153126,6,0,P|189:118|141:110,1,70.5000026893617,10|4,1:2|3:0,0:0:0:0:
79,62,153435,1,2,0:0:0:0:
166,200,153590,1,8,1:2:0:0:
216,13,153744,1,10,1:2:0:0:
80,149,153899,1,8,1:2:0:0:
230,263,154054,6,0,L|262:172,1,82.7200025244141,4|0,1:2|1:0,0:0:0:0:
281,117,154286,1,8,0:0:0:0:
287,106,154363,1,10,0:0:0:0:
422,11,154517,6,0,P|480:22|483:123,1,165.440005048828,4|8,1:2|0:0,0:0:0:0:
448,172,154904,1,8,0:0:0:0:
438,178,154981,1,10,2:3:0:0:
270,31,155136,5,10,2:3:0:0:
270,31,155213,1,8,3:0:0:0:
270,31,155291,2,0,L|199:55,1,41.3600012622071,2|0,1:2|0:0,0:0:0:0:
72,137,155445,5,0,1:0:0:0:
23,151,155523,1,8,0:0:0:0:
0,194,155600,1,10,1:2:0:0:
17,240,155677,1,0,1:0:0:0:
61,263,155755,5,8,3:0:0:0:
71,256,155832,1,0,1:0:0:0:
81,250,155909,1,8,0:0:0:0:
92,244,155987,1,8,0:0:0:0:
137,231,156064,5,8,1:2:0:0:
186,245,156142,1,8,1:2:0:0:
209,288,156219,1,10,2:3:0:0:
192,334,156296,1,0,1:0:0:0:
145,351,156373,2,0,P|119:342|87:331,1,41.3600012622071,2|0,1:2|0:0,0:0:0:0:
263,226,156528,6,0,P|300:213|345:197,1,82.7200025244141,4|0,1:2|1:0,0:0:0:0:
407,171,156760,1,8,0:0:0:0:
420,165,156837,1,2,1:2:0:0:
200,85,156992,6,0,P|163:72|118:56,1,82.7200025244141,10|2,1:2|1:2,0:0:0:0:
56,30,157224,1,8,0:0:0:0:
43,24,157301,1,8,1:2:0:0:
134,143,157456,5,10,1:2:0:0:
167,179,157533,1,4,3:0:0:0:
215,187,157610,1,8,3:0:0:0:
260,166,157688,1,0,1:0:0:0:
286,124,157765,2,0,L|267:37,1,82.7200025244141,12|2,1:2|1:2,0:0:0:0:
414,215,158074,5,10,1:2:0:0:
273,347,158229,1,10,1:2:0:0:
286,124,158383,1,10,1:2:0:0:
424,346,158538,1,10,1:2:0:0:
157,246,158693,1,2,1:2:0:0:
406,56,158847,2,0,L|393:122,1,41.3600012622071,10|0,1:2|0:0,0:0:0:0:
354,296,159002,5,4,1:2:0:0:
177,104,159157,1,0,1:0:0:0:
155,358,159311,1,0,1:0:0:0:
301,131,159466,5,12,0:0:0:0:
46,188,159621,1,0,1:0:0:0:
255,334,159775,1,0,1:0:0:0:
169,102,159930,6,0,L|66:74,1,89.2999976154328,12|0,0:0|1:0,0:0:0:0:
229,236,160239,5,12,0:0:0:0:
386,32,160394,1,0,1:0:0:0:
432,260,160548,1,0,1:0:0:0:
271,52,160703,5,12,0:0:0:0:
512,147,160858,1,0,1:0:0:0:
301,291,161012,1,0,1:0:0:0:
388,43,161167,6,0,L|489:13,1,89.2999976154328,12|0,0:0|1:0,0:0:0:0:
282,189,161476,5,12,0:0:0:0:
100,10,161631,1,0,1:0:0:0:
289,201,161786,1,0,1:0:0:0:
45,274,161940,5,12,0:0:0:0:
235,20,162095,1,0,1:0:0:0:
39,286,162249,1,0,1:0:0:0:
332,128,162404,6,0,P|372:161|357:217,1,89.2999976154328,12|0,0:0|1:0,0:0:0:0:
158,85,162713,5,12,0:0:0:0:
330,316,162868,1,0,1:0:0:0:
148,75,163023,1,0,1:0:0:0:
197,360,163177,5,12,0:0:0:0:
332,128,163332,1,0,1:0:0:0:
185,372,163487,1,10,0:0:0:0:
405,252,163641,5,6,2:3:0:0:
405,252,163719,1,8,3:0:0:0:
405,252,163796,2,0,L|469:229,1,44.6499988077164,2|2,1:2|0:0,0:0:0:0:
229,132,163950,5,12,0:0:0:0:
447,317,164105,1,0,1:0:0:0:
194,289,164260,1,0,1:0:0:0:
390,127,164414,5,12,0:0:0:0:
332,375,164569,1,0,1:0:0:0:
212,185,164724,1,0,1:0:0:0:
478,153,164878,6,0,L|443:261,1,89.2999976154328,12|0,0:0|1:0,0:0:0:0:
233,95,165188,5,12,0:0:0:0:
366,312,165342,1,0,1:0:0:0:
443,68,165497,1,0,1:0:0:0:
265,275,165652,5,12,0:0:0:0:
512,189,165806,1,0,1:0:0:0:
302,47,165961,1,0,1:0:0:0:
366,312,166115,6,0,L|335:228,1,89.2999976154328,14|2,0:0|1:2,0:0:0:0:
174,78,166425,5,14,0:0:0:0:
76,253,166579,1,0,1:0:0:0:
76,253,166657,1,0,1:0:0:0:
76,253,166734,2,0,L|10:231,1,44.6499988077164,2|8,1:2|3:0,0:0:0:0:
113,167,166889,5,12,0:0:0:0:
241,325,167043,1,0,1:0:0:0:
241,325,167121,1,0,1:0:0:0:
241,325,167198,2,0,L|307:303,1,44.6499988077164,2|8,1:2|3:0,0:0:0:0:
203,235,167353,5,12,0:0:0:0:
68,369,167507,1,2,1:2:0:0:
54,357,167584,1,0,1:0:0:0:
49,330,167662,1,2,1:2:0:0:
64,307,167739,1,0,1:0:0:0:
95,290,167816,1,0,1:0:0:0:
130,285,167894,1,8,0:0:0:0:
160,252,167971,1,8,0:0:0:0:
163,207,168048,1,2,1:2:0:0:
136,159,168126,1,10,0:0:0:0:
83,151,168203,1,2,1:2:0:0:
41,184,168280,2,0,L|57:235,1,44.6499988077164,6|8,2:3|3:0,0:0:0:0:
197,98,168435,2,0,L|210:55,1,44.6499988077164,10|8,2:3|3:0,0:0:0:0:
14,11,168590,5,2,1:2:0:0:
25,49,168667,1,0,1:0:0:0:
33,74,168744,1,2,1:2:0:0:
39,90,168822,1,0,1:0:0:0:
44,102,168899,2,0,B|95:94|136:136|98:147|140:197|207:182,1,178.599995230866,2|2,0:0|0:0,0:0:0:0:
359,108,169363,6,0,P|322:85|267:103,1,89.2999976154328,12|0,0:0|1:0,0:0:0:0:
152,278,169672,1,2,1:2:0:0:
303,163,169827,1,12,0:0:0:0:
129,52,169981,1,0,1:0:0:0:
288,247,170136,6,0,P|335:230|397:210,1,89.2999976154328,12|0,0:0|1:0,0:0:0:0:
244,361,170445,1,2,1:2:0:0:
180,176,170600,6,0,P|147:146|113:118,1,89.2999976154328,12|0,0:0|1:0,0:0:0:0:
303,163,170909,1,0,1:0:0:0:
154,292,171064,6,0,P|145:335|137:379,1,89.2999976154328,12|0,0:0|1:0,0:0:0:0:
77,195,171373,5,12,0:0:0:0:
310,85,171528,1,2,1:2:0:0:
258,309,171682,1,2,1:2:0:0:
208,51,171837,5,12,0:0:0:0:
417,203,171992,1,2,1:2:0:0:
164,213,172146,1,2,1:2:0:0:
381,31,172301,6,0,P|364:73|350:130,1,89.2999976154328,10|2,0:0|0:0,0:0:0:0:
334,184,172533,1,10,0:0:0:0:
329,197,172610,1,10,1:2:0:0:
164,213,172765,6,0,P|181:255|195:312,1,89.2999976154328,2|0,1:2|1:0,0:0:0:0:
210,366,172997,1,10,0:0:0:0:
215,379,173074,1,10,1:2:0:0:
73,208,173229,5,2,1:2:0:0:
72,163,173306,1,4,3:0:0:0:
100,129,173383,1,8,3:0:0:0:
142,113,173461,1,0,1:0:0:0:
185,122,173538,1,2,1:2:0:0:
228,113,173615,1,0,1:0:0:0:
261,82,173693,1,4,3:0:0:0:
273,39,173770,1,8,3:0:0:0:
250,0,173847,6,0,P|208:15|145:37,1,89.2999976154328,4|10,1:2|2:3,0:0:0:0:
0,188,174157,1,2,0:0:0:0:
193,230,174311,1,10,0:0:0:0:
66,45,174466,1,6,2:3:0:0:
128,288,174621,2,0,P|170:302|212:317,1,89.2999976154328,10|10,2:3|0:0,0:0:0:0:
401,201,174930,5,0,1:0:0:0:
401,201,175007,1,0,1:0:0:0:
401,201,175084,2,0,P|436:244|422:289,1,89.2999976154328,12|2,0:0|1:2,0:0:0:0:
284,106,175394,1,2,1:2:0:0:
496,193,175548,1,10,0:0:0:0:
356,375,175703,2,0,L|326:271,1,89.2999976154328,2|0,1:2|1:0,0:0:0:0:
472,38,176012,2,0,L|447:123,1,89.2999976154328,10|2,0:0|0:0,0:0:0:0:
264,247,176322,6,0,B|215:268|170:238|197:214|150:187|91:211,1,188,12|2,0:0|1:2,0:0:0:0:
229,62,176786,1,10,0:0:0:0:
130,297,176940,1,10,2:3:0:0:
25,37,177095,1,10,1:2:0:0:
317,159,177249,1,10,1:2:0:0:
25,292,177404,1,10,0:0:0:0:
230,51,177559,6,0,P|265:18|329:33,1,94,0|8,1:2|0:0,0:0:0:0:
322,27,177791,1,8,0:0:0:0:
334,35,177868,1,10,2:3:0:0:
153,212,178023,1,0,1:0:0:0:
153,212,178100,1,0,1:0:0:0:
153,212,178177,2,0,P|107:212|74:180,1,94,2|8,1:2|0:0,0:0:0:0:
308,256,178487,5,0,1:0:0:0:
301,283,178564,1,8,0:0:0:0:
295,310,178641,1,10,0:0:0:0:
289,337,178719,1,8,0:0:0:0:
284,361,178796,6,0,B|330:383|383:346|340:331|396:293|450:317,2,165.440005048828,4|8|2,1:2|0:0|1:2,0:0:0:0:
196,308,179569,1,0,1:0:0:0:
76,205,179724,6,0,P|20:240|41:338,1,165.440005048828,10|2,0:0|0:0,0:0:0:0:
161,186,180188,1,0,1:0:0:0:
161,186,180342,2,0,P|136:104|111:24,1,165.440005048828,10|0,0:0|1:0,0:0:0:0:
213,89,180806,5,0,1:0:0:0:
213,89,180961,2,0,P|255:102|303:115,1,82.7200025244141,10|0,0:0|0:0,0:0:0:0:
350,189,181270,2,0,P|392:176|440:163,1,82.7200025244141,2|0,1:2|0:0,0:0:0:0:
324,284,181579,2,0,P|279:264|270:220,1,82.7200025244141,10|0,0:0|0:0,0:0:0:0:
368,101,181889,1,2,1:2:0:0:
428,255,182043,1,0,1:0:0:0:
265,153,182198,6,0,B|221:133|173:159|206:183|156:212|109:190,1,165.440005048828,10|2,0:0|0:0,0:0:0:0:
40,139,182662,1,0,1:0:0:0:
0,329,182816,2,0,P|76:305|166:280,1,165.440005048828,10|0,0:0|1:0,0:0:0:0:
246,224,183280,1,0,1:0:0:0:
246,224,183435,2,0,P|284:236|329:248,1,82.7200025244141,10|0,0:0|0:0,0:0:0:0:
448,353,183744,6,0,P|503:301|476:215,1,165.440005048828,2|8,1:2|0:0,0:0:0:0:
411,155,184208,1,2,0:0:0:0:
411,155,184363,2,0,L|388:67,1,82.7200025244141,2|0,1:2|1:0,0:0:0:0:
325,247,184672,2,0,L|304:327,1,82.7200025244141,10|0,0:0|1:0,0:0:0:0:
235,267,184981,6,0,B|199:286|138:256|181:243|125:213|85:236,2,165.440005048828,2|10|2,0:0|0:0|1:2,0:0:0:0:
330,137,185909,2,0,L|431:159,1,82.7200025244141,10|0,0:0|0:0,0:0:0:0:
336,49,186219,6,0,P|290:44|250:153,2,165.440005048828,4|10|0,1:2|0:0|1:0,0:0:0:0:
437,0,186992,2,0,P|423:37|405:100,1,82.7200025244141,0|2,1:0|0:0,0:0:0:0:
329,218,187301,1,8,0:0:0:0:
214,57,187456,2,0,P|227:94|246:157,1,82.7200025244141,2|0,1:2|1:0,0:0:0:0:
387,293,187765,6,0,P|352:321|300:306,1,82.7200025244141,10|0,0:0|1:0,0:0:0:0:
307,311,187997,1,8,0:0:0:0:
299,301,188074,1,10,0:0:0:0:
127,167,188229,1,6,2:3:0:0:
119,157,188306,1,8,1:2:0:0:
109,147,188383,1,4,2:3:0:0:
67,139,188461,1,8,1:2:0:0:
32,161,188538,1,8,3:0:0:0:
15,198,188615,1,8,3:0:0:0:
26,238,188693,6,0,L|210:197,1,165.440005048828,4|10,1:2|0:0,0:0:0:0:
250,128,189157,2,0,L|334:154,1,82.7200025244141,2|2,1:2|0:0,0:0:0:0:
415,106,189466,1,2,1:2:0:0:
497,247,189621,6,0,P|434:293|349:252,1,165.440005048828,12|0,0:0|0:0,0:0:0:0:
273,226,190084,1,0,1:0:0:0:
273,226,190239,2,0,B|232:215|180:245|223:262|166:296|119:273,1,165.440005048828,10|0,0:0|1:0,0:0:0:0:
47,334,190703,1,2,1:2:0:0:
3,183,190858,2,0,L|33:104,1,82.7200025244141,8|2,0:0|0:0,0:0:0:0:
38,92,191090,1,2,0:0:0:0:
45,77,191167,6,0,P|126:108|215:137,1,165.440005048828,4|10,1:2|0:0,0:0:0:0:
273,209,191631,2,0,P|313:193|358:179,1,82.7200025244141,2|2,1:2|0:0,0:0:0:0:
269,292,191940,1,2,1:2:0:0:
200,132,192095,6,0,P|120:127|80:208,1,165.440005048828,12|0,0:0|0:0,0:0:0:0:
8,274,192559,1,0,1:0:0:0:
8,274,192713,2,0,P|47:287|85:301,1,82.7200025244141,10|8,0:0|0:0,0:0:0:0:
95,310,192945,1,0,1:0:0:0:
104,319,193023,2,0,L|165:301,1,41.3600012622071,4|8,2:3|3:0,0:0:0:0:
309,226,193177,2,0,L|248:208,1,41.3600012622071,10|8,2:3|3:0,0:0:0:0:
179,51,193332,2,0,L|203:147,1,82.7200025244141,14|0,1:2|0:0,0:0:0:0:
266,353,193641,5,12,1:2:0:0:
375,119,193796,1,0,1:0:0:0:
427,307,193950,5,8,1:2:0:0:
277,102,194105,1,0,1:0:0:0:
186,252,194260,5,10,1:2:0:0:
340,44,194414,1,0,1:0:0:0:
280,263,194569,5,10,1:2:0:0:
55,150,194724,1,0,1:0:0:0:
234,139,194878,5,8,1:2:0:0:
30,288,195033,1,0,1:0:0:0:
277,369,195188,5,10,1:2:0:0:
144,153,195342,1,0,1:0:0:0:
170,335,195497,5,8,1:2:0:0:
312,115,195652,1,0,1:0:0:0:
359,269,195806,5,8,1:2:0:0:
208,59,195961,1,0,1:0:0:0:
3,275,196115,6,0,P|35:305|84:286,1,82.7200025244141,4|2,1:2|0:0,0:0:0:0:
128,249,196347,1,8,0:0:0:0:
136,242,196425,1,10,0:0:0:0:
310,371,196579,6,0,P|335:292|363:214,1,165.440005048828,4|0,1:2|1:0,0:0:0:0:
390,148,196966,1,0,1:0:0:0:
397,139,197043,2,0,P|435:169|481:157,1,82.7200025244141,10|2,0:0|0:0,0:0:0:0:
512,43,197353,6,0,P|466:8|403:31,2,112.8,2|2|2,0:0|0:0|0:0,0:0:0:0:
336,65,198590,6,0,B|289:49|236:78|282:100|224:129|174:107,1,169.199994836426,6|2,2:1|0:0,0:0:0:0:
185,110,199827,6,0,P|129:139|137:203,1,131.6,2|0,0:0|0:0,0:0:0:0:
256,192,200987,12,0,201682,0:0:0:0:
275,367,201914,6,0,L|301:275,1,94,10|0,1:0|0:0,0:0:0:0:
290,279,202285,2,0,L|264:369,1,94,2|0,0:0|0:0,0:0:0:0:
203,304,202725,6,0,P|135:311|106:280,1,112.8,2|0,0:0|0:0,0:0:0:0:
169,237,203255,2,0,L|191:169,1,70.5000026893617,2|0,0:0|0:0,0:0:0:0:
161,98,203555,6,0,P|212:94|257:131,1,103.400003155518,4|0,1:2|1:0,0:0:0:0:
403,239,203864,1,8,0:0:0:0:
261,316,204018,1,2,0:0:0:0:
377,145,204173,1,2,1:2:0:0:
206,238,204328,1,0,1:0:0:0:
398,358,204482,2,0,P|454:367|497:333,1,103.400003155518,10|0,0:0|1:0,0:0:0:0:
367,150,204792,6,0,P|353:100|338:50,1,103.400003155518,2|0,0:0|1:0,0:0:0:0:
206,238,205101,2,0,P|189:291|177:337,1,103.400003155518,10|2,0:0|0:0,0:0:0:0:
338,237,205410,1,2,1:2:0:0:
175,131,205565,1,0,1:0:0:0:
306,317,205719,2,0,P|364:328|402:282,1,103.400003155518,10|0,0:0|0:0,0:0:0:0:
502,131,206029,6,0,P|453:145|395:160,1,103.400003155518,2|0,1:2|1:0,0:0:0:0:
215,35,206338,2,0,P|265:48|314:62,1,103.400003155518,10|0,0:0|0:0,0:0:0:0:
161,184,206647,1,2,1:2:0:0:
102,7,206802,1,0,1:0:0:0:
258,122,206957,2,0,P|287:167|264:217,1,103.400003155518,10|0,0:0|1:0,0:0:0:0:
130,357,207266,6,0,P|116:309|99:257,1,103.400003155518,2|0,0:0|1:0,0:0:0:0:
210,30,207575,2,0,P|193:74|175:130,1,103.400003155518,10|0,0:0|0:0,0:0:0:0:
0,267,207884,1,2,1:2:0:0:
95,101,208039,1,0,1:0:0:0:
238,286,208194,2,0,P|288:294|340:250,1,103.400003155518,10|0,0:0|0:0,0:0:0:0:
466,142,208503,6,0,L|244:219,1,206.800006311035,2|8,1:2|0:0,0:0:0:0:
102,359,208967,1,2,0:0:0:0:
196,363,209122,2,0,P|238:334|234:280,1,103.400003155518,2|0,1:2|1:0,0:0:0:0:
61,208,209431,2,0,P|15:240|20:292,1,103.400003155518,10|0,0:0|1:0,0:0:0:0:
191,163,209740,6,0,P|208:114|226:56,1,103.400003155518,2|0,0:0|1:0,0:0:0:0:
319,273,210049,2,0,P|332:324|346:376,1,103.400003155518,10|0,0:0|0:0,0:0:0:0:
363,148,210359,1,2,1:2:0:0:
237,296,210513,1,0,1:0:0:0:
428,325,210668,2,0,P|484:325|507:263,1,103.400003155518,10|0,0:0|0:0,0:0:0:0:
386,71,210977,6,0,B|334:52|272:89|321:112|261:155|205:127,2,206.800006311035,2|8|2,1:2|0:0|1:2,0:0:0:0:
464,135,211750,1,0,1:0:0:0:
374,279,211905,2,0,P|354:233|330:178,1,103.400003155518,10|0,0:0|1:0,0:0:0:0:
211,40,212214,1,2,0:0:0:0:
119,211,212369,1,0,1:0:0:0:
386,71,212524,6,0,P|332:58|287:89,1,103.400003155518,12|0,0:0|0:0,0:0:0:0:
175,274,212833,2,0,P|229:287|274:256,1,103.400003155518,10|2,0:0|0:0,0:0:0:0:
278,252,213065,1,8,1:2:0:0:
285,241,213142,1,10,1:2:0:0:
89,100,213297,1,8,0:0:0:0:
94,112,213374,1,8,0:0:0:0:
101,124,213451,6,0,L|148:19,1,103.400003155518,4|0,1:2|0:0,0:0:0:0:
214,205,213761,1,8,0:0:0:0:
93,314,213915,6,0,L|46:209,1,103.400003155518,2|2,0:0|1:2,0:0:0:0:
8,376,214225,1,0,1:0:0:0:
182,284,214379,6,0,B|239:270|302:307|241:324|322:369|379:339,1,206.800006311035,10|2,0:0|0:0,0:0:0:0:
498,233,214843,1,0,1:0:0:0:
383,73,214998,2,0,L|354:182,1,103.400003155518,10|0,0:0|0:0,0:0:0:0:
366,344,215307,6,0,P|425:350|465:292,1,103.400003155518,2|0,1:2|1:0,0:0:0:0:
271,193,215616,2,0,P|230:163|180:172,1,103.400003155518,10|0,0:0|0:0,0:0:0:0:
46,307,215926,1,2,1:2:0:0:
60,116,216080,1,2,0:0:0:0:
200,293,216235,6,0,P|296:264|399:237,1,206.800006311035,10|2,0:0|1:2,0:0:0:0:
297,113,216699,1,0,1:0:0:0:
139,92,216853,2,0,P|191:73|256:54,1,103.400003155518,10|0,0:0|1:0,0:0:0:0:
383,149,217163,2,0,P|399:93|348:56,1,103.400003155518,2|0,0:0|1:0,0:0:0:0:
222,234,217472,2,0,P|206:290|257:327,1,103.400003155518,10|0,0:0|1:0,0:0:0:0:
244,331,217704,1,0,1:2:0:0:
254,338,217781,1,10,1:2:0:0:
397,276,217936,5,8,0:0:0:0:
397,276,218013,1,8,0:0:0:0:
397,276,218091,2,0,L|341:259,1,51.7000015777588,2|0,1:2|0:0,0:0:0:0:
179,169,218245,2,0,L|235:152,1,51.7000015777588,0|0,1:0|0:0,0:0:0:0:
367,8,218400,6,0,P|446:33|432:152,1,206.800006311035,12|0,0:0|0:0,0:0:0:0:
352,107,218864,2,0,B|272:91|272:91|244:57|244:57|164:41,1,206.800006311035,6|0,2:3|1:0,0:0:0:0:
81,104,219328,2,0,P|65:58|45:6,1,103.400003155518,8|0,2:3|1:0,0:0:0:0:
201,142,219637,1,2,0:0:0:0:
277,210,219792,6,0,B|331:161|331:161|262:46,1,206.800006311035,10|0,1:2|1:0,0:0:0:0:
97,195,220256,2,0,P|47:215|-7:235,1,103.400003155518,12|0,0:0|0:0,0:0:0:0:
241,315,220565,2,0,P|293:328|344:342,1,103.400003155518,12|0,0:0|0:0,0:0:0:0:
386,102,220874,5,4,1:2:0:0:
359,45,220951,1,0,1:0:0:0:
296,38,221029,1,0,1:0:0:0:
246,74,221106,1,8,0:0:0:0:
242,135,221183,1,8,0:0:0:0:
291,173,221261,1,8,0:0:0:0:
305,167,221338,5,8,3:0:0:0:
306,151,221415,1,8,3:0:0:0:
297,137,221493,1,8,0:0:0:0:
282,131,221570,1,8,0:0:0:0:
267,136,221647,1,4,3:0:0:0:
254,145,221725,1,4,3:0:0:0:
252,160,221802,2,0,L|274:240,1,51.7000015777588,2|0,1:2|0:0,0:0:0:0:
309,366,221957,5,4,1:2:0:0:
409,383,222111,2,0,L|363:280,1,103.400003155518,2|0,0:0|1:0,0:0:0:0:
410,102,222420,1,8,0:0:0:0:
171,252,222575,6,0,L|130:137,1,103.400003155518,4|0,1:2|0:0,0:0:0:0:
7,13,222884,1,8,0:0:0:0:
7,13,222962,1,8,0:0:0:0:
7,13,223039,2,0,P|39:56|97:46,1,103.400003155518,2|8,1:2|0:0,0:0:0:0:
98,46,223271,1,8,0:0:0:0:
110,35,223348,6,0,B|168:15|230:56|172:68|244:118|303:91,1,206.800006311035,4|8,1:2|0:0,0:0:0:0:
445,30,223812,1,2,0:0:0:0:
365,218,223967,1,2,1:2:0:0:
273,15,224122,1,0,1:0:0:0:
497,140,224276,2,0,P|477:189|461:241,1,103.400003155518,10|0,0:0|1:0,0:0:0:0:
263,342,224585,6,0,P|175:371|112:288,2,206.800006311035,2|8|2,0:0|0:0|1:2,0:0:0:0:
412,168,225359,1,0,1:0:0:0:
201,279,225513,1,10,0:0:0:0:
471,384,225668,1,2,0:0:0:0:
211,138,225823,6,0,B|160:120|93:164|142:185|88:230|28:201,2,206.800006311035,2|8|0,1:2|0:0|1:2,0:0:0:0:
328,287,226596,1,0,1:0:0:0:
495,145,226750,2,0,P|449:129|382:113,1,103.400003155518,10|0,0:0|1:0,0:0:0:0:
185,220,227060,2,0,P|235:207|284:190,1,103.400003155518,2|0,0:0|1:0,0:0:0:0:
461,63,227369,6,0,P|499:97|489:155,1,103.400003155518,10|0,0:0|0:0,0:0:0:0:
362,369,227678,2,0,P|324:335|334:277,1,103.400003155518,2|0,1:2|1:0,0:0:0:0:
198,84,227987,1,10,0:0:0:0:
418,131,228142,1,2,0:0:0:0:
254,271,228297,6,0,P|175:296|129:235,1,155.100004733277,2|0,1:2|0:0,0:0:0:0:
98,165,228606,2,0,L|199:193,1,103.400003155518,10|0,0:0|0:0,0:0:0:0:
431,229,228915,1,2,1:2:0:0:
262,82,229070,1,0,1:0:0:0:
342,256,229225,2,0,L|372:155,1,103.400003155518,10|0,0:0|1:0,0:0:0:0:
228,284,229534,2,0,L|257:383,1,103.400003155518,2|0,0:0|1:0,0:0:0:0:
100,227,229843,6,0,P|149:210|205:189,1,103.400003155518,10|0,0:0|0:0,0:0:0:0:
341,61,230152,2,0,P|292:42|243:25,1,103.400003155518,2|0,1:2|1:0,0:0:0:0:
380,161,230462,2,0,P|428:140|424:67,1,103.400003155518,10|0,0:0|0:0,0:0:0:0:
271,188,230771,1,2,1:2:0:0:
450,260,230926,1,2,0:0:0:0:
341,61,231080,6,0,L|211:91,1,103.400003155518,12|0,0:0|0:0,0:0:0:0:
86,198,231390,1,2,1:2:0:0:
17,21,231544,1,0,1:0:0:0:
241,85,231699,1,10,0:0:0:0:
79,287,231853,2,0,P|0:208|43:122,1,206.800006311035,4|0,1:2|1:0,0:0:0:0:
203,208,232317,2,0,P|253:220|307:235,1,103.400003155518,10|8,0:0|0:0,0:0:0:0:
314,225,232549,1,8,0:0:0:0:
323,216,232627,1,2,1:2:0:0:
412,48,232781,5,8,1:2:0:0:
422,36,232859,1,8,1:2:0:0:
432,25,232936,1,10,2:3:0:0:
481,39,233013,1,0,1:0:0:0:
504,85,233091,1,8,0:0:0:0:
486,133,233168,1,8,0:0:0:0:
441,159,233245,6,0,B|397:171|330:142|380:106|307:70|256:97,1,206.800006311035,4|8,1:2|0:0,0:0:0:0:
63,203,233709,1,2,0:0:0:0:
129,8,233864,2,0,L|194:207,1,206.800006311035,2|8,1:2|0:0,0:0:0:0:
277,345,234328,1,2,1:2:0:0:
277,345,234482,2,0,P|237:378|181:367,1,103.400003155518,2|0,0:0|1:0,0:0:0:0:
355,214,234792,2,0,P|405:208|443:241,1,103.400003155518,10|8,0:0|0:0,0:0:0:0:
453,253,235024,1,8,0:0:0:0:
461,267,235101,1,10,0:0:0:0:
268,157,235256,1,10,1:2:0:0:
272,142,235333,1,10,1:2:0:0:
277,126,235410,2,0,L|303:11,1,103.400003155518,2|2,1:2|0:0,0:0:0:0:
174,211,235719,6,0,P|134:195|71:176,1,103.400003155518,4|2,1:2|0:0,0:0:0:0:
362,103,236029,2,0,P|402:87|465:68,1,103.400003155518,10|0,0:0|0:0,0:0:0:0:
350,230,236338,1,2,1:2:0:0:
216,57,236493,1,0,1:0:0:0:
455,156,236647,2,0,P|499:203|481:252,1,103.400003155518,12|2,0:0|0:0,0:0:0:0:
315,367,236957,6,0,B|260:387|199:340|257:329|195:277|141:294,1,206.800006311035,2|8,1:2|0:0,0:0:0:0:
6,377,237420,1,8,1:2:0:0:
6,377,237498,1,8,1:2:0:0:
6,377,237575,2,0,L|37:269,1,103.400003155518,10|8,2:3|3:0,0:0:0:0:
183,145,237884,2,0,L|146:39,1,103.400003155518,12|0,0:0|0:0,0:0:0:0:
140,294,238194,6,0,P|236:316|294:238,1,206.800006311035,6|8,1:2|0:0,0:0:0:0:
327,142,238658,1,2,0:0:0:0:
327,142,238812,2,0,P|375:124|426:107,1,103.400003155518,2|0,1:2|1:0,0:0:0:0:
205,235,239122,6,0,P|157:217|106:200,1,103.400003155518,10|0,0:0|1:0,0:0:0:0:
97,191,239353,1,0,1:0:0:0:
87,179,239431,2,0,P|62:131|89:88,1,103.400003155518,12|0,0:0|1:0,0:0:0:0:
123,284,239740,2,0,P|93:329|43:327,1,103.400003155518,12|0,0:0|0:0,0:0:0:0:
198,155,240049,2,0,P|252:157|275:202,1,103.400003155518,2|0,1:2|1:0,0:0:0:0:
359,369,240359,1,8,0:0:0:0:
198,255,240513,1,6,2:1:0:0:
401,79,240668,6,0,P|374:174|347:278,1,206.800006311035,4|8,1:2|0:0,0:0:0:0:
207,358,241132,1,8,0:0:0:0:
207,358,241209,1,8,1:2:0:0:
207,358,241286,2,0,P|157:339|97:323,1,103.400003155518,0|0,1:2|1:0,0:0:0:0:
299,194,241596,2,0,P|349:175|409:159,1,103.400003155518,10|0,0:0|1:0,0:0:0:0:
158,53,241905,6,0,B|118:97|118:97|164:169,2,141,2|2|2,0:0|0:0|0:0,0:0:0:0:
326,116,243142,6,0,P|375:68|447:93,1,141,6|0,1:2|0:0,0:0:0:0:
507,146,243451,2,0,L|401:186,1,94,8|2,0:0|0:0,0:0:0:0:
289,313,243761,2,0,L|201:279,1,94,2|0,1:2|1:0,0:0:0:0:
66,143,244070,1,8,0:0:0:0:
98,304,244225,1,0,1:0:0:0:
190,168,244379,1,2,0:0:0:0:
15,262,244534,1,2,1:2:0:0:
184,358,244689,6,0,B|236:376|287:331|247:325|299:279|352:302,1,188,10|2,0:0|1:0,0:0:0:0:
492,367,245152,1,0,1:0:0:0:
456,173,245307,2,0,P|434:224|420:264,1,94,8|0,0:0|0:0,0:0:0:0:
321,380,245616,5,2,1:2:0:0:
496,284,245771,1,2,0:0:0:0:
334,177,245926,1,8,0:0:0:0:
425,351,246080,1,2,0:0:0:0:
506,176,246235,2,0,L|462:69,1,94,2|0,1:2|1:0,0:0:0:0:
340,288,246544,5,10,0:0:0:0:
214,184,246699,2,0,L|274:0,1,188,2|2,1:2|1:2,0:0:0:0:
132,91,247163,1,10,0:0:0:0:
311,152,247317,1,2,0:0:0:0:
136,240,247472,1,2,1:2:0:0:
254,87,247627,1,0,1:0:0:0:
355,286,247781,2,0,P|400:266|445:250,1,94,10|2,0:0|0:0,0:0:0:0:
291,379,248091,6,0,P|227:326|268:233,1,188,2|8,1:2|0:0,0:0:0:0:
371,126,248555,1,2,0:0:0:0:
187,180,248709,1,2,1:2:0:0:
355,286,248864,1,0,1:0:0:0:
283,104,249018,1,10,0:0:0:0:
172,266,249173,2,0,P|127:246|82:230,1,94,2|2,1:2|0:0,0:0:0:0:
187,361,249482,5,2,1:2:0:0:
312,206,249637,2,0,L|281:99,1,94,10|2,0:0|0:0,0:0:0:0:
165,16,249946,1,2,1:2:0:0:
352,58,250101,1,2,1:2:0:0:
202,180,250256,2,0,L|175:270,1,94,10|0,0:0|0:0,0:0:0:0:
323,352,250565,6,0,B|374:373|435:332|381:309|442:267|498:295,2,188,2|10|2,1:2|0:0|1:2,0:0:0:0:
263,285,251338,1,2,0:0:0:0:
101,318,251493,2,0,P|131:359|183:349,1,94,10|0,0:0|0:0,0:0:0:0:
370,201,251802,6,0,P|385:157|409:95,1,94,4|0,1:2|1:0,0:0:0:0:
411,102,252034,1,0,1:0:0:0:
422,93,252111,1,10,0:0:0:0:
217,24,252266,6,0,P|233:67|248:112,1,94,10|0,2:3|1:0,0:0:0:0:
257,122,252498,1,0,1:0:0:0:
265,130,252575,2,0,P|293:119|325:108,1,47,10|8,1:2|3:0,0:0:0:0:
174,269,252730,2,0,P|146:258|114:247,1,47,10|8,1:2|3:0,0:0:0:0:
301,365,252884,1,10,0:0:0:0:
301,365,252962,1,10,0:0:0:0:
301,365,253039,6,0,P|367:323|335:220,1,188,4|10,1:2|0:0,0:0:0:0:
174,153,253503,1,2,0:0:0:0:
375,106,253658,1,2,1:2:0:0:
271,278,253812,1,2,1:2:0:0:
235,59,253967,1,10,0:0:0:0:
434,182,254122,2,0,P|447:133|472:68,1,94,2|2,1:2|0:0,0:0:0:0:
502,250,254431,5,2,1:2:0:0:
350,365,254585,2,0,P|337:316|312:251,1,94,10|2,0:0|0:0,0:0:0:0:
189,136,254895,1,2,1:2:0:0:
345,186,255049,1,2,1:2:0:0:
215,332,255204,2,0,P|169:340|135:308,1,94,10|0,0:0|0:0,0:0:0:0:
6,174,255513,6,0,L|114:201,1,94,2|2,1:2|0:0,0:0:0:0:
272,106,255823,1,10,0:0:0:0:
193,249,255977,1,2,0:0:0:0:
96,83,256132,2,0,P|124:9|232:29,1,188,2|10,1:2|0:0,0:0:0:0:
363,83,256596,6,0,L|255:110,1,94,2|2,1:2|0:0,0:0:0:0:
104,222,256905,1,2,1:2:0:0:
170,69,257060,2,0,P|188:114|208:169,1,94,10|2,0:0|0:0,0:0:0:0:
376,243,257369,5,2,1:2:0:0:
223,361,257524,1,2,1:2:0:0:
321,162,257678,2,0,P|302:207|283:262,1,94,12|2,0:0|0:0,0:0:0:0:
128,353,257987,6,0,P|40:364|3:284,1,188,4|10,1:2|0:0,0:0:0:0:
5,187,258451,1,2,0:0:0:0:
5,187,258606,2,0,L|102:222,1,94,2|2,1:2|1:2,0:0:0:0:
235,290,258915,1,10,0:0:0:0:
338,127,259070,6,0,L|426:95,1,94,2|0,1:0|0:0,0:0:0:0:
284,14,259379,1,2,1:2:0:0:
410,196,259534,1,10,0:0:0:0:
490,42,259689,2,0,P|448:11|399:26,1,94,2|2,0:0|1:2,0:0:0:0:
255,134,259998,1,2,1:2:0:0:
506,215,260152,2,0,P|487:169|471:127,1,94,10|0,0:0|0:0,0:0:0:0:
266,251,260462,5,10,1:2:0:0:
184,4,260616,1,2,1:0:0:0:
89,290,260771,5,10,1:2:0:0:
337,126,260926,1,2,1:0:0:0:
322,379,261080,5,10,1:2:0:0:
111,182,261235,1,2,1:0:0:0:
351,47,261390,5,10,1:2:0:0:
179,314,261544,2,0,P|136:301|78:287,1,94,12|8,2:3|2:3,0:0:0:0:
21,269,261776,1,8,3:0:0:0:
11,264,261853,1,10,0:0:0:0:
243,160,262008,6,0,P|286:147|344:133,1,94,10|8,2:3|2:3,0:0:0:0:
402,114,262240,1,0,3:0:0:0:
412,109,262317,1,10,0:0:0:0:
156,22,262472,5,0,1:0:0:0:
102,4,262549,1,10,0:0:0:0:
50,27,262627,1,10,2:3:0:0:
28,78,262704,1,8,3:0:0:0:
35,133,262781,2,0,L|103:158,1,47,2|8,1:2|3:0,0:0:0:0:
295,324,262936,6,0,L|334:221,1,103.400003155518,12|2,1:2|0:0,0:0:0:0:
268,47,263245,1,10,1:2:0:0:
416,124,263400,1,2,1:2:0:0:
217,233,263555,1,10,1:2:0:0:
328,118,263709,1,2,1:2:0:0:
129,7,263864,2,0,L|160:106,1,103.400003155518,10|2,1:2|1:2,0:0:0:0:
239,372,264173,5,10,1:2:0:0:
76,178,264328,1,2,1:2:0:0:
338,300,264482,1,10,1:2:0:0:
125,373,264637,1,2,1:2:0:0:
346,130,264792,2,0,L|459:89,1,103.400003155518,10|2,1:2|1:2,0:0:0:0:
199,296,265101,2,0,L|84:260,1,103.400003155518,10|2,1:2|1:2,0:0:0:0:
311,382,265410,6,0,P|346:346|334:293,1,103.400003155518,10|2,1:2|1:2,0:0:0:0:
224,142,265719,1,10,1:2:0:0:
199,296,265874,1,2,1:2:0:0:
329,106,266029,1,10,1:2:0:0:
262,246,266183,1,2,1:2:0:0:
161,43,266338,2,0,P|117:72|120:131,1,103.400003155518,10|2,1:2|1:2,0:0:0:0:
387,206,266647,5,10,1:2:0:0:
190,367,266802,1,2,1:2:0:0:
325,115,266957,1,10,1:2:0:0:
291,339,267111,1,2,1:2:0:0:
113,118,267266,2,0,L|79:2,1,103.400003155518,10|2,1:2|1:2,0:0:0:0:
319,239,267575,2,0,L|285:355,1,103.400003155518,12|2,0:0|1:2,0:0:0:0:
0,368,267884,6,0,P|23:314|83:318,1,103.400003155518,12|2,0:0|1:2,0:0:0:0:
205,181,268194,1,10,1:2:0:0:
54,118,268348,1,2,1:2:0:0:
257,22,268503,1,10,1:2:0:0:
133,121,268658,1,2,1:2:0:0:
320,239,268812,2,0,L|452:199,1,103.400003155518,10|2,1:2|1:2,0:0:0:0:
188,381,269122,5,10,1:2:0:0:
291,146,269276,1,2,1:2:0:0:
480,367,269431,1,10,1:2:0:0:
269,293,269585,1,2,1:2:0:0:
476,100,269740,2,0,L|507:0,1,103.400003155518,10|2,1:2|1:2,0:0:0:0:
354,277,270049,2,0,L|385:377,1,103.400003155518,10|2,1:2|1:2,0:0:0:0:
199,202,270359,6,0,L|95:237,1,103.400003155518,10|2,1:2|1:2,0:0:0:0:
271,319,270668,1,10,1:2:0:0:
353,177,270823,1,2,1:2:0:0:
193,352,270977,1,10,1:2:0:0:
277,218,271132,1,2,1:2:0:0:
415,346,271286,2,0,L|519:381,1,103.400003155518,10|2,1:2|1:2,0:0:0:0:
114,219,271596,5,10,1:2:0:0:
77,182,271673,1,6,2:3:0:0:
71,130,271750,1,10,2:3:0:0:
101,88,271828,1,8,3:0:0:0:
150,75,271905,2,0,L|176:144,1,51.7000015777588,2|0,1:2|0:0,0:0:0:0:
258,266,272060,2,0,L|284:197,1,51.7000015777588,10|2,0:0|1:2,0:0:0:0:
236,87,272214,6,0,L|265:157,1,51.7000015777588,0|2,0:0|0:0,0:0:0:0:
345,261,272369,2,0,L|376:191,1,51.7000015777588,10|0,1:2|1:2,1:2:0:0:
466,88,272524,5,10,0:0:0:0:
472,74,272601,1,8,0:0:0:0:
478,60,272678,1,10,0:0:0:0:
484,47,272756,1,8,0:0:0:0:
489,33,272833,6,0,P|449:1|391:21,1,103.400003155518,4|2,1:2|0:0,0:0:0:0:
255,134,273142,1,10,1:2:0:0:
390,219,273297,1,2,1:2:0:0:
189,324,273451,1,10,1:2:0:0:
310,218,273606,1,2,1:2:0:0:
123,104,273761,2,0,L|90:4,1,103.400003155518,10|2,1:2|1:2,0:0:0:0:
234,254,274070,5,10,1:2:0:0:
343,24,274225,1,2,1:2:0:0:
399,314,274379,1,10,1:2:0:0:
273,129,274534,1,2,1:2:0:0:
125,335,274689,2,0,L|5:371,1,103.400003155518,10|2,1:2|1:2,0:0:0:0:
363,180,274998,2,0,L|483:216,1,103.400003155518,10|2,1:2|1:2,0:0:0:0:
262,39,275307,6,0,P|206:49|190:95,1,103.400003155518,14|2,0:0|1:2,0:0:0:0:
115,260,275616,1,10,1:2:0:0:
244,162,275771,1,2,1:2:0:0:
39,70,275926,1,10,1:2:0:0:
161,173,276080,1,2,1:2:0:0:
0,322,276235,2,0,L|41:208,1,103.400003155518,10|2,1:2|1:2,0:0:0:0:
262,39,276544,5,10,1:2:0:0:
389,267,276699,1,2,1:2:0:0:
505,4,276853,1,10,1:2:0:0:
369,181,277008,1,2,1:2:0:0:
141,15,277163,5,12,0:0:0:0:
459,167,277317,1,2,1:2:0:0:
121,256,277472,5,12,0:0:0:0:
365,101,277627,1,2,1:2:0:0:
51,4,277781,6,0,L|89:113,1,103.400003155518,12|2,0:0|1:2,0:0:0:0:
223,234,278091,1,10,1:2:0:0:
287,88,278245,1,2,1:2:0:0:
391,297,278400,1,10,1:2:0:0:
285,178,278555,1,2,1:2:0:0:
90,286,278709,2,0,L|51:385,1,103.400003155518,10|2,1:2|1:2,0:0:0:0:
317,260,279018,5,10,1:2:0:0:
97,143,279173,1,2,1:2:0:0:
370,44,279328,1,10,1:2:0:0:
188,180,279482,1,2,1:2:0:0:
441,324,279637,2,0,L|468:260,1,51.7000015777588,10|0,1:2|0:0,0:0:0:0:
223,101,279792,5,10,0:0:0:0:
223,101,279869,1,2,1:2:0:0:
223,101,279946,2,0,P|184:131|189:181,1,103.400003155518,12|8,2:3|2:3,0:0:0:0:
200,189,280178,1,8,3:0:0:0:
213,198,280256,6,0,B|259:181|316:211|268:222|326:253|376:233,1,155.100004733277,4|0,1:2|0:0,0:0:0:0:
369,229,280565,5,10,1:2:0:0:
230,356,280719,1,8,2:3:0:0:
216,98,280874,1,10,1:2:0:0:
387,338,281029,1,10,1:2:0:0:
66,211,281183,1,10,2:3:0:0:
379,62,281338,1,6,2:3:0:0:
220,371,281493,6,0,P|206:330|179:257,1,103.400003155518,12|2,1:2|1:2,0:0:0:0:
178,261,281725,1,10,2:3:0:0:
172,248,281802,1,10,1:2:0:0:
302,7,281957,1,2,1:2:0:0:
298,20,282034,1,2,1:2:0:0:
295,32,282111,2,0,P|277:80|260:129,1,103.400003155518,10|8,1:2|2:3,0:0:0:0:
133,350,282420,6,0,P|105:340|70:328,1,51.7000015777588,2|2,1:2|0:0,0:0:0:0:
260,206,282575,2,0,P|288:196|323:184,1,51.7000015777588,2|2,0:0|0:0,0:0:0:0:
72,185,282730,6,0,B|100:157|91:107|52:94|52:94|74:214|14:235|-3:287|4:339|4:339|1:299|19:239|159:206|82:314|214:271|274:217|274:217|241:270|308:322|308:322|309:327|309:327|313:323|313:323|386:272|362:223|362:223|397:266|481:213|481:213|485:213|485:213|482:208|482:208|452:126|384:142|384:142|452:115|433:38|433:38|434:34|434:34|429:37|429:37|345:30|326:86|326:86|323:27|244:24|244:24|239:21|239:21|239:26|239:26|201:94|257:130|257:130|186:112|158:182|158:182|154:185|154:185|159:189|159:189|214:250|261:204|261:204,1,1985.28006058594,4|8,1:0|2:1,0:0:0:0:
