osu file format v14

[General]
AudioFilename: audio.mp3
AudioLeadIn: 0
PreviewTime: 41907
Countdown: 0
SampleSet: Soft
StackLeniency: 0.3
Mode: 0
LetterboxInBreaks: 0
EpilepsyWarning: 1
WidescreenStoryboard: 0

[Editor]
Bookmarks: 43497,80677,101642,121502,128924,159786,179646,201914,204322,243910,261295,263769
DistanceSpacing: 0.3
BeatDivisor: 4
GridSize: 8
TimelineZoom: 1.4

[Metadata]
Title:Fairytale,
TitleUnicode:Fairytale,
Artist:Ito Kashitaro
ArtistUnicode:伊東歌詞太郎
Creator:DakiniBrave
Version:Eternal Love
Source:
Tags:utaite buzzG ANDRIVEBOiz HERO male vocal gumi vocaloid cover Marathon
BeatmapID:1635233
BeatmapSetID:778585

[Difficulty]
HPDrainRate:6
CircleSize:4
OverallDifficulty:9
ApproachRate:9.4
SliderMultiplier:1.9
SliderTickRate:0.5

[Events]
//Background and Video events
0,0,"5b7c7dd6f0.jpg",0,0
Video,-100,"koi+fairy.avi"
//Break Periods
//Storyboard Layer 0 (Background)
//Storyboard Layer 1 (Fail)
//Storyboard Layer 2 (Pass)
//Storyboard Layer 3 (Foreground)
//Storyboard Sound Samples

[TimingPoints]
1547,309.278350515464,4,2,2,60,1,0
1547,-142.857142857143,4,2,2,60,0,0
8892,-142.857142857143,4,2,2,5,0,0
8969,-142.857142857143,4,2,2,60,0,0
18789,-142.857142857143,4,2,2,5,0,0
18866,-142.857142857143,4,2,2,60,0,0
33634,-142.857142857143,4,2,2,5,0,0
33711,-142.857142857143,4,2,2,60,0,0
38660,-200,4,2,2,60,0,0
39897,-333,4,2,2,60,0,0
41907,-333,4,2,2,5,0,0
42062,-199.879951980792,4,2,2,60,0,0
42294,-199.879951980792,4,2,2,5,0,0
42371,-142.795883361921,4,2,2,60,0,0
42758,-142.795883361921,4,2,2,5,0,0
42835,-111.074049366244,4,2,2,60,0,0
43222,-111.074049366244,4,2,2,5,0,0
43299,-142.795883361921,4,2,2,60,0,0
43531,-142.795883361921,4,2,2,5,0,0
43608,-83.3124843632725,4,2,3,80,0,1
43840,-83.3124843632725,4,2,3,5,0,1
43918,-83.3124843632725,4,2,3,80,0,1
51263,-83.3124843632725,4,2,3,5,0,1
51340,-83.3124843632725,4,2,3,80,0,1
55052,-99.9699789852897,4,2,3,80,0,1
56211,-99.9699789852897,4,2,3,5,0,1
56289,-99.9699789852897,4,2,3,80,0,1
59614,-99.9699789852897,4,2,3,5,0,1
59691,-99.9699789852897,4,2,3,80,0,1
62165,-83.3124843632725,4,2,3,80,0,1
63634,-83.3124843632725,4,2,3,5,0,1
63711,-83.3124843632725,4,2,3,80,0,1
68583,-83.3124843632725,4,2,3,5,0,1
68660,-83.3124843632725,4,2,3,80,0,1
78248,-99.9699789852897,4,2,3,80,0,1
80722,-124.953095684803,4,2,1,60,0,0
85670,-166.583291645823,4,2,1,60,0,0
86211,-166.583291645823,4,2,1,5,0,0
86289,-166.583291645823,4,2,1,60,0,0
88686,-166.583291645823,4,2,1,5,0,0
88763,-166.583291645823,4,2,1,60,0,0
92784,-124.953095684803,4,2,1,60,0,0
95567,-83.3124843632725,4,2,1,80,0,1
97964,-83.3124843632725,4,2,1,5,0,1
98041,-83.3124843632725,4,2,1,80,0,1
100516,-333,4,2,1,40,0,0
101753,-124.953095684803,4,2,1,60,0,0
109098,-124.953095684803,4,2,1,5,0,0
109175,-124.953095684803,4,2,1,60,0,0
111340,-99.9699789852897,4,2,1,60,0,0
111650,-124.953095684803,4,2,1,60,0,0
118995,-124.953095684803,4,2,1,5,0,0
119072,-124.953095684803,4,2,1,60,0,0
119768,-124.953095684803,4,2,1,5,0,0
119845,-124.953095684803,4,2,1,60,0,0
120000,-99.9699789852897,4,2,1,60,0,0
120928,-124.953095684803,4,2,1,60,0,0
121547,309.278350515464,6,2,2,40,1,0
121547,-142.795883361921,6,2,2,40,0,0
128892,-142.795883361921,6,2,2,40,0,0
128969,-142.795883361921,6,2,2,40,0,0
142732,-142.795883361921,6,2,1,40,0,0
143815,-124.953095684803,6,2,4,40,0,0
154949,309.278350515464,4,2,3,60,1,0
154949,-111.111111111111,4,2,3,60,0,0
158892,-111.111111111111,4,2,3,5,0,0
158969,-111.111111111111,4,2,3,60,0,0
159897,-100,4,2,3,60,0,0
166005,-100,4,2,3,5,0,0
166083,-100,4,2,3,60,0,0
175979,-83.3333333333333,4,2,3,60,0,0
177449,-83.3333333333333,4,2,3,5,0,0
177526,-83.3333333333333,4,2,3,60,0,0
179691,-100,4,2,3,60,0,0
188119,-100,4,2,3,5,0,0
188196,-100,4,2,3,60,0,0
189820,-100,4,2,3,5,0,0
189897,-100,4,2,3,60,0,0
192294,-100,4,2,3,5,0,0
192371,-100,4,2,3,60,0,0
198247,-166.666666666667,4,2,2,60,0,0
199485,-125,4,2,2,60,0,0
200335,-125,4,2,2,5,0,0
200412,-125,4,2,2,60,0,0
201650,-125,4,2,2,5,0,0
201727,-125,4,2,2,80,0,0
202799,309.278350515464,4,2,2,60,1,0
202799,-142.857142857143,4,2,2,60,0,0
203030,-142.857142857143,4,2,2,5,0,0
203167,309.278350515464,4,2,2,60,1,0
203167,-142.857142857143,4,2,2,60,0,0
203476,-142.857142857143,4,2,2,5,0,0
203597,309.278350515464,4,2,2,60,1,0
203597,-142.857142857143,4,2,2,60,0,0
203983,-142.857142857143,4,2,2,5,0,0
204115,309.278350515464,4,2,2,60,1,0
204115,-142.857142857143,4,2,2,60,0,0
204346,-142.857142857143,4,2,2,5,0,0
204433,309.278350515464,4,2,3,80,1,1
204433,-83.3124843632725,4,2,3,80,0,1
204664,-83.3124843632725,4,2,3,5,0,1
204742,-83.3124843632725,4,2,3,80,0,1
207139,-83.3124843632725,4,2,3,5,0,1
207216,-83.3124843632725,4,2,3,80,0,1
214329,-99.9699789852897,4,2,3,80,0,1
217036,-99.9699789852897,4,2,3,5,0,1
217113,-99.9699789852897,4,2,3,80,0,1
220438,-99.9699789852897,4,2,3,5,0,1
220515,-99.9699789852897,4,2,3,80,0,1
221752,-83.3124843632725,4,2,3,80,0,1
229407,-83.3124843632725,4,2,3,5,0,1
229484,-83.3124843632725,4,2,3,80,0,1
231881,-83.3124843632725,4,2,3,5,0,1
231958,-83.3124843632725,4,2,3,80,0,1
236829,-83.3124843632725,4,2,3,5,0,1
236907,-83.3124843632725,4,2,3,80,0,1
240541,-83.3124843632725,4,2,3,5,0,1
240618,-83.3124843632725,4,2,3,80,0,1
242783,-124.953095684803,4,2,2,60,0,0
243170,-124.953095684803,4,2,2,5,0,0
243247,-124.953095684803,4,2,2,60,0,0
243634,-124.953095684803,4,2,2,5,0,0
243711,-124.953095684803,4,2,2,60,0,0
243943,-124.953095684803,4,2,2,5,0,0
244020,-83.3124843632725,4,2,3,80,0,1
251675,-83.3124843632725,4,2,3,5,0,1
251752,-83.3124843632725,4,2,3,80,0,1
254149,-83.3124843632725,4,2,3,5,0,1
254226,-83.3124843632725,4,2,3,80,0,1
258788,-83.3124843632725,4,2,3,5,0,1
258865,-83.3124843632725,4,2,3,80,0,1
259097,-83.3124843632725,4,2,3,5,0,1
259175,-83.3124843632725,4,2,3,80,0,1
283608,376.175548589342,4,2,3,60,1,0
283608,-500,4,2,3,60,0,0
283702,-500,4,2,3,5,0,0
292730,-500,4,2,3,35,0,0
301664,-500,4,2,3,5,0,0

[Colours]
Combo1 : 237,233,54
Combo2 : 49,96,79
Combo3 : 158,173,135
Combo4 : 17,208,113
Combo5 : 206,207,188

[HitObjects]
128,73,1237,5,2,0:0:0:0:
128,73,1392,1,2,0:0:0:0:
76,149,1547,6,0,P|138:125|222:146,1,132.999995941162,2|0,0:0|0:0,0:0:0:0:
264,195,2010,2,0,P|326:219|410:198,1,132.999995941162,2|0,0:0|0:0,0:0:0:0:
435,95,2474,2,0,P|374:94|416:192,1,199.499993911743,2|0,0:0|0:0,0:0:0:0:
475,273,3093,2,0,P|443:275|401:294,1,66.4999979705811,2|0,0:0|0:0,0:0:0:0:
346,347,3402,2,0,P|312:344|282:332,1,66.4999979705811,2|0,0:0|0:0,0:0:0:0:
222,270,3711,2,0,P|190:272|148:291,1,66.4999979705811,2|0,0:0|0:0,0:0:0:0:
88,329,4021,54,0,L|106:242,1,66.4999979705811,2|0,0:0|0:0,0:0:0:0:
33,211,4330,1,2,0:0:0:0:
33,211,4485,2,0,L|15:124,1,66.4999979705811,2|0,0:0|0:0,0:0:0:0:
64,76,4794,1,2,0:0:0:0:
64,76,4949,2,0,P|121:53|96:141,1,199.499993911743,2|0,0:0|0:0,0:0:0:0:
173,74,5567,2,0,L|246:85,1,66.4999979705811,0|0,0:0|0:0,0:0:0:0:
285,27,5876,2,0,L|351:18,1,66.4999979705811
406,86,6186,1,2,0:0:0:0:
406,86,6340,1,2,0:0:0:0:
343,179,6495,6,0,B|270:154|275:206|190:176,1,132.999995941162,2|2,0:0|0:0,0:0:0:0:
158,251,6959,2,0,P|125:192|152:118,1,132.999995941162,2|2,0:0|0:0,0:0:0:0:
235,100,7423,2,0,P|217:54|159:133,1,199.499993911743,2|0,0:0|0:0,0:0:0:0:
251,201,8041,2,0,L|240:275,1,66.4999979705811,2|0,0:0|0:0,0:0:0:0:
169,288,8351,2,0,L|179:354,1,66.4999979705811
288,328,8660,2,0,P|334:308|397:322,1,99.7499969558717,2|0,0:0|0:0,0:0:0:0:
401,326,8969,54,0,P|390:261|421:184,1,132.999995941162,2|0,0:0|0:0,0:0:0:0:
468,134,9433,2,0,P|488:71|477:6,1,132.999995941162,2|0,0:0|0:0,0:0:0:0:
383,59,9897,2,0,B|337:35|288:58|288:58|240:83|188:50,1,199.499993911743,2|0,0:0|0:0,0:0:0:0:
109,23,10516,2,0,P|103:56|112:88,1,66.4999979705811
180,145,10825,2,0,P|186:177|178:209,1,66.4999979705811,0|0,0:0|0:0,0:0:0:0:
117,287,11134,1,2,0:0:0:0:
117,287,11289,1,2,0:0:0:0:
115,160,11443,6,0,L|207:138,1,66.4999979705811,2|0,0:0|0:0,0:0:0:0:
267,201,11753,1,2,0:0:0:0:
267,201,11907,2,0,L|259:291,1,66.4999979705811,2|0,0:0|0:0,0:0:0:0:
330,338,12217,1,2,0:0:0:0:
330,338,12371,2,0,P|228:361|167:293,1,199.499993911743,2|0,0:0|0:0,0:0:0:0:
113,205,12990,2,0,P|78:204|27:222,1,66.4999979705811,2|0,0:0|0:0,0:0:0:0:
143,134,13299,2,0,P|175:141|208:140,1,66.4999979705811,2|0,0:0|0:0,0:0:0:0:
113,63,13608,2,0,P|80:70|47:69,1,66.4999979705811,2|0,0:0|0:0,0:0:0:0:
223,44,13918,54,0,P|289:28|357:55,1,132.999995941162,2|2,0:0|0:0,0:0:0:0:
440,124,14382,2,0,P|426:50|472:5,1,132.999995941162,2|2,0:0|0:0,0:0:0:0:
512,124,14845,2,0,P|419:123|465:205,1,199.499993911743,2|0,0:0|0:0,0:0:0:0:
465,289,15464,2,0,P|428:292|378:264,1,66.4999979705811,2|0,0:0|0:0,0:0:0:0:
329,238,15773,1,2,0:0:0:0:
329,238,15928,2,0,P|292:235|242:263,1,66.4999979705811,2|0,0:0|0:0,0:0:0:0:
188,298,16237,1,2,0:0:0:0:
188,298,16392,6,0,P|169:242|209:172,1,132.999995941162,2|2,0:0|0:0,0:0:0:0:
274,112,16856,2,0,L|132:91,1,132.999995941162,2|2,0:0|0:0,0:0:0:0:
64,38,17320,2,0,P|96:97|59:178,1,132.999995941162,2|0,0:0|0:0,0:0:0:0:
71,384,17938,2,0,P|79:351|74:319,1,66.4999979705811,2|0,0:0|0:0,0:0:0:0:
3,267,18248,2,0,P|-4:235|0:203,1,66.4999979705811
136,236,18557,2,0,L|246:243,1,99.7499969558717,2|0,0:0|0:0,0:0:0:0:
251,257,18866,54,0,L|391:265,1,132.999995941162,2|2,0:0|0:0,0:0:0:0:
462,179,19330,2,0,L|321:187,1,132.999995941162,2|2,0:0|0:0,0:0:0:0:
251,150,19794,2,0,P|225:104|310:136,1,199.499993911743,2|0,0:0|0:0,0:0:0:0:
243,167,20412,2,0,L|252:243,1,66.4999979705811
332,280,20722,2,0,L|325:346,1,66.4999979705811
414,238,21031,2,0,L|408:172,1,66.4999979705811,2|0,0:0|0:0,0:0:0:0:
474,111,21340,6,0,P|366:90|318:155,1,199.499993911743,2|0,0:0|0:0,0:0:0:0:
334,233,21959,2,0,P|298:232|254:202,1,66.4999979705811,2|0,0:0|0:0,0:0:0:0:
194,172,22268,2,0,P|142:146|176:231,1,199.499993911743,2|0,0:0|0:0,0:0:0:0:
199,309,22887,2,0,P|251:283|332:320,1,132.999995941162,2|0,0:0|0:0,0:0:0:0:
422,92,23505,2,0,L|419:158,1,66.4999979705811,2|0,0:0|0:0,0:0:0:0:
465,229,23815,54,0,P|433:241|385:233,1,66.4999979705811,2|0,0:0|0:0,0:0:0:0:
340,184,24124,2,0,P|308:172|260:180,1,66.4999979705811,2|0,0:0|0:0,0:0:0:0:
214,225,24433,2,0,P|182:237|134:229,1,66.4999979705811,2|0,0:0|0:0,0:0:0:0:
90,174,24742,2,0,P|81:114|156:171,1,199.499993911743,2|2,0:0|0:0,0:0:0:0:
150,235,25361,2,0,P|126:298|166:374,1,132.999995941162,2|0,0:0|0:0,0:0:0:0:
362,381,25979,2,0,L|372:286,1,66.4999979705811,2|0,0:0|0:0,0:0:0:0:
461,232,26289,6,0,P|368:259|273:199,1,199.499993911743,2|0,0:0|0:0,0:0:0:0:
210,148,26907,2,0,P|117:121|22:181,1,199.499993911743,2|0,0:0|0:0,0:0:0:0:
143,296,27526,2,0,P|181:254|88:262,1,199.499993911743,2|0,0:0|0:0,0:0:0:0:
58,354,28144,2,0,P|151:381|246:321,1,199.499993911743,2|0,0:0|0:0,0:0:0:0:
346,240,28763,54,0,B|317:284|317:284|332:383,2,132.999995941162,2|2|2,0:0|0:0|0:0,0:0:0:0:
415,178,29691,1,2,0:0:0:0:
365,100,30000,2,0,P|296:76|225:105,1,132.999995941162,2|2,0:0|0:0,0:0:0:0:
178,165,30619,1,2,0:0:0:0:
178,165,31083,1,2,0:0:0:0:
117,104,31237,6,0,L|122:23,1,66.4999979705811,2|0,0:0|0:0,0:0:0:0:
60,164,31547,1,2,0:0:0:0:
60,164,31701,2,0,L|64:230,1,66.4999979705811,2|0,0:0|0:0,0:0:0:0:
146,278,32010,1,2,0:0:0:0:
146,278,32165,2,0,P|88:256|112:347,1,199.499993911743,2|0,0:0|0:0,0:0:0:0:
199,353,32784,2,0,P|269:339|340:375,1,132.999995941162,2|0,0:0|0:0,0:0:0:0:
427,149,33402,2,0,L|437:248,1,99.7499969558717,2|0,0:0|0:0,0:0:0:0:
434,262,33711,54,0,P|403:255|350:266,1,66.4999979705811,2|0,0:0|0:0,0:0:0:0:
295,201,34021,1,2,0:0:0:0:
295,201,34175,2,0,P|264:207|211:197,1,66.4999979705811,2|0,0:0|0:0,0:0:0:0:
165,258,34485,1,2,0:0:0:0:
62,124,34639,2,0,B|171:94|154:165|274:114,1,199.499993911743,2|0,0:0|0:0,0:0:0:0:
322,180,35258,2,0,P|344:106|195:59,1,265.999991882324,2|0,0:0|0:0,0:0:0:0:
159,141,36031,1,2,0:0:0:0:
265,229,36186,6,0,P|323:208|411:245,2,132.999995941162,2|2|2,0:0|0:0|0:0,0:0:0:0:
216,308,37114,2,0,P|165:256|257:264,1,199.499993911743,2|0,0:0|0:0,0:0:0:0:
107,354,37732,2,0,B|57:274|95:191|95:191|132:116|93:9,1,332.499989852906,2|0,0:0|0:0,0:0:0:0:
190,61,38660,54,0,B|239:59|278:28|278:28|307:59|366:58|366:58|403:36|441:40|441:40|413:57|401:86,1,332.5,2|0,0:0|0:0,0:0:0:0:
488,124,39897,6,0,P|500:221|341:145,1,370.870870870871,2|0,0:0|0:0,0:0:0:0:
269,76,42062,54,0,L|182:87,1,71.2927902512288,2|0,0:0|0:0,0:0:0:0:
71,122,42371,6,0,L|261:92,1,166.321321534715,2|0,0:0|0:0,0:0:0:0:
130,80,42835,54,0,P|126:170|1:148,1,213.821318362398,2|0,0:0|0:0,0:0:0:0:
71,122,43299,6,0,L|77:247,1,99.7927929208291,2|0,0:0|0:0,0:0:0:0:
9,346,43608,6,0,P|81:303|163:318,1,171.042792016875,6|0,0:0|0:0,0:0:0:0:
176,333,43918,2,0,P|155:280|164:224,1,114.02852801125,8|0,0:0|0:0,0:0:0:0:
337,233,44227,1,2,0:0:0:0:
268,305,44382,1,2,0:0:0:0:
229,110,44536,1,8,0:0:0:0:
343,244,44691,1,2,0:0:0:0:
153,168,44845,6,0,P|139:113|154:59,1,114.02852801125,2|0,0:0|0:0,0:0:0:0:
393,0,45155,2,0,P|415:51|403:106,1,114.02852801125,8|0,0:0|0:0,0:0:0:0:
159,184,45464,1,2,0:0:0:0:
351,264,45619,1,2,0:0:0:0:
313,62,45773,2,0,P|262:61|197:119,1,114.02852801125,8|2,0:0|0:0,0:0:0:0:
12,264,46083,54,0,L|-5:108,1,114.02852801125,2|0,0:0|0:0,0:0:0:0:
195,258,46392,2,0,L|182:371,1,114.02852801125,8|0,0:0|0:0,0:0:0:0:
276,155,46701,1,2,0:0:0:0:
78,216,46856,1,2,0:0:0:0:
244,31,47010,1,8,0:0:0:0:
67,90,47165,1,2,0:0:0:0:
166,253,47320,6,0,P|181:174|160:133,1,114.02852801125,2|0,0:0|0:0,0:0:0:0:
5,278,47629,1,8,0:0:0:0:
172,358,47784,1,0,0:0:0:0:
275,166,47938,2,0,P|216:172|168:144,1,114.02852801125,2|2,0:0|0:0,0:0:0:0:
16,250,48248,2,0,L|31:131,1,114.02852801125,8|2,0:0|0:0,0:0:0:0:
10,26,48479,1,2,0:0:0:0:
10,26,48557,54,0,B|100:33|100:33|136:54|136:54|236:62,1,228.0570560225,2|8,0:0|0:0,0:0:0:0:
381,249,49021,1,0,0:0:0:0:
325,32,49175,2,0,L|450:42,1,114.02852801125,2|2,0:0|0:0,0:0:0:0:
214,226,49485,2,0,L|84:236,1,114.02852801125,8|2,0:0|0:0,0:0:0:0:
288,169,49794,6,0,P|309:234|294:275,1,114.02852801125,0|2,0:0|0:0,0:0:0:0:
30,384,50103,2,0,P|14:330|36:278,1,114.02852801125,8|0,0:0|0:0,0:0:0:0:
239,295,50412,1,2,0:0:0:0:
110,336,50567,1,2,0:0:0:0:
179,91,50722,1,8,0:0:0:0:
146,219,50876,1,2,0:0:0:0:
237,16,51031,54,0,B|169:9|169:9|127:22|127:22|57:16,1,171.042792016875,2|0,0:0|0:0,0:0:0:0:
110,99,51340,2,0,P|118:154|97:206,1,114.02852801125,8|0,0:0|0:0,0:0:0:0:
9,140,51650,1,2,0:0:0:0:
192,248,51804,1,2,0:0:0:0:
109,330,51959,6,0,P|87:277|93:202,1,114.02852801125,8|2,0:0|0:0,0:0:0:0:
320,132,52268,2,0,P|272:99|214:94,1,114.02852801125,0|2,0:0|0:0,0:0:0:0:
411,326,52577,2,0,P|467:320|513:287,1,114.02852801125,8|0,0:0|0:0,0:0:0:0:
234,201,52887,2,0,L|249:318,1,114.02852801125,2|2,0:0|0:0,0:0:0:0:
415,166,53196,2,0,L|400:49,1,114.02852801125,12|2,0:0|0:0,0:0:0:0:
326,110,53428,1,2,0:0:0:0:
326,110,53505,54,0,B|271:134|271:134|104:99,1,228.0570560225,6|8,0:0|0:0,0:0:0:0:
205,210,53969,2,0,P|213:125|93:116,1,228.0570560225,2|2,0:0|0:0,0:0:0:0:
10,299,54433,2,0,B|140:274|120:344|247:311,1,228.0570560225,8|0,0:0|0:0,0:0:0:0:
367,246,54897,5,2,0:0:0:0:
184,227,55052,2,0,P|235:221|304:170,1,95.0285291490327,8|0,0:0|0:0,0:0:0:0:
211,29,55361,2,0,P|192:71|200:142,1,95.0285291490327,2|2,0:0|0:0,0:0:0:0:
388,232,55670,2,0,P|388:184|369:141,1,95.0285291490327,8|2,0:0|0:0,0:0:0:0:
512,320,55979,54,0,B|431:296|454:354|339:317,1,142.542793723549,2|0,0:0|0:0,0:0:0:0:
303,291,56289,2,0,P|248:288|200:306,1,95.0285291490327,8|0,0:0|0:0,0:0:0:0:
103,351,56598,1,2,0:0:0:0:
247,230,56753,1,2,0:0:0:0:
15,340,56907,2,0,P|61:346|108:339,1,95.0285291490327,8|2,0:0|0:0,0:0:0:0:
131,93,57217,6,0,P|84:97|45:123,1,95.0285291490327,0|2,0:0|0:0,0:0:0:0:
363,161,57526,2,0,P|316:157|276:131,1,95.0285291490327,8|0,0:0|0:0,0:0:0:0:
123,198,57835,1,2,0:0:0:0:
217,23,57990,1,2,0:0:0:0:
284,231,58144,2,0,P|237:234|197:260,1,95.0285291490327,8|2,0:0|0:0,0:0:0:0:
80,347,58376,1,2,0:0:0:0:
80,347,58454,54,0,B|154:340|154:340|186:350|186:350|287:341,1,190.057058298065,6|8,0:0|0:0,0:0:0:0:
397,375,58918,2,0,P|365:322|464:342,1,190.057058298065,4|2,0:0|0:0,0:0:0:0:
290,244,59382,2,0,L|317:60,1,142.542793723549,8|0,0:0|0:0,0:0:0:0:
325,115,59691,6,0,P|250:144|168:50,1,190.057058298065,2|8,0:0|0:0,0:0:0:0:
118,254,60155,2,0,P|50:280|19:323,2,95.0285291490327,2|8|2,0:0|0:0|0:0,0:0:0:0:
74,98,60619,2,0,P|78:44|116:-5,1,95.0285291490327,8|2,0:0|0:0,0:0:0:0:
343,129,60928,53,4,0:0:0:0:
179,93,61083,1,2,0:0:0:0:
408,57,61237,5,8,0:0:0:0:
231,255,61392,1,2,0:0:0:0:
231,255,61469,1,2,0:0:0:0:
231,255,61547,2,0,P|280:268|355:243,1,95.0285291490327,2|2,0:0|0:0,0:0:0:0:
118,182,61856,2,0,P|71:175|25:188,1,95.0285291490327,8|6,0:0|0:0,0:0:0:0:
255,104,62165,54,0,P|322:137|240:130,1,228.0570560225,2|8,0:0|0:0,0:0:0:0:
230,24,62629,2,0,P|279:11|364:45,1,114.02852801125,6|0,0:0|0:0,0:0:0:0:
433,188,62938,1,8,0:0:0:0:
437,152,63016,1,8,0:0:0:0:
442,117,63093,1,8,0:0:0:0:
447,82,63170,1,8,0:0:0:0:
452,46,63248,1,8,0:0:0:0:
512,303,63402,6,0,P|409:261|322:301,1,171.042792016875,6|0,0:0|0:0,0:0:0:0:
265,329,63711,2,0,P|279:269|241:198,1,114.02852801125,8|0,0:0|0:0,0:0:0:0:
140,284,64021,1,2,0:0:0:0:
274,205,64175,1,2,0:0:0:0:
43,161,64330,1,8,0:0:0:0:
242,23,64485,54,0,B|275:90|275:90|245:247,1,228.0570560225,2|2,0:0|0:0,0:0:0:0:
370,103,64949,2,0,L|321:-3,1,114.02852801125,8|0,0:0|0:0,0:0:0:0:
144,110,65258,1,2,0:0:0:0:
337,184,65412,1,2,0:0:0:0:
161,7,65567,2,0,L|46:54,1,114.02852801125,8|2,0:0|0:0,0:0:0:0:
143,307,65876,6,0,B|266:269|248:349|388:298,1,228.0570560225,2|8,0:0|0:0,0:0:0:0:
472,226,66340,1,0,0:0:0:0:
283,108,66495,2,0,P|279:156|303:216,1,114.02852801125,2|2,0:0|0:0,0:0:0:0:
465,58,66804,2,0,P|416:59|358:12,1,114.02852801125,8|2,0:0|0:0,0:0:0:0:
101,135,67114,54,0,L|86:20,1,114.02852801125,0|2,0:0|0:0,0:0:0:0:
299,239,67423,2,0,L|284:352,1,114.02852801125,8|0,0:0|0:0,0:0:0:0:
0,162,67732,2,0,P|58:141|123:154,1,114.02852801125,2|2,0:0|0:0,0:0:0:0:
303,216,68041,2,0,P|358:222|411:201,1,114.02852801125,8|2,0:0|0:0,0:0:0:0:
454,298,68273,1,2,0:0:0:0:
454,298,68351,6,0,P|435:210|480:125,1,171.042792016875,2|0,0:0|0:0,0:0:0:0:
512,49,68660,2,0,P|458:66|403:52,1,114.02852801125,8|0,0:0|0:0,0:0:0:0:
206,34,68969,2,0,L|319:10,1,114.02852801125,2|2,0:0|0:0,0:0:0:0:
186,235,69278,2,0,L|73:211,1,114.02852801125,8|2,0:0|0:0,0:0:0:0:
336,331,69588,54,0,P|320:281|343:207,1,114.02852801125,0|2,0:0|0:0,0:0:0:0:
203,35,69897,2,0,P|208:81|183:144,1,114.02852801125,8|0,0:0|0:0,0:0:0:0:
0,190,70206,1,2,0:0:0:0:
103,71,70361,1,2,0:0:0:0:
113,315,70516,2,0,P|152:289|236:290,1,114.02852801125,8|2,0:0|0:0,0:0:0:0:
351,343,70748,1,2,0:0:0:0:
351,343,70825,6,0,P|396:329|419:253,1,114.02852801125,2|0,0:0|0:0,0:0:0:0:
493,159,71134,2,0,B|383:106|379:204|261:148,1,228.0570560225,8|2,0:0|0:0,0:0:0:0:
141,31,71598,1,2,0:0:0:0:
137,251,71753,1,8,0:0:0:0:
84,121,71907,54,0,P|161:136|251:29,1,228.0570560225,2|2,0:0|0:0,0:0:0:0:
424,30,72371,2,0,P|402:71|420:158,1,114.02852801125,8|0,0:0|0:0,0:0:0:0:
496,311,72681,1,8,0:0:0:0:
467,291,72758,1,8,0:0:0:0:
433,281,72835,1,8,0:0:0:0:
397,283,72912,1,8,0:0:0:0:
365,297,72990,2,0,P|319:307|220:287,1,114.02852801125,2|2,0:0|0:0,0:0:0:0:
125,151,73299,6,0,B|151:174|160:214|160:214|118:285|145:368,1,228.0570560225,6|8,0:0|0:0,0:0:0:0:
246,290,73763,1,0,0:0:0:0:
117,60,73918,2,0,P|36:115|73:233,1,228.0570560225,2|8,0:0|0:0,0:0:0:0:
232,99,74382,1,2,0:0:0:0:
369,300,74536,54,0,P|323:291|256:316,1,114.02852801125,0|2,0:0|0:0,0:0:0:0:
387,179,74845,2,0,P|439:199|495:191,1,114.02852801125,8|0,0:0|0:0,0:0:0:0:
459,0,75155,2,0,L|449:120,1,114.02852801125,2|2,0:0|0:0,0:0:0:0:
298,218,75464,2,0,L|288:104,1,114.02852801125,8|2,0:0|0:0,0:0:0:0:
395,280,75773,5,2,0:0:0:0:
198,169,75928,1,0,0:0:0:0:
346,363,76083,2,0,P|401:377|466:355,1,114.02852801125,12|0,0:0|0:0,0:0:0:0:
305,114,76392,1,2,0:0:0:0:
212,384,76547,1,2,0:0:0:0:
132,107,76701,2,0,P|111:158|122:214,1,114.02852801125,12|2,0:0|0:0,0:0:0:0:
282,308,77010,54,0,B|166:259|176:340|44:287,1,228.0570560225,0|12,0:0|0:0,0:0:0:0:
7,183,77474,1,0,0:0:0:0:
180,50,77629,1,2,0:0:0:0:
126,209,77784,1,2,0:0:0:0:
74,15,77938,1,8,0:0:0:0:
96,123,78093,1,2,0:0:0:0:
253,51,78248,6,0,B|321:44|321:44|359:65|359:65|437:58,1,190.057058298065,6|0,0:0|0:0,0:0:0:0:
303,128,78711,2,0,P|290:167|313:227,1,95.0285291490327,8|2,0:0|0:0,0:0:0:0:
389,171,79021,1,2,0:0:0:0:
225,255,79175,2,0,P|247:289|307:310,1,95.0285291490327,12|0,0:0|0:0,0:0:0:0:
152,177,79485,54,0,P|106:172|40:196,1,95.0285291490327,2|8,0:0|0:0,0:0:0:0:
263,59,79794,2,0,P|308:72|355:68,1,95.0285291490327,2|2,0:0|0:0,0:0:0:0:
292,300,80103,1,2,0:0:0:0:
175,67,80258,1,8,0:0:0:0:
171,333,80412,1,8,0:0:0:0:
272,50,80567,1,8,0:0:0:0:
334,384,80722,5,6,0:0:0:0:
235,109,83196,37,4,0:0:0:0:
228,207,84897,1,8,0:0:0:0:
226,229,84974,1,8,0:0:0:0:
223,251,85052,1,8,0:0:0:0:
240,98,85206,1,2,0:0:0:0:
308,183,85361,1,2,0:0:0:0:
155,166,85516,1,2,0:0:0:0:
370,71,85670,54,0,B|258:37|271:114|151:65,1,199.599842560407,6|0,0:0|0:0,0:0:0:0:
168,63,86289,1,8,0:0:0:0:
163,51,86753,1,8,0:0:0:0:
64,101,86907,6,0,L|72:177,1,57.0285264458305,2|0,0:0|0:0,0:0:0:0:
135,196,87217,2,0,L|127:272,1,57.0285264458305,0|2,0:0|0:0,0:0:0:0:
231,275,87526,2,0,P|168:252|118:275,1,114.057052891661,8|2,0:0|0:0,0:0:0:0:
355,281,88144,54,0,P|259:279|242:181,1,199.599842560407,2|0,0:0|0:0,0:0:0:0:
247,180,88763,1,8,0:0:0:0:
259,167,89227,1,8,0:0:0:0:
207,114,89382,5,2,0:0:0:0:
308,220,89536,1,8,0:0:0:0:
362,94,89691,2,0,P|330:81|288:86,1,57.0285264458305,4|2,0:0|0:0,0:0:0:0:
294,85,89923,1,2,0:0:0:0:
283,92,90000,1,8,0:0:0:0:
400,176,90155,1,2,0:0:0:0:
427,167,90232,1,2,0:0:0:0:
454,159,90309,1,8,0:0:0:0:
231,239,90464,1,2,0:0:0:0:
203,230,90541,1,2,0:0:0:0:
176,222,90619,53,8,0:0:0:0:
201,318,90773,1,2,0:0:0:0:
148,128,90928,5,2,0:0:0:0:
96,336,91083,1,2,0:0:0:0:
81,56,91237,1,2,0:0:0:0:
29,264,91392,1,2,0:0:0:0:
148,128,91547,53,10,0:0:0:0:
122,232,91701,1,2,0:0:0:0:
280,84,91856,5,2,0:0:0:0:
81,56,92010,1,2,0:0:0:0:
347,156,92165,1,10,0:0:0:0:
148,128,92320,1,2,0:0:0:0:
298,4,92474,53,2,0:0:0:0:
256,172,92629,1,2,0:0:0:0:
416,112,92784,2,0,P|385:84|320:85,1,76.0285292601252,10|2,0:0|0:0,0:0:0:0:
422,195,93093,6,0,P|458:185|485:159,1,76.0285292601252,2|2,0:0|0:0,0:0:0:0:
277,324,93402,53,8,0:0:0:0:
485,272,93557,1,2,0:0:0:0:
205,257,93711,1,2,0:0:0:0:
413,205,93866,1,2,0:0:0:0:
277,324,94021,5,10,0:0:0:0:
381,298,94175,1,2,0:0:0:0:
228,101,94330,53,2,0:0:0:0:
184,352,94485,1,2,0:0:0:0:
142,124,94639,1,10,0:0:0:0:
98,375,94794,1,8,0:0:0:0:
98,375,94871,1,8,0:0:0:0:
98,375,94949,1,8,0:0:0:0:
29,310,95103,5,2,0:0:0:0:
126,205,95258,2,0,L|112:287,1,76.0285292601252,10|2,0:0|0:0,0:0:0:0:
260,179,95567,5,12,0:0:0:0:
17,114,95722,1,2,0:0:0:0:
348,89,95876,5,8,0:0:0:0:
49,234,96031,1,2,0:0:0:0:
380,210,96186,53,8,0:0:0:0:
137,146,96340,1,2,0:0:0:0:
468,121,96495,5,8,0:0:0:0:
169,267,96650,1,2,0:0:0:0:
380,210,96804,53,8,0:0:0:0:
436,0,96959,1,2,0:0:0:0:
412,330,97114,5,8,0:0:0:0:
348,89,97268,1,2,0:0:0:0:
292,297,97423,53,8,0:0:0:0:
468,121,97577,1,2,0:0:0:0:
227,56,97732,2,0,P|241:148|313:195,1,171.042792016875,8|0,0:0|0:0,0:0:0:0:
316,185,98041,5,12,0:0:0:0:
70,287,98196,1,2,0:0:0:0:
150,127,98351,2,0,B|141:222|141:222|161:259|161:259|152:360,1,228.0570560225,8|8,0:0|0:0,0:0:0:0:
158,359,98737,1,8,0:0:0:0:
162,369,98815,1,8,0:0:0:0:
322,259,98969,2,0,P|293:224|222:204,1,114.02852801125,2|2,0:0|0:0,0:0:0:0:
33,129,99278,54,0,P|90:137|160:105,1,114.02852801125,12|2,0:0|0:0,0:0:0:0:
372,103,99588,2,0,P|318:84|262:92,1,114.02852801125,12|2,0:0|0:0,0:0:0:0:
200,297,99897,1,12,0:0:0:0:
309,167,100052,1,12,0:0:0:0:
142,138,100206,1,12,0:0:0:0:
220,199,100361,1,2,0:0:0:0:
157,56,100516,54,2,P|104:63|59:110,1,114.114114114114,2|10,1:0|1:0,1:0:0:0:
97,197,101366,2,0,L|94:216,1,14.2642642642643,2|0,0:0|0:0,0:0:0:0:
42,296,101598,2,0,L|40:282,1,14.2642642642643,2|0,0:0|0:0,0:0:0:0:
108,353,101753,54,0,B|177:333|177:333|275:351,1,152.05705852025,6|8,0:0|0:0,0:0:0:0:
365,367,102217,2,0,B|342:310|342:310|353:204,1,152.05705852025,0|2,0:0|0:0,0:0:0:0:
495,140,102681,2,0,P|393:111|338:201,1,228.085587780376,8|2,0:0|0:0,0:0:0:0:
172,192,103299,2,0,P|205:174|243:174,1,76.0285292601252,8|0,0:0|0:0,0:0:0:0:
113,135,103608,2,0,P|80:117|43:117,1,76.0285292601252,2|2,0:0|0:0,0:0:0:0:
185,32,103918,2,0,P|145:33|108:56,1,76.0285292601252,8|2,0:0|0:0,0:0:0:0:
226,101,104227,5,2,0:0:0:0:
300,70,104382,2,0,P|305:115|292:148,1,76.0285292601252,2|8,0:0|0:0,0:0:0:0:
155,215,104691,2,0,P|191:188|226:182,1,76.0285292601252,2|2,0:0|0:0,0:0:0:0:
229,268,105000,1,2,0:0:0:0:
304,159,105155,2,0,P|391:136|350:217,1,228.085587780376,8|2,0:0|0:0,0:0:0:0:
411,354,105773,2,0,L|336:337,1,76.0285292601252,8|0,0:0|0:0,0:0:0:0:
199,307,106083,2,0,L|274:291,1,76.0285292601252,2|2,0:0|0:0,0:0:0:0:
109,296,106392,1,8,0:0:0:0:
109,296,106547,1,2,0:0:0:0:
135,218,106701,54,0,P|121:177|69:237,1,152.05705852025,2|8,0:0|0:0,0:0:0:0:
22,107,107165,2,0,B|95:131|95:131|183:96,1,152.05705852025,0|2,0:0|0:0,0:0:0:0:
240,12,107629,2,0,B|289:46|285:112|285:112|254:172|288:232,1,228.085587780376,8|2,0:0|0:0,0:0:0:0:
451,231,108248,2,0,P|416:216|378:214,1,76.0285292601252,8|0,0:0|0:0,0:0:0:0:
339,304,108557,2,0,P|303:319|264:320,1,76.0285292601252,2|2,0:0|0:0,0:0:0:0:
130,275,108866,2,0,P|90:276|59:340,1,114.042793890188,8|0,0:0|0:0,0:0:0:0:
69,345,109175,6,0,P|96:275|60:189,1,152.05705852025,2|8,0:0|0:0,0:0:0:0:
89,50,109639,2,0,P|65:126|101:212,1,152.05705852025,2|2,0:0|0:0,0:0:0:0:
231,137,110103,2,0,P|164:88|218:156,1,228.085587780376,8|2,0:0|0:0,0:0:0:0:
305,51,110722,1,8,0:0:0:0:
393,194,110876,53,8,0:0:0:0:
398,156,110954,1,8,0:0:0:0:
403,118,111031,1,8,0:0:0:0:
308,275,111186,1,8,0:0:0:0:
303,237,111263,1,8,0:0:0:0:
298,199,111340,2,0,L|309:132,1,47.5142645745164,8|0,0:0|0:0,0:0:0:0:
423,302,111495,2,0,L|415:348,1,47.5142645745164,2|2,0:0|0:0,0:0:0:0:
259,351,111650,6,0,B|174:330|182:383|90:347,1,152.05705852025,6|8,0:0|0:0,0:0:0:0:
27,267,112114,2,0,P|69:229|142:280,1,152.05705852025,0|2,0:0|0:0,0:0:0:0:
196,212,112577,2,0,P|82:154|-15:195,1,228.085587780376,8|2,0:0|0:0,0:0:0:0:
19,73,113196,2,0,L|102:60,1,76.0285292601252,8|0,0:0|0:0,0:0:0:0:
166,15,113505,2,0,L|241:26,1,76.0285292601252,2|2,0:0|0:0,0:0:0:0:
385,50,113815,2,0,L|309:61,1,76.0285292601252,8|2,0:0|0:0,0:0:0:0:
248,148,114124,54,0,L|417:122,1,152.05705852025,2|8,0:0|0:0,0:0:0:0:
476,195,114588,2,0,L|307:169,1,152.05705852025,0|2,0:0|0:0,0:0:0:0:
158,243,115052,2,0,B|275:196|260:303|400:240,1,228.085587780376,12|2,0:0|0:0,0:0:0:0:
214,309,115670,2,0,L|222:391,1,76.0285292601252,8|0,0:0|0:0,0:0:0:0:
272,227,115979,1,2,0:0:0:0:
146,251,116134,2,0,L|138:333,1,76.0285292601252,2|8,0:0|0:0,0:0:0:0:
66,357,116443,1,2,0:0:0:0:
2,236,116598,6,0,B|58:231|58:231|88:242|88:242|151:235,1,152.05705852025,6|8,0:0|0:0,0:0:0:0:
250,152,117062,2,0,L|94:168,1,152.05705852025,0|2,0:0|0:0,0:0:0:0:
289,259,117526,2,0,P|244:204|364:183,1,228.085587780376,8|2,0:0|0:0,0:0:0:0:
420,215,118144,2,0,P|438:174|425:112,1,76.0285292601252,8|0,0:0|0:0,0:0:0:0:
362,9,118454,2,0,P|362:46|379:80,1,76.0285292601252,2|2,0:0|0:0,0:0:0:0:
288,60,118763,2,0,P|232:75|173:45,1,114.042793890188,8|0,0:0|0:0,0:0:0:0:
179,66,119072,54,0,P|142:92|143:198,1,152.05705852025,6|8,0:0|0:0,0:0:0:0:
271,235,119536,2,0,P|266:189|191:139,1,114.042793890188,2|0,0:0|0:0,0:0:0:0:
209,146,119845,1,2,0:0:0:0:
131,307,120000,2,0,B|251:281|229:349|336:302,1,190.057058298065,8|2,0:0|0:0,0:0:0:0:
394,243,120464,1,2,0:0:0:0:
206,280,120619,1,8,0:0:0:0:
318,130,120773,1,8,0:0:0:0:
318,130,120851,1,8,0:0:0:0:
318,130,120928,6,0,P|267:133|201:99,2,114.042793890188,8|8|2,0:0|0:0|0:0,0:0:0:0:
430,46,121547,54,0,P|406:107|447:174,1,133.057057227772,2|2,0:0|0:0,0:0:0:0:
465,247,122010,2,0,P|424:195|345:197,1,133.057057227772,2|2,0:0|0:0,0:0:0:0:
282,176,122474,2,0,P|346:166|384:97,2,133.057057227772,2|2|2,0:0|0:0|0:0,0:0:0:0:
301,90,123248,1,0,0:0:0:0:
301,90,123402,6,0,L|172:143,1,133.057057227772,2|2,0:0|0:0,0:0:0:0:
230,283,123866,2,0,L|248:144,1,133.057057227772,2|2,0:0|0:0,0:0:0:0:
98,131,124330,2,0,L|208:216,2,133.057057227772,2|2|2,0:0|0:0|0:0,0:0:0:0:
32,177,125103,1,0,0:0:0:0:
32,177,125258,54,0,P|35:259|87:293,1,133.057057227772,2|2,0:0|0:0,0:0:0:0:
217,238,125722,2,0,P|144:199|89:227,1,133.057057227772,2|2,0:0|0:0,0:0:0:0:
71,367,126186,2,0,P|140:323|143:261,2,133.057057227772,2|2|2,0:0|0:0|0:0,0:0:0:0:
175,359,126959,1,0,0:0:0:0:
175,359,127114,6,0,L|314:369,1,133.057057227772,2|2,0:0|0:0,0:0:0:0:
376,273,127577,2,0,L|237:263,1,133.057057227772,2|2,0:0|0:3,0:0:0:0:
233,271,127964,1,2,0:3:0:0:
222,278,128042,1,2,0:3:0:0:
144,242,128196,2,0,P|135:273|145:327,1,66.528528613886,2|0,0:3|0:0,0:0:0:0:
222,278,128505,1,0,0:0:0:0:
219,187,128660,2,0,P|196:163|120:150,1,99.7927929208291,4|0,0:0|0:0,0:0:0:0:
106,156,128969,54,0,L|94:66,1,66.528528613886,2|0,0:0|0:0,0:0:0:0:
176,0,129278,2,0,L|167:65,1,66.528528613886,2|0,0:0|0:0,0:0:0:0:
241,90,129588,2,0,P|278:91|319:116,1,66.528528613886,2|0,0:0|0:0,0:0:0:0:
360,20,129897,2,0,B|328:139|402:108|358:233,1,199.585585841658,2|2,0:0|0:0,0:0:0:0:
278,234,130516,2,0,P|276:200|296:158,1,66.528528613886,2|0,0:0|0:0,0:0:0:0:
175,256,130825,6,0,P|258:229|341:294,1,199.585585841658,2|0,0:0|0:0,0:0:0:0:
247,314,131443,2,0,P|224:338|183:345,1,66.528528613886,2|0,0:0|0:0,0:0:0:0:
115,301,131753,2,0,P|82:290|128:348,1,199.585585841658,2|2,0:0|0:0,0:0:0:0:
128,291,132371,2,0,L|117:220,1,66.528528613886,2|0,0:0|0:0,0:0:0:0:
24,185,132681,54,0,P|90:217|170:137,1,199.585585841658,2|0,0:0|0:0,0:0:0:0:
90,71,133299,2,0,L|88:147,1,66.528528613886,2|0,0:0|0:0,0:0:0:0:
177,44,133608,2,0,P|244:78|307:41,1,133.057057227772,2|0,0:0|0:0,0:0:0:0:
339,135,134072,2,0,P|406:101|469:138,1,133.057057227772,2|0,0:0|0:0,0:0:0:0:
404,176,134536,1,2,0:0:0:0:
404,176,134845,5,2,0:0:0:0:
404,176,135155,54,0,P|394:208|399:253,1,66.528528613886,2|0,0:0|0:0,0:0:0:0:
455,297,135464,2,0,P|464:329|460:374,1,66.528528613886,2|0,0:0|0:0,0:0:0:0:
311,336,135773,2,0,P|345:326|381:331,1,66.528528613886,2|0,0:0|0:0,0:0:0:0:
268,262,136083,2,0,P|235:264|204:256,1,66.528528613886,2|0,0:0|0:0,0:0:0:0:
133,347,136392,6,0,P|164:318|127:161,1,199.585585841658,2|0,0:0|0:0,0:0:0:0:
304,104,137010,2,0,B|186:89|212:163|72:121|72:121|121:141|151:179,1,332.64264306943,2|2,0:0|0:0,0:0:0:0:
61,292,137938,2,0,L|55:195,1,66.528528613886,2|0,0:0|0:0,0:0:0:0:
157,279,138248,54,0,B|273:250|243:329|376:273,1,199.585585841658,2|0,0:0|0:0,0:0:0:0:
433,252,138866,2,0,P|439:288|423:335,1,66.528528613886,2|0,0:0|0:0,0:0:0:0:
364,199,139175,2,0,P|349:128|373:57,2,133.057057227772,2|2|2,0:0|0:0|0:0,0:0:0:0:
485,55,140103,6,0,B|442:57|407:48|407:48|383:57|363:70|363:70|323:61|275:68,1,199.585585841658,2|0,0:0|0:0,0:0:0:0:
217,107,140722,2,0,P|182:106|130:93,1,66.528528613886,2|0,0:0|0:0,0:0:0:0:
80,36,141031,2,0,P|122:40|55:100,1,199.585585841658,2|2,0:0|0:0,0:0:0:0:
20,181,141650,2,0,P|12:219|23:254,1,66.528528613886,2|0,0:0|0:0,0:0:0:0:
95,212,141959,1,2,0:0:0:0:
77,360,142114,54,0,L|5:369,1,66.528528613886,2|0,0:0|0:0,0:0:0:0:
155,296,142423,2,0,L|83:287,1,66.528528613886,2|0,0:0|0:0,0:0:0:0:
221,360,142732,1,8,0:0:0:0:
254,355,142809,1,8,0:0:0:0:
287,351,142886,1,8,0:0:0:0:
380,313,143041,2,0,L|386:398,1,66.528528613886,2|0,0:3|0:0,0:0:0:0:
307,253,143351,1,2,0:0:0:0:
400,215,143505,1,2,0:0:0:0:
326,157,143660,1,10,0:0:0:0:
326,157,143737,1,10,0:0:0:0:
326,157,143815,6,0,P|247:130|166:167,1,152.05705852025,4|0,0:0|0:0,0:0:0:0:
113,202,144278,1,8,0:0:0:0:
113,202,144356,1,8,0:0:0:0:
113,202,144433,2,0,P|97:161|101:122,1,76.0285292601252,10|0,0:0|0:0,0:0:0:0:
16,67,144742,2,0,B|85:34|85:34|184:51,1,152.05705852025,8|0,0:0|0:0,0:0:0:0:
258,82,145206,1,0,0:0:0:0:
258,82,145361,2,0,L|319:67,2,50.6856861734168,8|8|8,0:0|0:0|0:0,0:0:0:0:
370,15,145670,54,0,B|346:63|346:63|358:175,1,152.05705852025,2|0,0:0|0:0,0:0:0:0:
432,232,146134,1,8,0:0:0:0:
432,232,146211,1,8,0:0:0:0:
432,232,146289,2,0,L|418:311,1,76.0285292601252,10|2,0:0|0:0,0:0:0:0:
335,360,146598,2,0,P|324:325|328:273,1,76.0285292601252,8|0,0:0|0:0,0:0:0:0:
259,176,146907,2,0,P|259:213|248:250,1,76.0285292601252,2|2,0:0|0:0,0:0:0:0:
171,365,147217,2,0,P|160:330|164:278,1,76.0285292601252,2|2,0:0|0:0,0:0:0:0:
173,200,147526,6,0,L|88:187,1,76.0285292601252,2|0,0:0|0:0,0:0:0:0:
60,103,147835,2,0,L|10:115,2,50.6856861734168,8|8|8,0:0|0:0|0:0,0:0:0:0:
150,116,148144,2,0,L|235:103,1,76.0285292601252,2|0,0:0|0:0,0:0:0:0:
377,133,148454,2,0,P|251:106|225:197,1,228.085587780376,8|2,0:0|0:0,0:0:0:0:
317,243,149072,2,0,L|302:165,1,76.0285292601252,2|0,0:0|0:0,0:0:0:0:
406,269,149382,54,0,P|373:254|305:264,1,76.0285292601252,2|2,0:0|0:0,0:0:0:0:
274,348,149691,2,0,L|365:336,1,76.0285292601252,2|2,0:0|0:0,0:0:0:0:
437,356,150000,2,0,L|528:344,1,76.0285292601252,2|2,0:0|0:0,0:0:0:0:
506,193,150309,5,8,0:0:0:0:
491,272,150464,1,2,0:0:0:0:
447,137,150619,1,2,0:0:0:0:
432,216,150774,1,2,0:0:0:0:
384,84,150928,1,2,0:0:0:0:
369,163,151083,1,2,0:0:0:0:
459,56,151237,54,0,P|437:21|386:2,1,76.0285292601252,4|0,0:0|0:0,0:0:0:0:
325,28,151547,2,0,L|246:20,2,50.6856861734168,8|8|8,0:0|0:0|0:0,0:0:0:0:
384,84,151856,1,2,0:0:0:0:
384,84,152165,2,0,L|394:159,1,76.0285292601252,8|2,0:0|0:0,0:0:0:0:
304,144,152474,2,0,L|293:219,1,76.0285292601252,0|2,0:0|0:0,0:0:0:0:
219,174,152706,1,8,0:0:0:0:
219,174,152784,2,0,P|185:163|130:168,1,76.0285292601252,8|0,0:0|0:0,0:0:0:0:
72,97,153093,6,0,P|42:156|73:237,1,152.05705852025,2|2,0:0|0:0,0:0:0:0:
148,313,153557,1,4,0:0:0:0:
148,313,153711,2,0,P|184:297|246:309,1,76.0285292601252,0|0,0:0|0:0,0:0:0:0:
446,334,154021,53,4,0:3:0:0:
328,284,154175,1,4,0:3:0:0:
412,250,154330,1,4,0:3:0:0:
362,368,154484,1,8,0:0:0:0:
341,195,154639,1,8,0:0:0:0:
501,262,154794,1,8,0:0:0:0:
261,233,154949,6,0,L|268:131,1,85.4999973907472,4|0,0:0|0:0,0:0:0:0:
280,130,155180,1,8,0:0:0:0:
294,113,155258,1,8,0:0:0:0:
137,114,155412,2,0,P|212:143|318:82,1,170.999994781494,4|0,0:0|0:0,0:0:0:0:
307,95,155799,1,8,0:0:0:0:
321,78,155876,1,2,0:0:0:0:
227,50,156031,1,2,0:0:0:0:
405,22,156186,53,2,0:0:0:0:
362,229,156340,1,8,0:0:0:0:
357,195,156417,1,8,0:0:0:0:
353,162,156494,1,8,0:0:0:0:
466,180,156650,1,2,0:0:0:0:
272,273,156804,1,8,0:0:0:0:
267,239,156881,1,8,0:0:0:0:
263,206,156958,1,8,0:0:0:0:
171,265,157113,1,2,0:0:0:0:
283,365,157268,1,2,0:0:0:0:
86,329,157423,6,0,L|71:230,1,85.4999973907472,4|0,0:0|0:0,0:0:0:0:
70,227,157655,1,8,0:0:0:0:
67,210,157732,1,8,0:0:0:0:
197,25,157887,1,8,0:0:0:0:
174,167,158041,1,2,0:0:0:0:
256,106,158196,1,2,0:0:0:0:
110,82,158350,1,2,0:0:0:0:
256,234,158505,2,0,L|261:171,1,42.7499986953736,2|2,0:2|0:0,0:0:0:0:
158,306,158660,54,0,B|226:291|214:328|291:311,1,128.249996086121,8|0,0:0|0:0,0:0:0:0:
301,319,158969,5,8,0:0:0:0:
87,357,159124,1,8,0:0:0:0:
351,236,159278,53,8,0:0:0:0:
80,271,159433,1,8,0:0:0:0:
403,322,159588,5,8,0:0:0:0:
145,212,159742,1,8,0:0:0:0:
424,41,159897,54,0,L|442:271,1,190,12|2,0:0|0:0,0:0:0:0:
244,62,160361,2,0,P|279:34|354:35,1,95,12|2,0:0|0:0,0:0:0:0:
321,122,160670,1,2,0:0:0:0:
146,102,160825,2,0,L|157:-1,1,95,12|2,0:0|0:0,0:0:0:0:
129,204,161134,6,0,P|79:203|22:239,2,95,12|2|2,0:0|0:0|0:0,0:0:0:0:
114,383,161598,2,0,L|99:270,1,95,12|2,0:0|0:0,0:0:0:0:
73,127,161907,1,2,0:0:0:0:
192,264,162062,2,0,P|214:223|200:154,1,95,12|2,0:0|0:0,0:0:0:0:
120,37,162371,54,0,P|76:28|15:48,2,95,12|2|2,0:0|0:0|0:0,0:0:0:0:
268,99,162835,2,0,L|365:84,1,95,12|2,0:0|0:0,0:0:0:0:
417,12,163144,1,2,0:0:0:0:
456,187,163299,2,0,P|451:141|466:94,1,95,12|2,0:0|0:0,0:0:0:0:
359,285,163608,6,0,P|364:239|349:192,1,95,12|2,0:0|0:0,0:0:0:0:
266,248,163918,1,2,0:0:0:0:
421,352,164072,2,0,P|396:311|358:284,1,95,12|2,0:0|0:0,0:0:0:0:
240,380,164381,1,2,0:0:0:0:
263,377,164458,1,2,0:0:0:0:
287,375,164535,1,8,0:0:0:0:
310,373,164612,1,2,0:0:0:0:
334,371,164690,1,2,0:0:0:0:
191,301,164845,54,0,P|175:249|186:194,1,95,12|2,0:0|0:0,0:0:0:0:
266,248,165155,1,2,0:0:0:0:
79,159,165309,2,0,P|121:139|152:103,1,95,12|2,0:0|0:0,0:0:0:0:
62,59,165619,1,2,0:0:0:0:
63,287,165773,2,0,P|128:266|197:310,1,142.5,8|0,0:0|0:0,0:0:0:0:
196,312,166083,6,0,L|298:293,1,95,12|2,0:0|0:0,0:0:0:0:
361,217,166392,1,2,0:0:0:0:
425,366,166546,2,0,P|421:309|452:253,1,95,12|2,0:0|0:0,0:0:0:0:
507,205,166856,1,2,0:0:0:0:
417,55,167010,2,0,P|432:99|426:146,1,95,8|2,0:0|0:0,0:0:0:0:
328,106,167320,54,0,B|221:79|254:154|111:101,1,190,2|2,0:0|0:0,0:0:0:0:
37,89,167784,2,0,P|72:31|215:38,1,190,2|2,0:0|0:0,0:0:0:0:
156,205,168247,2,0,L|140:95,1,95,2|2,0:0|0:0,0:0:0:0:
235,144,168557,5,6,0:0:0:0:
62,294,168711,1,8,0:0:0:0:
94,278,168788,1,8,0:0:0:0:
129,276,168865,1,8,0:0:0:0:
163,287,168942,1,8,0:0:0:0:
190,309,169020,1,8,0:0:0:0:
290,358,169175,2,0,P|297:307|326:268,1,95,2|2,0:0|0:0,0:0:0:0:
324,134,169485,1,2,0:0:0:0:
318,147,169562,1,2,0:0:0:0:
316,161,169639,1,2,0:0:0:0:
315,175,169717,1,2,0:0:0:0:
318,188,169794,54,0,P|374:200|400:232,2,95,2|0|0,0:0|0:0|0:0,0:0:0:0:
270,40,170258,2,0,B|158:16|185:95|71:66,1,190,12|2,0:0|0:0,0:0:0:0:
323,116,170722,2,0,L|443:86,1,95,8|2,0:0|0:0,0:0:0:0:
273,225,171031,6,0,P|332:206|417:302,1,190,12|2,0:0|0:0,0:0:0:0:
350,384,171495,2,0,L|329:278,1,95,12|2,0:0|0:0,0:0:0:0:
367,132,171804,1,2,0:0:0:0:
209,279,171959,2,0,P|192:230|208:172,1,95,12|2,0:0|0:0,0:0:0:0:
364,49,172268,53,12,0:0:0:0:
199,188,172423,1,2,0:0:0:0:
364,49,172577,1,2,0:0:0:0:
216,38,172732,5,12,0:0:0:0:
355,203,172887,1,2,0:0:0:0:
216,38,173041,1,2,0:0:0:0:
274,196,173196,1,12,0:0:0:0:
449,111,173351,53,2,0:0:0:0:
446,134,173428,1,8,0:0:0:0:
444,158,173505,1,8,0:0:0:0:
289,120,173660,1,2,0:0:0:0:
441,239,173814,1,8,0:0:0:0:
438,262,173891,1,8,0:0:0:0:
436,286,173968,1,8,0:0:0:0:
216,249,174124,6,0,P|253:221|332:211,1,95,2|2,0:0|0:0,0:0:0:0:
384,350,174433,2,0,P|338:338|300:309,1,95,2|2,0:0|0:0,0:0:0:0:
107,363,174665,1,0,0:0:0:0:
107,363,174742,54,0,L|215:344,1,95,12|2,0:0|0:0,0:0:0:0:
227,161,175052,1,2,0:0:0:0:
106,224,175206,1,12,0:0:0:0:
163,40,175361,1,2,0:0:0:0:
43,104,175515,1,2,0:0:0:0:
135,132,175670,1,12,0:0:0:0:
71,12,175825,1,2,0:0:0:0:
308,118,175979,6,0,P|316:185|270:244,1,113.999996520996,8|2,0:0|0:0,0:0:0:0:
135,132,176289,1,2,0:0:0:0:
296,317,176443,2,0,P|233:290|205:221,1,113.999996520996,8|2,0:0|0:0,0:0:0:0:
402,195,176753,1,2,0:0:0:0:
129,207,176907,2,0,P|183:166|257:176,1,113.999996520996,8|2,0:0|0:0,0:0:0:0:
45,287,177217,54,0,B|17:209|17:209|56:85,1,170.999994781494,12|0,0:0|0:0,0:0:0:0:
50,108,177526,1,2,0:0:0:0:
145,299,177680,1,2,0:0:0:0:
148,45,177835,1,2,0:0:0:0:
237,312,177990,1,2,0:0:0:0:
258,48,178144,1,2,0:0:0:0:
202,225,178299,1,2,0:0:0:0:
142,36,178454,5,8,0:0:0:0:
274,154,178608,1,8,0:0:0:0:
240,151,178685,1,8,0:0:0:0:
208,141,178762,1,8,0:0:0:0:
374,95,178918,1,2,0:0:0:0:
388,125,178995,1,2,0:0:0:0:
395,158,179072,1,2,0:0:0:0:
256,63,179227,1,2,0:0:0:0:
307,293,179381,1,8,0:0:0:0:
314,260,179458,1,8,0:0:0:0:
328,230,179535,1,8,0:0:0:0:
154,366,179691,54,0,B|265:335|241:396|355:371,1,190,6|8,0:0|0:0,0:0:0:0:
421,312,180155,1,0,0:0:0:0:
328,230,180309,2,0,L|204:253,1,95,2|2,0:0|0:0,0:0:0:0:
435,206,180619,2,0,P|381:130|265:135,1,190,8|2,0:0|0:0,0:0:0:0:
200,159,181083,1,2,0:0:0:0:
228,48,181237,2,0,P|270:28|330:34,1,95,8|0,0:0|0:0,0:0:0:0:
130,82,181546,2,0,P|82:83|40:63,1,95,2|2,0:0|0:0,0:0:0:0:
209,169,181856,2,0,L|184:299,1,95,8|2,0:0|0:0,0:0:0:0:
375,266,182165,6,0,P|324:246|251:263,1,95,2|0,0:0|0:0,0:0:0:0:
160,356,182474,2,0,P|207:357|250:338,1,95,8|0,0:0|0:0,0:0:0:0:
81,288,182784,2,0,L|56:418,1,95,2|2,0:0|0:0,0:0:0:0:
195,182,183093,2,0,P|149:197|211:123,1,285,8|2,0:0|0:0,0:0:0:0:
274,143,183711,2,0,P|284:96|239:22,1,95,8|0,0:0|0:0,0:0:0:0:
367,95,184021,1,2,0:0:0:0:
367,95,184175,1,2,0:0:0:0:
463,58,184330,2,0,P|449:102|459:148,1,95,8|2,0:0|0:0,0:0:0:0:
507,256,184639,54,0,L|378:230,1,95,2|0,0:0|0:0,0:0:0:0:
281,339,184949,2,0,L|374:320,1,95,8|0,0:0|0:0,0:0:0:0:
310,248,185258,1,2,0:0:0:0:
310,248,185412,1,2,0:0:0:0:
197,384,185567,2,0,P|200:327|181:290,1,95,8|0,0:0|0:0,0:0:0:0:
103,196,185876,6,0,P|110:244|89:306,1,95,2|2,0:0|0:0,0:0:0:0:
23,133,186186,2,0,P|16:85|37:23,1,95,8|0,0:0|0:0,0:0:0:0:
110,93,186495,1,2,0:0:0:0:
110,93,186650,1,2,0:0:0:0:
10,140,186804,2,0,B|21:234,1,95,8|2,0:0|0:0,0:0:0:0:
0,352,187113,54,0,B|102:320|81:385|191:352,1,190,6|8,0:0|0:0,0:0:0:0:
240,270,187577,1,0,0:0:0:0:
329,333,187732,1,2,0:0:0:0:
329,333,187887,2,0,P|347:284|304:189,1,142.5,2|0,0:0|0:0,0:0:0:0:
309,188,188196,2,0,P|296:136|313:91,1,95,8|2,0:0|0:0,0:0:0:0:
399,150,188505,5,2,0:0:0:0:
194,31,188660,2,0,L|187:130,1,95,8|8,0:0|0:0,0:0:0:0:
192,144,188892,1,8,0:0:0:0:
197,161,188969,1,8,0:0:0:0:
227,291,189124,1,2,0:0:0:0:
147,241,189278,1,8,0:0:0:0:
277,211,189433,1,2,0:0:0:0:
140,330,189588,54,0,P|66:318|-13:355,1,142.5,4|0,0:0|0:0,0:0:0:0:
0,353,189897,1,8,0:0:0:0:
150,346,190052,2,0,L|260:326,2,95,2|2|2,0:0|0:0|0:0,0:0:0:0:
324,348,190516,6,0,B|333:287|289:255|289:255|289:207|322:176|322:176,1,190,12|0,0:0|0:0,0:0:0:0:
396,244,190979,1,2,0:0:0:0:
326,78,191134,2,0,P|310:130|321:190,1,95,8|0,0:0|0:0,0:0:0:0:
421,144,191443,1,2,0:0:0:0:
421,144,191598,1,2,0:0:0:0:
321,70,191753,2,0,L|227:85,1,95,8|0,0:0|0:0,0:0:0:0:
82,7,192062,54,0,B|101:58|101:58|87:175,1,142.5,6|0,0:0|0:0,0:0:0:0:
81,156,192371,1,8,0:0:0:0:
191,242,192526,2,0,L|176:134,1,95,2|2,0:0|0:0,0:0:0:0:
86,246,192835,1,2,0:0:0:0:
198,344,192990,6,0,P|255:307|370:336,1,190,8|0,0:0|0:0,0:0:0:0:
415,228,193454,1,2,0:0:0:0:
498,348,193608,1,8,0:0:0:0:
501,324,193685,1,8,0:0:0:0:
505,301,193762,1,8,0:0:0:0:
415,228,193918,1,2,0:0:0:0:
415,228,194072,1,2,0:0:0:0:
479,72,194227,1,2,0:0:0:0:
498,171,194381,1,2,0:0:0:0:
345,57,194536,54,0,P|295:54|234:97,1,95,12|2,0:0|0:0,0:0:0:0:
70,187,194845,2,0,P|112:206|159:202,1,95,8|2,0:0|0:0,0:0:0:0:
305,168,195155,1,8,0:0:0:0:
134,112,195309,1,2,0:0:0:0:
316,152,195464,1,8,0:0:0:0:
66,199,195618,1,2,0:0:0:0:
347,283,195773,6,0,P|297:281|241:320,1,95,8|2,0:0|0:0,0:0:0:0:
4,274,196083,2,0,P|46:294|93:291,1,95,8|2,0:0|0:0,0:0:0:0:
212,110,196392,1,8,0:0:0:0:
61,209,196546,1,2,0:0:0:0:
308,124,196701,2,0,P|304:77|278:37,1,95,8|2,0:0|0:0,0:0:0:0:
8,81,197010,54,0,L|113:58,1,95,12|0,0:0|0:0,0:0:0:0:
118,68,197242,1,8,0:0:0:0:
135,75,197320,1,8,0:0:0:0:
278,169,197474,2,0,B|179:138|198:209|93:175,1,190,2|2,0:0|0:0,0:0:0:0:
38,240,197861,1,8,0:0:0:0:
38,240,197938,2,0,L|45:344,1,95,8|0,0:0|0:0,0:0:0:0:
349,250,198247,6,0,P|267:231|175:288,2,170.999994781494,2|2|2,0:0|0:0|0:0,0:0:0:0:
314,332,199485,2,0,P|270:290|418:305,1,418,2|0,0:0|0:0,0:0:0:0:
349,250,200412,2,0,B|386:176|349:105|349:105|273:151|198:117|198:117|103:78|22:132|22:132|121:113|146:171,1,608,2|0,0:0|0:0,0:0:0:0:
256,192,201727,12,0,202577,0:0:0:0:
335,0,202799,54,0,P|342:47|336:101,1,99.7499969558717
392,152,203167,2,0,P|324:126|250:155,1,132.999995941162,2|0,0:0|0:0,0:0:0:0:
200,76,203597,2,0,P|171:150|220:222,1,166.249994926453,2|0,0:0|0:0,0:0:0:0:
207,347,204115,2,0,P|220:291|202:244,1,99.7499969558717,2|0,0:0|0:0,0:0:0:0:
51,328,204433,22,0,P|110:307|211:352,1,171.042792016875,6|0,0:0|0:0,0:0:0:0:
286,275,204742,2,0,P|308:320|287:402,1,114.02852801125,8|0,0:0|0:0,0:0:0:0:
180,211,205051,1,2,0:0:0:0:
349,324,205206,1,2,0:0:0:0:
93,261,205360,1,8,0:0:0:0:
347,180,205515,6,0,B|262:172|262:172|218:192|218:192|108:183,1,228.0570560225,2|2,0:0|0:0,0:0:0:0:
7,124,205979,2,0,P|57:116|108:66,1,114.02852801125,8|0,0:0|0:0,0:0:0:0:
16,28,206288,1,2,0:0:0:0:
34,236,206443,1,2,0:0:0:0:
204,144,206597,2,0,P|162:105|107:94,1,114.02852801125,8|2,0:0|0:0,0:0:0:0:
311,14,206907,54,0,B|305:62|266:83|266:83|304:121|289:184,1,171.042792016875,2|0,0:0|0:0,0:0:0:0:
253,235,207216,2,0,P|242:300|262:347,1,114.02852801125,8|0,0:0|0:0,0:0:0:0:
344,282,207525,1,2,0:0:0:0:
166,194,207680,1,2,0:0:0:0:
366,85,207835,1,8,0:0:0:0:
292,160,207989,1,2,0:0:0:0:
443,292,208144,6,0,P|432:229|386:196,1,114.02852801125,0|2,0:0|0:0,0:0:0:0:
134,48,208453,2,0,P|152:102|142:186,1,114.02852801125,8|0,0:0|0:0,0:0:0:0:
174,384,208762,2,0,P|211:341|289:308,1,114.02852801125,2|2,0:0|0:0,0:0:0:0:
445,182,209072,2,0,P|389:170|321:119,1,114.02852801125,8|2,0:0|0:0,0:0:0:0:
266,39,209304,1,2,0:0:0:0:
266,39,209381,54,0,B|180:32|180:32|132:48|132:48|18:37,1,228.0570560225,2|8,0:0|0:0,0:0:0:0:
0,241,209845,1,0,0:0:0:0:
123,86,210000,1,2,0:0:0:0:
176,272,210154,1,2,0:0:0:0:
299,126,210309,2,0,P|300:69|277:18,1,114.02852801125,8|2,0:0|0:0,0:0:0:0:
325,265,210618,6,0,L|438:251,1,114.02852801125,0|2,0:0|0:0,0:0:0:0:
133,201,210927,2,0,L|19:187,1,114.02852801125,8|0,0:0|0:0,0:0:0:0:
181,340,211237,1,2,0:0:0:0:
229,220,211391,1,2,0:0:0:0:
50,355,211546,1,8,0:0:0:0:
306,322,211701,1,2,0:0:0:0:
85,123,211855,54,0,B|211:85|182:176|322:127,1,228.0570560225,2|8,0:0|0:0,0:0:0:0:
393,31,212319,1,0,0:0:0:0:
403,199,212474,1,2,0:0:0:0:
480,95,212628,1,2,0:0:0:0:
308,149,212783,2,0,P|300:203|326:267,1,114.02852801125,8|2,0:0|0:0,0:0:0:0:
495,319,213092,6,0,P|431:309|360:344,1,114.02852801125,0|2,0:0|0:0,0:0:0:0:
187,252,213402,2,0,P|241:267|296:257,1,114.02852801125,8|0,0:0|0:0,0:0:0:0:
193,57,213711,1,2,0:0:0:0:
104,303,213865,1,8,0:0:0:0:
91,259,213942,1,8,0:0:0:0:
100,214,214019,1,12,0:0:0:0:
272,13,214175,1,8,0:0:0:0:
281,58,214252,1,8,0:0:0:0:
268,102,214329,54,0,B|369:78|356:145|463:106,1,190.057058298065,6|8,0:0|0:0,0:0:0:0:
320,181,214793,2,0,P|263:206|345:240,1,190.057058298065,0|2,0:0|0:0,0:0:0:0:
456,351,215257,2,0,B|381:343|381:343|334:359|334:359|258:353,1,190.057058298065,8|0,0:0|0:0,0:0:0:0:
139,357,215721,5,2,0:0:0:0:
248,145,215876,2,0,P|266:191|250:263,1,95.0285291490327,8|0,0:0|0:0,0:0:0:0:
56,221,216185,2,0,P|113:203|179:208,1,95.0285291490327,2|2,0:0|0:0,0:0:0:0:
393,55,216494,2,0,P|336:56|282:39,1,95.0285291490327,8|2,0:0|0:0,0:0:0:0:
73,79,216804,54,0,B|110:141|110:141|85:221,1,142.542793723549,2|0,0:0|0:0,0:0:0:0:
0,252,217113,2,0,P|39:226|86:226,1,95.0285291490327,8|0,0:0|0:0,0:0:0:0:
213,383,217422,1,2,0:0:0:0:
66,315,217577,1,2,0:0:0:0:
249,296,217731,2,0,P|259:241|223:173,1,95.0285291490327,8|2,0:0|0:0,0:0:0:0:
133,83,218041,6,0,P|176:57|262:58,1,95.0285291490327,0|2,0:0|0:0,0:0:0:0:
325,219,218350,2,0,P|273:212|229:186,1,95.0285291490327,8|0,0:0|0:0,0:0:0:0:
306,122,218659,1,2,0:0:0:0:
422,263,218814,1,8,0:0:0:0:
424,228,218891,1,8,0:0:0:0:
427,194,218968,1,8,0:0:0:0:
231,288,219123,1,2,0:0:0:0:
368,356,219278,54,0,B|332:355|293:339|293:339|247:388|181:356,1,190.057058298065,6|0,0:0|0:0,0:0:0:0:
234,140,219742,2,0,P|277:206|208:283,1,190.057058298065,8|0,0:0|0:0,0:0:0:0:
32,235,220206,2,0,L|188:209,1,142.542793723549,8|0,0:0|0:0,0:0:0:0:
198,207,220515,5,2,0:0:0:0:
262,56,220670,2,0,P|220:75|238:210,1,190.057058298065,8|2,0:0|0:0,0:0:0:0:
374,127,221134,2,0,L|249:144,1,95.0285291490327,4|0,0:0|0:0,0:0:0:0:
400,268,221443,2,0,L|525:285,1,95.0285291490327,8|0,0:0|0:0,0:0:0:0:
469,41,221752,53,2,0:0:0:0:
428,12,221829,1,2,0:0:0:0:
381,0,221906,1,2,0:0:0:0:
332,6,221983,1,2,0:0:0:0:
289,29,222061,1,2,0:0:0:0:
245,51,222139,1,2,0:0:0:0:
197,58,222216,1,2,0:0:0:0:
150,45,222293,1,2,0:0:0:0:
109,17,222371,1,2,0:0:0:0:
60,17,222448,1,2,0:0:0:0:
28,54,222525,1,2,0:0:0:0:
21,102,222602,1,2,0:0:0:0:
48,143,222680,1,2,0:0:0:0:
81,179,222758,1,2,0:0:0:0:
86,227,222835,1,2,0:0:0:0:
64,272,222912,1,2,0:0:0:0:
26,303,222989,6,0,B|116:295|116:295|155:312|155:312|249:305,1,228.0570560225,6|8,0:0|0:0,0:0:0:0:
483,281,223453,2,0,P|445:244|344:226,1,114.02852801125,6|0,0:0|0:0,0:0:0:0:
234,279,223762,1,8,0:0:0:0:
217,241,223839,1,0,0:0:0:0:
222,200,223916,1,8,0:0:0:0:
270,9,224072,1,8,0:0:0:0:
286,48,224149,1,0,0:0:0:0:
281,89,224226,54,0,B|160:62|161:133|52:96,1,228.0570560225,6|8,0:0|0:0,0:0:0:0:
109,13,224690,1,0,0:0:0:0:
113,241,224845,1,2,0:0:0:0:
230,156,225000,1,2,0:0:0:0:
9,244,225154,1,8,0:0:0:0:
213,291,225309,6,0,B|222:194|222:194|201:159|201:159|209:69,1,228.0570560225,2|2,0:0|0:0,0:0:0:0:
410,154,225773,2,0,P|314:125|265:147,1,114.02852801125,8|0,0:0|0:0,0:0:0:0:
105,262,226082,1,2,0:0:0:0:
331,232,226237,1,2,0:0:0:0:
124,133,226391,2,0,P|102:185|112:240,1,114.02852801125,8|2,0:0|0:0,0:0:0:0:
273,339,226623,1,2,0:0:0:0:
273,339,226701,54,0,B|154:299|164:378|33:333,1,228.0570560225,2|8,0:0|0:0,0:0:0:0:
10,240,227164,1,0,0:0:0:0:
200,196,227319,1,2,0:0:0:0:
47,76,227474,1,2,0:0:0:0:
241,12,227628,2,0,P|254:66|242:122,1,114.02852801125,8|2,0:0|0:0,0:0:0:0:
97,264,227938,6,0,P|172:261|224:297,1,114.02852801125,0|2,0:0|0:0,0:0:0:0:
403,187,228247,2,0,P|350:208|295:201,1,114.02852801125,8|0,0:0|0:0,0:0:0:0:
175,67,228556,1,2,0:0:0:0:
336,121,228711,1,2,0:0:0:0:
109,132,228865,2,0,P|86:74|107:4,1,114.02852801125,8|2,0:0|0:0,0:0:0:0:
259,59,229097,1,2,0:0:0:0:
259,59,229175,54,0,B|227:153|290:129|252:229,1,171.042792016875,2|0,0:0|0:0,0:0:0:0:
183,282,229484,2,0,P|164:211|187:162,1,114.02852801125,8|0,0:0|0:0,0:0:0:0:
367,287,229793,2,0,P|350:342|303:379,1,114.02852801125,2|2,0:0|0:0,0:0:0:0:
44,358,230103,2,0,P|100:343|155:366,1,114.02852801125,8|2,0:0|0:0,0:0:0:0:
348,197,230412,6,0,P|293:230|278:284,1,114.02852801125,0|2,0:0|0:0,0:0:0:0:
54,168,230721,2,0,P|110:199|164:185,1,114.02852801125,8|0,0:0|0:0,0:0:0:0:
302,76,231030,1,2,0:0:0:0:
121,114,231185,1,2,0:0:0:0:
394,122,231340,2,0,P|400:61|376:10,1,114.02852801125,8|2,0:0|0:0,0:0:0:0:
26,264,231649,54,0,P|123:235|196:291,1,171.042792016875,2|0,0:0|0:0,0:0:0:0:
222,356,231958,2,0,P|285:364|335:330,1,114.02852801125,8|0,0:0|0:0,0:0:0:0:
390,137,232268,1,2,0:0:0:0:
457,288,232422,1,2,0:0:0:0:
509,57,232577,1,8,0:0:0:0:
381,161,232731,6,0,B|241:129|277:203|156:156,1,228.0570560225,2|2,0:0|0:0,0:0:0:0:
16,22,233195,1,8,0:0:0:0:
231,27,233350,1,8,0:0:0:0:
226,55,233427,1,8,0:0:0:0:
222,83,233504,1,8,0:0:0:0:
42,208,233659,1,8,0:0:0:0:
37,180,233736,1,8,0:0:0:0:
33,152,233813,1,8,0:0:0:0:
194,257,233969,1,8,0:0:0:0:
189,285,234046,1,8,0:0:0:0:
185,313,234123,54,0,B|276:307|276:307|317:328|317:328|407:320,1,228.0570560225,6|8,0:0|0:0,0:0:0:0:
508,235,234587,1,0,0:0:0:0:
335,120,234742,2,0,P|317:173|345:246,1,114.02852801125,2|2,0:0|0:0,0:0:0:0:
439,58,235051,2,0,P|384:47|334:-13,1,114.02852801125,8|2,0:0|0:0,0:0:0:0:
179,210,235360,5,0,0:0:0:0:
323,240,235515,1,2,0:0:0:0:
107,326,235670,1,8,0:0:0:0:
193,130,235824,1,8,0:0:0:0:
189,158,235901,1,8,0:0:0:0:
184,186,235978,1,8,0:0:0:0:
76,101,236134,1,2,0:0:0:0:
310,159,236288,1,8,0:0:0:0:
179,210,236443,1,2,0:0:0:0:
399,36,236597,54,0,B|387:70|367:92|367:92|407:139|388:192,1,171.042792016875,2|0,0:0|0:0,0:3:0:0:
451,282,236907,2,0,P|394:270|331:299,1,114.02852801125,12|0,0:0|0:0,0:0:0:0:
122,287,237216,2,0,P|174:305|229:293,1,114.02852801125,2|2,0:0|0:0,0:0:0:0:
253,79,237525,1,12,0:0:0:0:
179,210,237680,1,2,0:0:0:0:
393,374,237835,6,0,B|262:333|285:432|134:359,1,228.0570560225,2|12,0:0|0:0,0:0:0:0:
98,197,238298,1,2,0:0:0:0:
125,200,238376,1,2,0:0:0:0:
153,205,238453,1,2,0:0:0:0:
114,282,238608,1,2,0:0:0:0:
161,77,238762,1,8,0:0:0:0:
255,224,238917,1,2,0:0:0:0:
27,93,239072,54,0,B|111:85|111:85|161:103|161:103|251:95,1,228.0570560225,6|8,0:0|0:0,0:0:0:0:
350,29,239536,1,2,0:0:0:0:
411,211,239690,2,0,P|413:137|444:102,1,114.02852801125,2|2,0:0|0:0,0:0:0:0:
267,207,240000,2,0,P|299:254|293:311,1,114.02852801125,12|2,0:0|0:0,0:0:0:0:
49,275,240309,6,0,B|127:268|127:268|157:280|157:280|229:274,1,171.042792016875,2|0,0:0|0:0,0:0:0:0:
301,316,240618,2,0,L|423:307,1,114.02852801125,8|2,0:0|0:0,0:0:0:0:
386,131,240927,1,2,0:0:0:0:
350,218,241082,1,2,0:0:0:0:
477,165,241237,2,0,P|482:101|441:42,1,114.02852801125,8|2,0:0|0:0,0:0:0:0:
261,61,241546,54,0,P|326:59|373:28,1,114.02852801125,6|0,0:0|0:0,0:0:0:0:
153,26,241855,1,8,0:0:0:0:
244,185,242010,2,0,L|270:59,1,114.02852801125,8|2,0:0|0:0,0:0:0:0:
146,125,242319,1,2,0:0:0:0:
348,231,242474,2,0,P|299:207|235:204,1,114.02852801125,2|2,0:0|0:0,0:0:0:0:
238,352,242783,54,0,P|302:310|227:306,1,190.071323150313,2|0,0:0|0:0,0:0:0:0:
152,343,243247,2,0,B|121:233|200:259|154:130,1,190.071323150313,2|0,0:0|0:0,0:0:0:0:
97,108,243711,2,0,P|163:112|236:82,1,114.042793890188,2|0,0:0|0:0,0:0:0:0:
224,7,244020,6,0,P|292:53|293:136,1,171.042792016875,6|0,0:0|0:0,0:0:0:0:
272,242,244329,2,0,P|315:207|376:205,1,114.02852801125,8|0,0:0|0:0,0:0:0:0:
452,300,244639,1,2,0:0:0:0:
481,186,244793,1,2,0:0:0:0:
352,289,244948,1,8,0:0:0:0:
253,86,245103,6,0,B|265:122|240:161|240:161|188:188|176:237|189:272|197:288|211:301,1,228.0570560225,2|2,0:0|0:0,0:0:0:0:
44,360,245567,2,0,P|75:293|62:255,1,114.02852801125,8|0,0:0|0:0,0:0:0:0:
23,60,245876,1,2,0:0:0:0:
175,109,246030,1,2,0:0:0:0:
20,181,246185,2,0,P|90:173|135:201,1,114.02852801125,8|2,0:0|0:0,0:0:0:0:
236,369,246494,54,0,B|243:280|243:280|269:245|269:245|279:133,1,228.0570560225,2|8,0:0|0:0,0:0:0:0:
258,39,246958,1,0,0:0:0:0:
334,305,247113,1,2,0:0:0:0:
185,207,247268,1,2,0:0:0:0:
419,150,247422,1,8,0:0:0:0:
108,138,247577,6,0,B|172:110|172:110|358:138,1,228.0570560225,2|2,0:0|0:0,0:0:0:0:
491,97,248041,2,0,P|425:61|378:70,1,114.02852801125,8|0,0:0|0:0,0:0:0:0:
291,209,248350,1,2,0:0:0:0:
251,51,248505,1,2,0:0:0:0:
425,163,248659,2,0,L|408:291,1,114.02852801125,8|2,0:0|0:0,0:0:0:0:
171,363,248969,54,0,B|311:333|280:403|410:361,1,228.0570560225,2|8,0:0|0:0,0:0:0:0:
498,242,249433,1,0,0:0:0:0:
286,198,249587,1,2,0:0:0:0:
437,153,249742,1,2,0:0:0:0:
390,375,249896,1,8,0:0:0:0:
280,180,250051,6,0,B|188:171|188:171|146:192|146:192|49:183,1,228.0570560225,2|2,0:0|0:0,0:0:0:0:
270,287,250515,2,0,P|334:276|375:230,1,114.02852801125,8|0,0:0|0:0,0:0:0:0:
396,29,250824,1,2,0:0:0:0:
275,170,250979,1,2,0:0:0:0:
478,197,251134,2,0,P|436:147|376:134,1,114.02852801125,8|2,0:0|0:0,0:0:0:0:
29,106,251443,54,0,P|129:114|203:38,1,171.042792016875,2|0,0:0|0:0,0:0:0:0:
270,159,251752,2,0,P|264:98|297:53,1,114.02852801125,8|0,0:0|0:0,0:0:0:0:
340,272,252061,1,2,0:0:0:0:
171,192,252216,1,2,0:0:0:0:
426,217,252371,2,0,P|443:284|424:345,1,114.02852801125,8|2,0:0|0:0,0:0:0:0:
169,338,252680,5,6,0:0:0:0:
334,194,252835,1,8,0:0:0:0:
336,222,252912,1,8,0:0:0:0:
339,250,252989,1,8,0:0:0:0:
160,176,253144,2,0,L|169:58,1,114.02852801125,2|0,0:0|0:0,0:0:0:0:
188,53,253376,1,2,0:0:0:0:
211,40,253453,1,2,0:0:0:0:
491,172,253608,1,8,0:0:0:0:
453,192,253685,1,8,0:0:0:0:
411,199,253762,1,8,0:0:0:0:
370,190,253839,1,8,0:0:0:0:
333,167,253917,54,0,P|267:150|154:203,1,171.042792016875,6|0,0:0|0:0,0:0:0:0:
82,246,254226,2,0,L|72:104,1,114.02852801125,8|0,0:0|0:0,0:0:0:0:
190,283,254536,1,2,0:0:0:0:
58,351,254690,1,2,0:0:0:0:
248,374,254845,1,8,0:0:0:0:
72,112,255000,6,0,B|32:185|32:185|54:338,1,228.0570560225,2|2,0:0|0:0,0:0:0:0:
331,151,255463,2,0,P|249:122|184:152,1,114.02852801125,8|0,0:0|0:0,0:0:0:0:
253,236,255773,1,2,0:0:0:0:
303,35,255927,1,2,0:0:0:0:
419,204,256082,2,0,P|433:132|394:63,1,114.02852801125,8|2,0:0|0:0,0:0:0:0:
415,305,256391,54,0,B|321:296|321:296|283:323|283:323|196:315,1,228.0570560225,2|8,0:0|0:0,0:0:0:0:
146,163,256855,1,0,0:0:0:0:
107,377,257010,1,2,0:0:0:0:
245,220,257164,1,2,0:0:0:0:
8,320,257319,1,8,0:0:0:0:
313,384,257474,6,0,B|273:258|360:284|314:155,1,228.0570560225,2|2,0:0|0:0,0:0:0:0:
136,150,257938,2,0,P|199:146|237:98,1,114.02852801125,8|0,0:0|0:0,0:0:0:0:
79,62,258247,1,2,0:0:0:0:
100,246,258402,1,2,0:0:0:0:
262,32,258556,2,0,P|232:144|251:208,1,171.042792016875,8|2,0:0|0:0,0:0:0:0:
199,286,258865,54,0,B|304:319|282:250|390:286,1,171.042792016875,6|0,0:0|0:0,0:0:0:0:
445,341,259175,2,0,P|370:378|340:375,1,114.02852801125,8|2,0:0|0:0,0:0:0:0:
336,129,259484,1,2,0:0:0:0:
450,246,259639,1,2,0:0:0:0:
248,206,259793,1,8,0:0:0:0:
470,87,259948,6,0,B|383:79|383:79|339:110|339:110|245:102,1,228.0570560225,2|2,0:0|0:0,0:0:0:0:
126,151,260412,2,0,P|88:112|4:109,1,114.02852801125,8|2,0:0|0:0,0:0:0:0:
159,276,260721,1,8,0:0:0:0:
254,117,260876,1,2,0:0:0:0:
298,346,261030,2,0,P|304:273|349:226,1,114.02852801125,8|2,0:0|0:0,0:0:0:0:
414,320,261340,53,12,0:0:0:0:
189,367,261494,1,2,0:0:0:0:
473,379,261649,5,8,0:0:0:0:
226,269,261804,1,2,0:0:0:0:
350,124,261958,53,8,0:0:0:0:
414,320,262113,1,2,0:0:0:0:
238,129,262268,5,8,0:0:0:0:
496,75,262422,1,2,0:0:0:0:
507,100,262499,1,2,0:0:0:0:
512,128,262576,1,2,0:0:0:0:
508,157,262653,1,2,0:0:0:0:
497,183,262731,2,0,P|477:206|439:227,1,57.0142640056249,8|0,0:0|0:0,0:0:0:0:
238,129,262886,53,2,0:0:0:0:
266,128,262963,1,2,0:0:0:0:
293,126,263040,1,2,0:0:0:0:
322,125,263117,1,2,0:0:0:0:
350,124,263195,2,0,L|415:133,1,57.0142640056249,8|0,0:0|0:0,0:0:0:0:
132,207,263350,5,2,0:0:0:0:
117,173,263427,1,2,0:0:0:0:
110,136,263504,1,2,0:0:0:0:
115,98,263581,1,2,0:0:0:0:
129,64,263659,2,0,P|154:32|204:5,1,57.0142640056249,8|0,0:0|0:0,0:0:0:0:
238,129,263814,53,12,0:0:0:0:
55,53,263969,1,2,0:0:0:0:
345,38,264123,5,8,0:0:0:0:
290,302,264278,1,2,0:0:0:0:
243,53,264433,53,8,0:0:0:0:
298,308,264588,1,2,0:0:0:0:
381,204,264742,2,0,P|330:178|251:184,1,114.02852801125,8|2,0:0|0:0,0:0:0:0:
109,277,265051,5,8,0:0:0:0:
453,327,265206,1,2,0:0:0:0:
113,287,265360,53,8,0:0:0:0:
457,337,265515,1,2,0:0:0:0:
196,115,265670,2,0,P|179:177|197:233,1,114.02852801125,8|2,0:0|0:0,0:0:0:0:
309,382,265979,2,0,P|321:327|304:273,1,114.02852801125,8|2,0:0|0:0,0:0:0:0:
100,240,266288,5,8,0:0:0:0:
283,164,266443,1,2,0:0:0:0:
74,44,266597,53,8,0:0:0:0:
162,302,266752,1,2,0:0:0:0:
249,49,266907,5,8,0:0:0:0:
156,313,267061,1,2,0:0:0:0:
171,135,267216,2,0,P|231:131|294:177,1,114.02852801125,8|2,0:0|0:0,0:0:0:0:
408,303,267525,53,8,0:0:0:0:
125,226,267680,1,2,0:0:0:0:
410,312,267835,5,8,0:0:0:0:
127,235,267990,1,2,0:0:0:0:
226,345,268144,53,8,0:0:0:0:
178,144,268298,1,2,0:0:0:0:
407,295,268453,2,0,L|266:258,1,114.02852801125,12|2,0:0|0:0,0:0:0:0:
376,31,268762,5,12,0:0:0:0:
394,172,268917,1,2,0:0:0:0:
169,134,269072,53,8,0:0:0:0:
461,67,269226,1,2,0:0:0:0:
134,44,269381,5,8,0:0:0:0:
476,73,269535,1,2,0:0:0:0:
285,271,269690,53,8,0:0:0:0:
371,21,269845,1,2,0:0:0:0:
134,227,270000,5,8,0:0:0:0:
492,161,270154,1,2,0:0:0:0:
139,242,270309,53,8,0:0:0:0:
497,176,270463,1,2,0:0:0:0:
306,378,270618,6,0,P|280:320|288:260,1,114.02852801125,8|2,0:0|0:0,0:0:0:0:
380,41,270927,2,0,P|382:97|357:148,1,114.02852801125,8|2,0:0|0:0,0:0:0:0:
207,285,271237,53,8,0:0:0:0:
176,154,271391,1,2,0:0:0:0:
368,298,271546,5,8,0:0:0:0:
88,239,271701,1,2,0:0:0:0:
414,170,271855,53,8,0:0:0:0:
86,252,272010,1,2,0:0:0:0:
313,198,272164,5,8,0:0:0:0:
262,297,272318,1,2,0:0:0:0:
346,82,272474,54,0,L|418:68,1,57.0142640056249,8|0,0:0|0:0,0:0:0:0:
278,189,272628,1,2,0:0:0:0:
236,180,272705,1,2,0:0:0:0:
194,172,272782,1,2,0:0:0:0:
152,164,272859,1,2,0:0:0:0:
110,156,272938,6,0,L|32:139,1,57.0142640056249,8|0,0:0|0:0,0:0:0:0:
178,313,273092,1,2,0:0:0:0:
220,305,273169,1,2,0:0:0:0:
262,297,273246,1,2,0:0:0:0:
304,289,273323,1,2,0:0:0:0:
346,281,273402,54,0,L|427:306,1,57.0142640056249,8|0,0:0|0:0,0:0:0:0:
202,70,273556,2,0,L|147:86,1,57.0142640056249,8|0,0:0|0:0,0:0:0:0:
292,147,273711,5,8,0:0:0:0:
317,19,273865,1,2,0:0:0:0:
152,164,274020,53,8,0:0:0:0:
432,130,274175,1,2,0:0:0:0:
147,85,274329,5,8,0:0:0:0:
434,220,274484,1,2,0:0:0:0:
157,243,274639,53,8,0:0:0:0:
220,124,274793,1,2,0:0:0:0:
264,340,274948,5,8,0:0:0:0:
154,80,275103,1,2,0:0:0:0:
273,331,275257,53,8,0:0:0:0:
163,71,275412,1,2,0:0:0:0:
160,253,275567,5,8,0:0:0:0:
292,147,275721,1,2,0:0:0:0:
49,216,275876,2,0,L|69:340,1,114.02852801125,8|2,0:0|0:0,0:0:0:0:
256,245,276185,53,8,0:0:0:0:
128,148,276340,1,2,0:0:0:0:
357,86,276494,5,8,0:0:0:0:
263,335,276649,1,2,0:0:0:0:
227,39,276804,53,8,0:0:0:0:
269,343,276959,1,2,0:0:0:0:
438,148,277113,5,8,0:0:0:0:
342,183,277268,1,2,0:0:0:0:
499,230,277422,53,8,0:0:0:0:
189,101,277577,1,2,0:0:0:0:
497,219,277731,5,8,0:0:0:0:
187,90,277886,1,2,0:0:0:0:
283,326,278041,53,8,0:0:0:0:
351,31,278195,1,2,0:0:0:0:
396,360,278350,5,8,0:0:0:0:
331,117,278504,1,2,0:0:0:0:
207,267,278659,54,0,P|250:236|331:249,1,114.02852801125,8|2,0:0|0:0,0:0:0:0:
229,102,278969,1,8,0:0:0:0:
283,326,279123,1,2,0:0:0:0:
341,34,279278,5,8,0:0:0:0:
207,267,279432,1,2,0:0:0:0:
150,71,279587,53,8,0:0:0:0:
252,184,279742,1,2,0:0:0:0:
107,191,279896,5,8,0:0:0:0:
409,104,280051,1,2,0:0:0:0:
105,206,280206,53,8,0:0:0:0:
407,119,280361,1,2,0:0:0:0:
195,105,280515,5,8,0:0:0:0:
391,204,280670,1,10,0:0:0:0:
386,232,280747,1,10,0:0:0:0:
382,260,280824,1,8,0:0:0:0:
378,288,280901,1,2,0:0:0:0:
374,316,280979,1,2,0:0:0:0:
277,157,281134,54,0,P|289:88|261:34,1,114.02852801125,6|0,0:0|0:0,0:0:0:0:
195,105,281443,1,8,0:0:0:0:
377,83,281597,1,8,0:0:0:0:
196,235,281752,1,8,0:0:0:0:
451,133,281906,1,8,0:0:0:0:
137,42,282061,1,8,0:0:0:0:
435,227,282216,1,8,0:0:0:0:
116,300,282371,6,0,P|99:213|132:155,1,114.02852801125,6|0,0:0|0:0,0:0:0:0:
161,125,282603,1,8,0:0:0:0:
184,113,282680,1,8,0:0:0:0:
272,253,282835,1,8,0:0:0:0:
244,246,282912,1,8,0:0:0:0:
216,240,282989,53,8,0:0:0:0:
352,161,283144,1,2,0:0:0:0:
294,371,283298,1,2,0:0:0:0:
425,291,283453,1,2,0:0:0:0:
239,39,283608,22,0,P|255:338|271:38,1,912,4|0,0:0|0:0,0:0:0:0:
256,192,292730,12,0,301664,0:0:0:0:
