osu file format v14

[General]
AudioFilename: audio.mp3
AudioLeadIn: 0
PreviewTime: 197750
Countdown: 0
SampleSet: Soft
StackLeniency: 0.5
Mode: 0
LetterboxInBreaks: 0
WidescreenStoryboard: 1

[Editor]
Bookmarks: 80623,84798,121448,127788,179580,197363,208961
DistanceSpacing: 1.3
BeatDivisor: 4
GridSize: 16
TimelineZoom: 1.4

[Metadata]
Title:Fairytale,
TitleUnicode:Fairytale,
Artist:Ito Kashitaro
ArtistUnicode:伊東歌詞太郎
Creator:Battle
Version:Yakusoku
Source:
Tags:gumi hero buzzg Haruto Haruto_Aizawa Nerova_Riuz_GX NRG SnowNiNo_ Doormat Anxient utaite male vocal cilia vocaloid cover japanese rock jrock j-rock dakinibrave xayah
BeatmapID:2088551
BeatmapSetID:417615

[Difficulty]
HPDrainRate:6
CircleSize:4
OverallDifficulty:8.7
ApproachRate:9.4
SliderMultiplier:1.6
SliderTickRate:1

[Events]
//Background and Video events
0,0,"5b7c7dd6f0.jpg",0,0
Video,-621,"y.avi"
//Break Periods
2,83085,84232
//Storyboard Layer 0 (Background)
//Storyboard Layer 1 (Fail)
//Storyboard Layer 2 (Pass)
//Storyboard Layer 3 (Foreground)
//Storyboard Layer 4 (Overlay)
//Storyboard Sound Samples

[TimingPoints]
1436,309.278350515464,4,2,2,60,1,0
1436,-200,4,2,2,60,0,0
8781,-200,4,2,2,5,0,0
8858,-200,4,2,2,60,0,0
18678,-200,4,2,2,5,0,0
18755,-200,4,2,2,60,0,0
26178,-250,4,2,2,60,0,0
28652,-200,4,2,2,60,0,0
33523,-200,4,2,2,5,0,0
33600,-200,4,2,2,60,0,0
38549,-333.333333333333,4,2,2,60,0,0
38626,-333.333333333333,4,2,2,60,0,0
39477,-333.333333333333,4,2,2,60,0,0
39786,-1000,4,2,2,60,0,0
39863,-1000,4,2,2,60,0,0
41796,-1000,4,2,2,5,0,0
41951,-1000,4,2,2,60,0,0
42183,-1000,4,2,2,5,0,0
42260,-200,4,2,2,60,0,0
42647,-1000,4,2,2,5,0,0
42724,-200,4,2,2,60,0,0
43111,-200,4,2,2,5,0,0
43188,-100,4,2,2,60,0,0
43420,-100,4,2,2,5,0,0
43497,-90.9090909090909,4,2,3,80,0,1
43575,-90.9090909090909,4,2,3,80,0,1
43729,-90.9090909090909,4,2,3,5,0,1
43807,-90.9090909090909,4,2,3,80,0,1
51152,-90.9090909090909,4,2,3,5,0,1
51229,-90.9090909090909,4,2,3,80,0,1
56100,-90.9090909090909,4,2,3,5,0,1
56178,-90.9090909090909,4,2,3,80,0,1
59503,-90.9090909090909,4,2,3,5,0,1
59580,-90.9090909090909,4,2,3,80,0,1
63368,-90.9090909090909,4,2,3,80,0,1
63523,-90.9090909090909,4,2,3,5,0,1
63600,-90.9090909090909,4,2,3,80,0,1
68472,-90.9090909090909,4,2,3,5,0,1
68549,-90.9090909090909,4,2,3,80,0,1
80611,-100,4,2,1,60,0,0
85559,-133.333333333333,4,2,1,60,0,0
86100,-133.333333333333,4,2,1,5,0,0
86178,-133.333333333333,4,2,1,60,0,0
88575,-133.333333333333,4,2,1,5,0,0
88652,-133.333333333333,4,2,1,60,0,0
90508,-100,4,2,1,60,0,0
95456,-100,4,2,1,80,0,0
97853,-100,4,2,1,5,0,0
97930,-100,4,2,1,80,0,0
100405,-166.666666666667,4,2,1,40,0,0
101023,-100,4,2,1,40,0,0
101642,-117.647058823529,4,2,1,60,0,0
108987,-117.647058823529,4,2,1,5,0,0
109064,-117.647058823529,4,2,1,60,0,0
118884,-117.647058823529,4,2,1,5,0,0
118961,-100,4,2,1,60,0,0
119657,-100,4,2,1,5,0,0
119734,-100,4,2,1,60,0,0
120817,-117.647058823529,4,2,1,60,0,0
121436,309.278350515464,6,2,2,40,1,0
121436,-250,6,2,2,40,0,0
128240,-133.333333333333,6,2,2,40,0,0
140920,-166.666666666667,6,2,2,40,0,0
141384,-142.857142857143,6,2,2,40,0,0
141848,-133.333333333333,6,2,2,40,0,0
142621,-133.333333333333,6,2,1,40,0,0
143704,-133.333333333333,6,2,4,40,0,0
153910,-100,6,2,4,40,0,0
154838,309.278350515464,4,2,3,60,1,0
157312,-90.9090909090909,4,2,3,60,0,0
158781,-90.9090909090909,4,2,3,5,0,0
158858,-90.9090909090909,4,2,3,60,0,0
159786,-90.9090909090909,4,2,3,60,0,0
165894,-90.9090909090909,4,2,3,5,0,0
165972,-90.9090909090909,4,2,3,60,0,0
169528,-133.333333333333,4,2,3,60,0,0
169838,-133.333333333333,4,2,3,60,0,0
170147,-90.9090909090909,4,2,3,60,0,0
177338,-90.9090909090909,4,2,3,5,0,0
177415,-90.9090909090909,4,2,3,60,0,0
179580,-100,4,2,3,60,0,0
188008,-100,4,2,3,5,0,0
188085,-100,4,2,3,60,0,0
189709,-100,4,2,3,5,0,0
189786,-100,4,2,3,60,0,0
192183,-100,4,2,3,5,0,0
192260,-100,4,2,3,60,0,0
197363,-117.647058823529,4,2,3,60,0,0
198136,-166.666666666667,4,2,2,60,0,0
199374,-200,4,2,2,60,0,0
199451,-200,4,2,2,60,0,0
200224,-200,4,2,2,5,0,0
200301,-200,4,2,2,60,0,0
200611,-200,4,2,2,60,0,0
201539,-200,4,2,2,5,0,0
201616,-200,4,2,2,80,0,0
201848,-200,4,2,2,80,0,0
202466,-90.9090909090909,4,2,2,80,0,0
202688,309.278350515464,4,2,2,60,1,0
202688,-90.9090909090909,4,2,2,60,0,0
202919,-133.333333333333,4,2,2,5,0,0
203056,309.278350515464,4,2,2,60,1,0
203056,-100,4,2,2,60,0,0
203365,-100,4,2,2,5,0,0
203486,309.278350515464,4,2,2,60,1,0
203486,-100,4,2,2,60,0,0
203872,-100,4,2,2,5,0,0
204004,309.278350515464,4,2,2,60,1,0
204004,-100,4,2,2,60,0,0
204235,-100,4,2,2,5,0,0
204322,309.278350515464,4,2,3,80,1,1
204322,-90.9090909090909,4,2,3,80,0,1
204399,-90.9090909090909,4,2,3,80,0,1
204553,-90.9090909090909,4,2,3,5,0,1
204631,-90.9090909090909,4,2,3,80,0,1
207028,-90.9090909090909,4,2,3,5,0,1
207105,-90.9090909090909,4,2,3,80,0,1
216925,-90.9090909090909,4,2,3,5,0,1
217002,-90.9090909090909,4,2,3,80,0,1
219167,-58.8235294117647,4,2,3,80,0,1
220327,-58.8235294117647,4,2,3,5,0,1
220404,-58.8235294117647,4,2,3,80,0,1
224193,-90.9090909090909,4,2,3,80,0,1
229296,-90.9090909090909,4,2,3,5,0,1
229373,-90.9090909090909,4,2,3,80,0,1
231770,-90.9090909090909,4,2,3,5,0,1
231847,-90.9090909090909,4,2,3,80,0,1
236718,-90.9090909090909,4,2,3,5,0,1
236796,-90.9090909090909,4,2,3,80,0,1
240430,-90.9090909090909,4,2,3,5,0,1
240507,-90.9090909090909,4,2,3,80,0,1
242672,-133.333333333333,4,2,2,60,0,1
243059,-133.333333333333,4,2,2,5,0,1
243136,-133.333333333333,4,2,2,60,0,1
243523,-133.333333333333,4,2,2,5,0,1
243600,-133.333333333333,4,2,2,60,0,1
243832,-133.333333333333,4,2,2,5,0,1
243909,-90.9090909090909,4,2,3,80,0,0
251564,-90.9090909090909,4,2,3,5,0,0
251641,-90.9090909090909,4,2,3,80,0,0
254038,-90.9090909090909,4,2,3,5,0,0
254115,-90.9090909090909,4,2,3,80,0,0
258677,-90.9090909090909,4,2,3,5,0,0
258754,-90.9090909090909,4,2,3,80,0,0
258986,-90.9090909090909,4,2,3,5,0,0
259064,-90.9090909090909,4,2,3,80,0,0
263394,-62.5,4,2,3,80,0,0
263703,-90.9090909090909,4,2,3,80,0,0
272672,-55.5555555555556,4,2,3,80,0,0
274837,-90.9090909090909,4,2,3,80,0,0
281950,-55.5555555555556,4,2,3,80,0,0
283187,-100,4,2,3,80,0,0
283497,-400,4,2,3,60,0,0
283574,-400,4,2,3,60,0,0
292619,-400,4,2,3,35,0,0

[Colours]
Combo1 : 145,191,102
Combo2 : 67,124,135
Combo3 : 179,152,128
Combo4 : 185,104,81

[HitObjects]
84,241,1126,5,2,0:0:0:0:
24,324,1281,1,2,0:0:0:0:
122,356,1436,2,0,L|109:317,1,40,2|0,0:0|0:0,0:0:0:0:
84,241,1745,1,0,0:0:0:0:
214,373,1899,2,0,L|188:293,1,80,2|0,0:0|0:0,0:0:0:0:
297,269,2363,2,0,B|243:306|243:306|184:296,1,120,2|0,0:0|0:0,0:0:0:0:
383,273,2982,2,0,P|350:203|339:198,1,80,2|2,0:0|0:0,0:0:0:0:
320,333,3600,1,2,0:0:0:0:
320,333,3910,6,0,L|355:378,1,40,2|0,0:0|0:0,0:0:0:0:
397,292,4219,1,2,0:0:0:0:
223,263,4374,2,0,L|312:246,1,80,2|2,0:0|0:0,0:0:0:0:
310,93,4838,2,0,P|242:126|232:174,1,120,2|0,0:0|0:0,0:0:0:0:
313,181,5456,1,0,0:0:0:0:
194,63,5765,1,0,0:0:0:0:
194,63,6075,2,0,P|166:44|156:26,1,40,2|2,0:0|0:0,0:0:0:0:
20,125,6384,6,0,L|70:117,1,40,2|0,0:0|0:0,0:0:0:0:
181,265,6693,1,2,0:0:0:0:
150,181,6848,2,0,L|229:193,1,80,2|2,0:0|0:0,0:0:0:0:
76,335,7312,2,0,P|69:278|60:208,1,120,2|0,0:0|0:0,0:0:0:0:
155,264,7930,2,0,L|235:277,1,80,2|0,0:0|0:0,0:0:0:0:
180,355,8549,1,2,0:0:0:0:
306,233,8858,6,0,P|278:204|261:200,1,40,2|0,0:0|0:0,0:0:0:0:
233,276,9167,1,0,0:0:0:0:
389,237,9322,2,0,L|371:333,1,80,2|0,0:0|0:0,0:0:0:0:
512,166,9786,2,0,P|470:140|399:160,1,120,2|0,0:0|0:0,0:0:0:0:
287,86,10405,2,0,P|323:90|371:63,1,80
375,240,11023,5,2,0:0:0:0:
309,172,11178,1,2,0:0:0:0:
322,306,11332,2,0,L|285:267,1,40,2|0,0:0|0:0,0:0:0:0:
375,240,11642,1,2,0:0:0:0:
207,285,11796,2,0,P|212:235|237:210,1,80,2|2,0:0|0:0,0:0:0:0:
396,174,12260,2,0,B|300:186|343:116|235:121,1,160,2|2,0:0|0:0,0:0:0:0:
171,175,13188,1,2,0:0:0:0:
93,120,13497,1,2,0:0:0:0:
171,48,13807,6,0,L|158:9,1,40,2|0,0:0|0:0,0:0:0:0:
89,107,14116,1,2,0:0:0:0:
203,143,14271,2,0,P|163:175|158:215,1,80,2|2,0:0|0:0,0:0:0:0:
269,332,14734,2,0,L|238:213,1,120,2|0,0:0|0:0,0:0:0:0:
397,281,15353,2,0,L|349:265,1,40,2|0,0:0|0:0,0:0:0:0:
376,106,15662,1,2,0:0:0:0:
317,172,15817,2,0,L|405:201,1,80,2|2,0:0|0:0,0:0:0:0:
451,64,16281,6,0,P|419:28|388:21,1,80,2|2,0:0|0:0,0:0:0:0:
264,139,16745,2,0,L|352:168,1,80,2|2,0:0|0:0,0:0:0:0:
308,15,17209,2,0,P|279:45|204:29,1,120,2|0,0:0|0:0,0:0:0:0:
125,110,17827,2,0,L|110:31,1,80,2|0,0:0|0:0,0:0:0:0:
211,130,18446,1,2,0:0:0:0:
44,114,18755,6,0,P|24:158|37:199,1,80,2|2,0:0|0:0,0:0:0:0:
90,342,19219,2,0,P|110:298|97:257,1,80,2|2,0:0|0:0,0:0:0:0:
143,174,19683,2,0,B|235:157|201:220|304:188,1,160,2|0,0:0|0:0,0:0:0:0:
290,32,20611,2,0,P|259:73|262:112,1,80,0|2,0:0|0:0,0:0:0:0:
364,115,21229,6,0,L|370:205,2,80,2|0|2,0:0|0:0|0:0,0:0:0:0:
240,214,22157,2,0,P|281:170|377:208,1,160,2|2,0:0|0:0,0:0:0:0:
312,281,23394,1,2,0:0:0:0:
240,214,23704,6,0,P|253:169|244:134,1,80,2|2,0:0|0:0,0:0:0:0:
168,75,24322,1,2,0:0:0:0:
54,174,24631,2,0,B|79:187|79:187|170:174,1,120,2|2,0:0|0:0,0:0:0:0:
247,64,25250,2,0,L|165:75,1,80,2|0,0:0|0:0,0:0:0:0:
169,174,25868,1,2,0:0:0:0:
307,173,26178,6,0,B|290:105|340:133|324:45,3,128,2|2|2|2,0:0|0:0|0:0|0:0,0:0:0:0:
386,185,28652,6,0,L|301:172,3,80,2|2|2|2,0:0|0:0|0:0|0:0,0:0:0:0:
245,250,29889,2,0,L|160:263,2,80,2|2|2,0:0|0:0|0:0,0:0:0:0:
103,341,30972,5,2,0:0:0:0:
27,299,31126,2,0,P|13:262|30:212,1,80,2|2,0:0|0:0,0:0:0:0:
57,69,31590,2,0,P|71:106|54:156,1,80,2|2,0:0|0:0,0:0:0:0:
222,232,32054,2,0,B|155:248|155:248|96:223,1,120,2|0,0:0|0:0,0:0:0:0:
160,166,32673,1,2,0:0:0:0:
233,270,33291,2,0,L|218:218,1,40,2|0,0:0|0:0,0:0:0:0:
326,113,33600,6,0,L|307:192,1,80,2|2,0:0|0:0,0:0:0:0:
417,88,34064,2,0,L|398:167,1,80,2|2,0:0|0:0,0:0:0:0:
253,86,34528,2,0,P|295:38|350:38,1,120,2|0,0:0|0:0,0:0:0:0:
326,113,35147,1,2,0:0:0:0:
178,49,35920,5,2,0:0:0:0:
253,86,36075,2,0,P|226:121|178:133,1,80,2|2,0:0|0:0,0:0:0:0:
78,84,36693,1,2,0:0:0:0:
79,212,37003,2,0,P|97:163|199:134,1,160,2|2,0:0|0:0,0:0:0:0:
173,228,37930,2,0,L|164:313,1,80
247,370,38549,6,0,P|298:342|381:356,1,143.999995605469,2|0,0:0|0:0,0:0:0:0:
247,370,39786,6,0,L|258:257,1,112,2|2,0:0|0:0,0:0:0:0:
165,300,42260,6,0,P|129:318|73:298,1,100,2|0,0:0|0:0,0:0:0:0:
160,183,42724,2,0,B|150:231|150:231|167:308,1,120,2|2,0:0|0:0,0:0:0:0:
86,133,43497,6,0,P|139:92|175:93,1,88.000002685547,6|0,0:0|0:0,0:0:0:0:
243,270,43807,1,8,0:0:0:0:
160,183,43961,1,0,0:0:0:0:
311,102,44116,2,0,L|256:176,1,88.000002685547,2|2,0:0|0:0,0:0:0:0:
174,0,44425,1,8,0:0:0:0:
85,21,44580,6,0,P|156:94|223:82,1,176.000005371094,2|0,0:0|0:0,0:0:0:0:
151,256,45044,2,0,P|183:198|184:161,1,88.000002685547,8|0,0:0|0:0,0:0:0:0:
18,231,45353,1,2,0:0:0:0:
70,148,45508,1,2,0:0:0:0:
83,300,45662,2,0,P|102:365|108:396,1,88.000002685547,8|2,0:0|0:0,0:0:0:0:
293,343,45972,6,0,P|228:328|201:316,1,88.000002685547,2|0,0:0|0:0,0:0:0:0:
35,228,46281,2,0,P|100:220|157:188,1,132.00000402832,8|0,0:0|0:0,0:0:0:0:
70,136,46590,1,2,0:0:0:0:
208,319,46745,1,2,0:0:0:0:
237,109,46899,6,0,P|201:80|193:31,1,88.000002685547,8|2,0:0|0:0,0:0:0:0:
347,133,47209,2,0,P|390:116|436:133,1,88.000002685547,2|0,0:0|0:0,0:0:0:0:
284,201,47518,2,0,P|276:246|238:278,1,88.000002685547,8|0,0:0|0:0,0:0:0:0:
196,199,47827,1,2,0:0:0:0:
337,303,47982,1,2,0:0:0:0:
141,300,48137,2,0,P|193:364|196:388,1,88.000002685547,8|2,0:0|0:0,0:0:0:0:
50,333,48368,1,2,0:0:0:0:
50,333,48446,6,0,P|38:271|30:224,1,88.000002685547,2|0,0:0|0:0,0:0:0:0:
141,300,48755,1,8,0:0:0:0:
117,89,48910,1,0,0:0:0:0:
30,101,49064,2,0,P|68:171|132:192,1,132.00000402832,2|0,0:0|0:0,0:0:0:0:
269,152,49374,2,0,P|221:121|185:122,1,88.000002685547,8|2,0:0|0:0,0:0:0:0:
159,300,49683,5,0,0:0:0:0:
204,203,49838,1,2,0:0:0:0:
50,307,49992,2,0,P|78:361|98:399,1,88.000002685547,8|0,0:0|0:0,0:0:0:0:
293,205,50301,2,0,L|229:364,1,132.00000402832,2|0,0:0|0:0,0:0:0:0:
204,203,50611,1,8,0:0:0:0:
339,313,50765,1,2,0:0:0:0:
123,179,50920,6,0,P|157:130|212:121,1,88.000002685547,2|0,0:0|0:0,0:0:0:0:
391,188,51229,2,0,P|316:177|273:111,1,132.00000402832,8|0,0:0|0:0,0:0:0:0:
360,110,51539,1,2,0:0:0:0:
244,245,51693,1,2,0:0:0:0:
187,20,51848,6,0,P|248:41|266:81,1,88.000002685547,8|2,0:0|0:0,0:0:0:0:
91,144,52157,2,0,P|78:80|104:45,1,88.000002685547,0|2,0:0|0:0,0:0:0:0:
250,164,52466,2,0,P|207:174|180:207,1,88.000002685547,8|0,0:0|0:0,0:0:0:0:
332,321,52776,1,2,0:0:0:0:
251,244,52930,1,2,0:0:0:0:
188,368,53085,2,0,L|235:357,1,44.0000013427735,12|0,0:0|0:0,0:0:0:0:
416,256,53240,1,2,0:0:0:0:
373,244,53317,1,2,0:0:0:0:
331,233,53394,5,6,0:0:0:0:
449,183,53549,1,0,0:0:0:0:
347,324,53704,1,8,0:0:0:0:
351,131,53858,5,2,0:0:0:0:
451,294,54013,1,0,0:0:0:0:
271,227,54167,1,2,0:0:0:0:
455,98,54322,6,0,P|462:147|446:186,1,88.000002685547,8|0,0:0|0:0,0:0:0:0:
313,39,54631,1,0,0:0:0:0:
368,131,54786,1,2,0:0:0:0:
168,136,54941,2,0,L|267:105,1,88.000002685547,8|0,0:0|0:0,0:0:0:0:
227,313,55250,6,0,L|256:220,1,88.000002685547,2|2,0:0|0:0,0:0:0:0:
308,384,55559,2,0,L|337:291,1,88.000002685547,8|2,0:0|0:0,0:0:0:0:
101,171,55868,2,0,P|158:234|158:267,1,88.000002685547,2|0,0:0|0:0,0:0:0:0:
56,256,56178,1,8,0:0:0:0:
201,127,56332,1,0,0:0:0:0:
1,35,56487,2,0,L|17:133,1,88.000002685547,2|2,0:0|0:0,0:0:0:0:
232,51,56796,6,0,B|188:59|188:59|149:36,1,88.000002685547,8|2,0:0|0:0,0:0:0:0:
123,197,57106,2,0,B|123:153|123:153|94:119,1,88.000002685547,0|2,0:0|0:0,0:0:0:0:
282,144,57415,2,0,B|244:165|244:165|229:207,1,88.000002685547,8|0,0:0|0:0,0:0:0:0:
192,87,57724,1,2,0:0:0:0:
308,234,57879,1,2,0:0:0:0:
370,93,58033,2,0,P|326:58|320:21,1,88.000002685547,8|2,0:0|0:0,0:0:0:0:
457,151,58343,6,0,P|429:231|424:296,1,132.00000402832,6|0,0:0|0:0,0:0:0:0:
505,248,58652,1,8,0:0:0:0:
290,256,58807,2,0,P|318:336|323:401,1,132.00000402832,4|0,0:0|0:0,0:0:0:0:
242,353,59116,1,2,0:0:0:0:
346,175,59271,2,0,P|291:163|248:129,1,88.000002685547,8|0,0:0|0:0,0:0:0:0:
38,80,59580,5,2,0:0:0:0:
136,127,59734,2,0,P|127:53|125:12,1,88.000002685547,0|8,0:0|0:0,0:0:0:0:
230,253,60044,1,2,0:0:0:0:
230,253,60121,1,0,0:0:0:0:
230,253,60198,2,0,P|157:211|84:225,1,132.00000402832,8|0,0:0|0:0,0:0:0:0:
51,292,60508,2,0,P|54:335|60:379,1,88.000002685547,8|2,0:0|0:0,0:0:0:0:
148,299,60817,5,4,0:0:0:0:
38,211,60972,1,2,0:0:0:0:
38,211,61049,1,0,0:0:0:0:
38,211,61126,2,0,L|88:205,1,44.0000013427735,8|0,0:0|0:0,0:0:0:0:
204,308,61281,2,0,L|160:313,1,44.0000013427735,2|2,0:0|0:0,0:0:0:0:
147,122,61436,2,0,L|197:116,1,44.0000013427735,2|0,0:0|0:0,0:0:0:0:
294,336,61590,1,2,0:0:0:0:
184,222,61745,1,8,0:0:0:0:
407,342,61899,1,6,0:0:0:0:
260,185,62054,6,0,L|352:283,1,132.00000402832,2|0,0:0|0:0,0:0:0:0:
294,336,62363,1,8,0:0:0:0:
367,143,62518,2,0,P|300:194|239:167,1,132.00000402832,6|0,0:0|0:0,0:0:0:0:
299,62,62827,2,0,L|288:133,1,44.0000013427735,8|8,0:0|0:0,0:0:0:0:
177,234,62982,2,0,L|170:190,1,44.0000013427735,8|8,0:0|0:0,0:0:0:0:
382,56,63137,1,8,0:0:0:0:
374,99,63214,1,0,0:0:0:0:
366,142,63291,5,6,0:0:0:0:
204,50,63446,1,0,0:0:0:0:
439,202,63600,2,0,P|384:236|340:227,1,88.000002685547,8|0,0:0|0:0,0:0:0:0:
176,178,63910,1,2,0:0:0:0:
301,131,64064,1,2,0:0:0:0:
262,269,64219,1,8,0:0:0:0:
144,58,64374,6,0,B|123:109|123:109|158:189,1,132.00000402832,2|0,0:0|0:0,0:0:0:0:
219,98,64683,1,2,0:0:0:0:
26,262,64838,2,0,P|36:200|71:173,1,88.000002685547,8|0,0:0|0:0,0:0:0:0:
157,360,65147,1,2,0:0:0:0:
108,248,65301,1,2,0:0:0:0:
293,310,65456,2,0,L|193:278,1,88.000002685547,8|2,0:0|0:0,0:0:0:0:
344,145,65765,6,0,P|298:167|278:206,1,88.000002685547,2|0,0:0|0:0,0:0:0:0:
422,316,66075,1,8,0:0:0:0:
356,228,66229,1,0,0:0:0:0:
250,380,66384,2,0,L|330:333,1,88.000002685547,2|2,0:0|0:0,0:0:0:0:
250,190,66693,6,0,P|233:246|248:286,1,88.000002685547,8|2,0:0|0:0,0:0:0:0:
346,143,67003,2,0,P|306:100|263:93,1,88.000002685547,0|2,0:0|0:0,0:0:0:0:
352,255,67312,2,0,P|408:241|436:208,1,88.000002685547,8|0,0:0|0:0,0:0:0:0:
252,189,67621,1,2,0:0:0:0:
346,143,67776,1,2,0:0:0:0:
191,281,67930,2,0,P|175:224|163:193,1,88.000002685547,8|2,0:0|0:0,0:0:0:0:
322,292,68240,6,0,P|306:333|295:375,1,88.000002685547,2|0,0:0|0:0,0:0:0:0:
259,196,68549,2,0,P|317:183|361:179,1,88.000002685547,8|0,0:0|0:0,0:0:0:0:
490,365,68858,2,0,P|446:359|403:348,1,88.000002685547,2|2,0:0|0:0,0:0:0:0:
505,186,69167,1,8,0:0:0:0:
450,267,69322,1,2,0:0:0:0:
381,91,69477,6,0,P|410:152|413:191,1,88.000002685547,0|2,0:0|0:0,0:0:0:0:
288,331,69786,2,0,P|310:293|319:250,1,88.000002685547,8|0,0:0|0:0,0:0:0:0:
210,59,70095,2,0,P|235:127|240:198,1,132.00000402832,2|0,0:0|0:0,0:0:0:0:
148,128,70405,1,8,0:0:0:0:
321,164,70559,1,2,0:0:0:0:
202,279,70714,6,0,P|146:311|104:367,1,132.00000402832,2|0,0:0|0:0,0:0:0:0:
201,374,71023,1,8,0:0:0:0:
28,267,71178,1,0,0:0:0:0:
74,160,71332,2,0,P|116:214|125:240,1,88.000002685547,2|2,0:0|0:0,0:0:0:0:
129,326,71642,1,8,0:0:0:0:
309,210,71796,6,0,P|249:189|189:93,1,176.000005371094,2|2,0:0|0:0,0:0:0:0:
334,23,72260,2,0,P|314:70|289:111,1,88.000002685547,8|0,0:0|0:0,0:0:0:0:
413,202,72492,1,0,0:0:0:0:
413,202,72570,2,0,P|395:154|393:141,1,44.0000013427735,8|8,0:0|0:0,0:0:0:0:
512,52,72724,2,0,P|505:72|495:92,1,44.0000013427735,8|8,0:0|0:0,0:0:0:0:
302,235,72879,1,2,0:0:0:0:
344,228,72956,1,0,0:0:0:0:
386,239,73033,1,2,0:0:0:0:
422,264,73110,1,0,0:0:0:0:
445,302,73188,5,6,0:0:0:0:
396,161,73343,1,0,0:0:0:0:
273,346,73497,2,0,P|347:329|366:296,1,88.000002685547,8|0,0:0|0:0,0:0:0:0:
256,158,73807,2,0,P|276:219|289:259,1,88.000002685547,2|0,0:0|0:0,0:0:0:0:
374,60,74116,1,8,0:0:0:0:
349,173,74271,1,2,0:0:0:0:
177,165,74425,6,0,P|193:106|244:86,1,88.000002685547,0|2,0:0|0:0,0:0:0:0:
146,260,74734,2,0,P|94:226|91:171,1,88.000002685547,8|0,0:0|0:0,0:0:0:0:
245,298,75044,2,0,P|230:367|222:413,1,88.000002685547,2|2,0:0|0:0,0:0:0:0:
282,203,75353,1,8,0:0:0:0:
345,275,75508,1,2,0:0:0:0:
201,164,75662,6,0,P|276:114|341:135,1,132.00000402832,2|0,0:0|0:0,0:0:0:0:
408,151,75972,2,0,P|396:82|395:51,1,88.000002685547,12|0,0:0|0:0,0:0:0:0:
460,285,76281,1,2,0:0:0:0:
507,191,76436,1,2,0:0:0:0:
357,350,76590,2,0,P|353:285|392:234,1,132.00000402832,12|0,0:0|0:0,0:0:0:0:
308,98,76899,6,0,P|318:154|293:192,1,88.000002685547
167,53,77209,1,12,0:0:0:0:
236,135,77363,1,0,0:0:0:0:
26,180,77518,2,0,P|87:152|129:135,1,88.000002685547,2|2,0:0|0:0,0:0:0:0:
165,324,77827,1,8,0:0:0:0:
108,240,77982,1,2,0:0:0:0:
108,240,78059,1,0,0:0:0:0:
108,240,78137,5,6,0:0:0:0:
239,363,78291,1,0,0:0:0:0:
70,322,78446,1,0,0:0:0:0:
225,167,78600,5,8,0:0:0:0:
158,334,78755,1,2,0:0:0:0:
300,234,78910,1,2,0:0:0:0:
91,113,79064,5,12,0:0:0:0:
207,262,79219,1,0,0:0:0:0:
40,208,79374,1,2,0:0:0:0:
188,70,79528,5,8,0:0:0:0:
126,242,79683,1,2,0:0:0:0:
265,127,79838,1,2,0:0:0:0:
56,69,79992,5,2,0:0:0:0:
172,166,80147,2,0,L|100:165,1,44.0000013427735,8|0,0:0|0:0,0:0:0:0:
0,240,80301,2,0,L|72:239,1,44.0000013427735,8|0,0:0|0:0,0:0:0:0:
209,80,80456,2,0,L|137:79,1,44.0000013427735,8|0,0:0|0:0,0:0:0:0:
27,322,80611,5,6,0:0:0:0:
201,305,84786,5,8,0:0:0:0:
201,305,84863,1,8,0:0:0:0:
201,305,84941,1,8,0:0:0:0:
183,383,85095,1,2,0:0:0:0:
212,225,85250,2,0,L|200:306,1,80,2|2,0:0|0:0,0:0:0:0:
29,194,85559,6,0,P|69:237|136:242,1,120.000004577637,6|0,0:0|0:0,0:0:0:0:
109,156,86023,1,0,0:0:0:0:
52,333,86178,2,0,L|39:262,1,60.0000022888184,8|0,0:0|0:0,0:0:0:0:
109,156,86487,1,0,0:0:0:0:
150,362,86642,2,0,L|127:244,1,120.000004577637,8|0,0:0|0:0,0:0:0:0:
287,252,87106,2,0,L|224:287,1,60.0000022888184,0|2,0:0|0:0,0:0:0:0:
152,125,87415,1,8,0:0:0:0:
218,202,87570,1,0,0:0:0:0:
272,59,87724,2,0,P|238:98|233:131,1,60.0000022888184,2|0,0:0|0:0,0:0:0:0:
372,176,88033,6,0,L|326:136,1,60.0000022888184,2|0,0:0|0:0,0:0:0:0:
367,287,88343,1,0,0:0:0:0:
294,222,88497,1,0,0:0:0:0:
455,147,88652,2,0,P|445:125|411:104,1,60.0000022888184,8|0,0:0|0:0,0:0:0:0:
447,236,88961,1,0,0:0:0:0:
298,141,89116,6,0,L|344:181,1,60.0000022888184,8|2,0:0|0:0,0:0:0:0:
243,211,89425,1,8,0:0:0:0:
135,116,89580,2,0,L|181:156,1,60.0000022888184,4|2,0:0|0:0,0:0:0:0:
262,64,89812,1,2,0:0:0:0:
262,64,89889,2,0,L|216:71,1,30.0000011444092,8|0,0:0|0:0,0:0:0:0:
241,211,90044,2,0,L|287:218,1,30.0000011444092,2|2,0:0|0:0,0:0:0:0:
374,81,90198,1,8,0:0:0:0:
359,106,90275,1,0,0:0:0:0:
353,136,90352,1,2,0:0:0:0:
358,165,90429,1,2,0:0:0:0:
372,192,90507,5,8,0:0:0:0:
470,112,90662,1,2,0:0:0:0:
263,208,90817,2,0,P|294:262|326:286,1,80,2|2,0:0|0:0,0:0:0:0:
473,311,91126,2,0,P|456:347|429:376,1,80,2|2,0:0|0:0,0:0:0:0:
352,192,91436,1,10,0:0:0:0:
393,296,91590,1,2,0:0:0:0:
466,114,91745,5,2,0:0:0:0:
433,213,91899,1,2,0:0:0:0:
395,43,92054,1,10,0:0:0:0:
365,141,92209,1,2,0:0:0:0:
229,16,92363,1,2,0:0:0:0:
282,103,92518,1,2,0:0:0:0:
129,165,92673,1,10,0:0:0:0:
196,96,92827,1,2,0:0:0:0:
111,255,92982,6,0,P|61:227|45:194,1,80,2|2,0:0|0:0,0:0:0:0:
227,301,93291,2,0,P|210:361|203:398,1,80,8|2,0:0|0:0,0:0:0:0:
193,176,93600,1,2,0:0:0:0:
111,255,93755,1,2,0:0:0:0:
347,268,93910,2,0,P|302:241|278:202,1,80,10|2,0:0|0:0,0:0:0:0:
238,137,94219,5,2,0:0:0:0:
125,165,94374,1,2,0:0:0:0:
264,0,94528,1,10,0:0:0:0:
183,76,94683,1,8,0:0:0:0:
183,76,94760,1,8,0:0:0:0:
183,76,94838,1,8,0:0:0:0:
374,161,94992,1,2,0:0:0:0:
136,254,95147,1,10,0:0:0:0:
300,85,95301,1,2,0:0:0:0:
251,377,95456,6,0,L|224:284,1,80,12|2,0:0|0:0,0:0:0:0:
129,127,95765,2,0,L|106:203,1,80,8|2,0:0|0:0,0:0:0:0:
324,326,96075,1,8,0:0:0:0:
212,207,96229,1,2,0:0:0:0:
416,245,96384,2,0,P|359:233|314:222,1,80,8|2,0:0|0:0,0:0:0:0:
226,55,96693,6,0,P|252:111|252:150,1,80,8|2,0:0|0:0,0:0:0:0:
156,115,97003,1,8,0:0:0:0:
319,39,97157,1,2,0:0:0:0:
233,217,97312,2,0,P|176:229|131:240,1,80,8|2,0:0|0:0,0:0:0:0:
36,93,97621,1,8,0:0:0:0:
129,149,97776,1,0,0:0:0:0:
68,304,97930,5,12,0:0:0:0:
26,210,98085,1,2,0:0:0:0:
197,334,98240,1,8,0:0:0:0:
106,234,98394,1,0,0:0:0:0:
300,164,98549,2,0,L|252:160,1,40,8|8,0:0|0:0,0:0:0:0:
189,255,98704,2,0,L|237:251,1,40,8|0,0:0|0:0,0:0:0:0:
297,35,98858,1,2,0:0:0:0:
158,150,99013,1,2,0:0:0:0:
402,17,99167,6,0,P|379:72|385:109,1,80,12|2,0:0|0:0,0:0:0:0:
490,217,99477,2,0,P|513:162|507:125,1,80,12|2,0:0|0:0,0:0:0:0:
381,209,99709,1,0,0:0:0:0:
386,223,99786,2,0,L|400:276,1,40,12|0,0:0|0:0,0:0:0:0:
275,160,99941,2,0,L|285:198,1,40,12|0,0:0|0:0,0:0:0:0:
393,375,100095,1,12,0:0:0:0:
362,334,100172,1,0,0:0:0:0:
312,320,100250,1,2,0:0:0:0:
89,287,100405,6,2,B|133:285|133:285|130:290|130:290|144:281|144:281|139:278|139:278|161:283|161:283|231:278,1,143.999995605469,2|0,1:0|0:0,1:0:0:0:
283,189,100946,1,0,0:0:0:0:
262,188,101023,2,0,B|238:184|245:196|245:196|228:187|228:187|222:199|183:192,1,80,10|0,1:0|0:0,0:0:0:0:
55,114,101255,2,0,B|78:110|71:122|71:122|88:113|88:113|94:125|133:118,1,80,2|0,0:0|0:0,0:0:0:0:
235,50,101487,2,0,B|237:56|232:47|232:47|218:54|218:54|224:44|205:47,1,40,2|0,0:0|0:0,0:0:0:0:
341,29,101642,6,0,P|328:76|338:104,1,68.0000012969971,6|0,0:0|0:0,0:0:0:0:
414,62,101951,1,8,0:0:0:0:
438,217,102106,2,0,P|456:175|441:128,1,68.0000012969971
393,282,102415,1,2,0:0:0:0:
285,180,102570,6,0,L|322:325,1,136.000002593994,8|0,0:0|0:0,0:0:0:0:
370,197,103033,1,2,0:0:0:0:
232,124,103188,2,0,P|206:158|207:188,1,68.0000012969971,8|0,0:0|0:0,0:0:0:0:
154,279,103497,2,0,P|180:313|179:343,1,68.0000012969971,2|2,0:0|0:0,0:0:0:0:
5,233,103807,2,0,L|81:216,1,68.0000012969971,8|2,0:0|0:0,0:0:0:0:
167,117,104039,1,0,0:0:0:0:
167,117,104116,6,0,L|88:129,1,68.0000012969971,2|2,0:0|0:0,0:0:0:0:
117,28,104425,1,8,0:0:0:0:
224,209,104580,2,0,P|215:142|252:87,1,136.000002593994,2|2,0:0|0:0,0:0:0:0:
389,179,105044,2,0,L|308:166,1,68.0000012969971,8|0,0:0|0:0,0:0:0:0:
477,107,105353,5,0,0:0:0:0:
385,89,105508,1,2,0:0:0:0:
483,283,105662,2,0,B|435:260|435:260|368:263,1,102.000001945496,8|0,0:0|0:0,0:0:0:0:
318,322,105972,2,0,L|349:391,1,68.0000012969971,2|2,0:0|0:0,0:0:0:0:
201,252,106281,1,8,0:0:0:0:
231,347,106436,1,2,0:0:0:0:
285,216,106590,6,0,P|207:165|181:172,1,102.000001945496,2|0,0:0|0:0,0:0:0:0:
201,252,106899,1,8,0:0:0:0:
92,91,107054,2,0,P|106:164|113:217,1,102.000001945496
27,151,107363,1,2,0:0:0:0:
272,105,107518,2,0,P|213:94|176:41,1,102.000001945496,8|0,0:0|0:0,0:0:0:0:
255,27,107827,5,0,0:0:0:0:
197,172,107982,1,2,0:0:0:0:
360,122,108137,2,0,P|333:164|335:185,1,68.0000012969971,8|0,0:0|0:0,0:0:0:0:
414,323,108446,2,0,P|441:281|439:260,1,68.0000012969971,2|2,0:0|0:0,0:0:0:0:
271,283,108755,2,0,L|328:387,1,102.000001945496,8|0,0:0|0:0,0:0:0:0:
188,343,109064,5,2,0:0:0:0:
233,192,109219,1,0,0:0:0:0:
94,243,109374,1,8,0:0:0:0:
174,126,109528,5,2,0:0:0:0:
190,262,109683,1,0,0:0:0:0:
319,204,109837,1,2,0:0:0:0:
101,82,109992,6,0,L|121:185,1,102.000001945496,8|0,0:0|0:0,0:0:0:0:
30,136,110301,1,0,0:0:0:0:
195,151,110456,1,2,0:0:0:0:
72,350,110611,2,0,B|48:300|48:300|60:241,1,102.000001945496,8|8,0:0|0:0,0:0:0:0:
206,306,110920,5,8,0:0:0:0:
172,298,110997,1,0,0:0:0:0:
139,291,111075,2,0,L|186:268,1,34.0000006484985,8|8,0:0|0:0,0:0:0:0:
260,369,111229,2,0,L|307:346,1,34.0000006484985,8|0,0:0|0:0,0:0:0:0:
219,92,111384,1,2,0:0:0:0:
212,138,111461,1,2,0:0:0:0:
229,182,111539,6,0,P|278:239|322:240,1,102.000001945496,6|0,0:0|0:0,0:0:0:0:
310,154,111848,1,8,0:0:0:0:
361,358,112003,2,0,P|403:293|450:289,1,102.000001945496
448,375,112312,1,2,0:0:0:0:
471,194,112466,2,0,P|496:234|518:249,1,68.0000012969971,8|0,0:0|0:0,0:0:0:0:
402,80,112776,6,0,P|377:120|355:135,1,68.0000012969971,0|2,0:0|0:0,0:0:0:0:
193,54,113085,2,0,P|259:40|322:23,1,102.000001945496,8|0,0:0|0:0,0:0:0:0:
267,134,113394,2,0,P|255:187|251:229,1,68.0000012969971,2|2,0:0|0:0,0:0:0:0:
108,19,113704,2,0,P|120:72|136:140,1,102.000001945496,8|0,0:0|0:0,0:0:0:0:
41,107,114013,5,2,0:0:0:0:
152,205,114167,1,0,0:0:0:0:
198,64,114322,1,8,0:0:0:0:
33,200,114477,5,0,0:0:0:0:
130,118,114631,1,0,0:0:0:0:
243,224,114786,1,2,0:0:0:0:
57,294,114941,6,0,L|137:220,1,102.000001945496,12|0,0:0|0:0,0:0:0:0:
33,200,115250,1,0,0:0:0:0:
150,326,115405,1,2,0:0:0:0:
178,153,115559,2,0,P|123:136|90:148,1,68.0000012969971,8|0,0:0|0:0,0:0:0:0:
293,325,115868,1,2,0:0:0:0:
202,237,116023,2,0,B|233:253|233:253|287:243,1,68.0000012969971,2|8,0:0|0:0,0:0:0:0:
331,60,116332,1,2,0:0:0:0:
311,73,116409,1,0,0:0:0:0:
299,93,116487,6,0,L|338:203,1,102.000001945496,6|0,0:0|0:0,0:0:0:0:
218,126,116796,1,8,0:0:0:0:
484,150,116951,2,0,P|425:131|400:115,1,68.0000012969971
478,64,117260,1,2,0:0:0:0:
322,291,117415,6,0,P|354:253|447:220,1,136.000002593994,8|0,0:0|0:0,0:0:0:0:
426,321,117879,1,2,0:0:0:0:
286,117,118033,2,0,P|318:146|336:184,1,68.0000012969971,8|0,0:0|0:0,0:0:0:0:
174,259,118343,2,0,P|217:242|249:237,1,68.0000012969971,2|2,0:0|0:0,0:0:0:0:
161,38,118652,2,0,P|183:111|169:163,1,102.000001945496,8|0,0:0|0:0,0:0:0:0:
174,259,118961,6,0,B|107:260|85:199|85:199|100:218|125:225,1,160,6|8,0:0|0:0,0:0:0:0:
250,197,119425,2,0,B|282:138|345:150|345:150|321:154|303:171,1,160,2|2,0:0|0:0,0:0:0:0:
257,283,119889,2,0,B|318:309|313:373|313:373|307:350|288:333,1,160,8|2,0:0|0:0,0:0:0:0:
174,259,120353,1,2,0:0:0:0:
238,117,120508,2,0,L|251:207,1,80,8|8,0:0|0:0,0:0:0:0:
159,114,120740,1,8,0:0:0:0:
161,131,120817,5,8,0:0:0:0:
247,34,121049,1,8,0:0:0:0:
174,259,121281,1,2,0:0:0:0:
44,80,121436,6,0,P|80:120|83:135,1,64,2|2,0:0|0:0,0:0:0:0:
42,215,121899,2,0,P|78:174|81:160,1,64,2|2,0:0|0:0,0:0:0:0:
156,157,122363,2,0,L|113:147,1,32,2|0,0:0|0:0,0:0:0:0:
268,106,122673,2,0,L|225:96,1,32,2|0,0:0|0:0,0:0:0:0:
176,234,122982,1,2,0:0:0:0:
237,180,123137,1,0,0:0:0:0:
279,253,123291,6,0,L|241:311,1,64,2|2,0:0|0:0,0:0:0:0:
282,384,123755,2,0,L|247:324,1,64,2|2,0:0|0:0,0:0:0:0:
176,321,124219,2,0,L|214:315,1,32,2|0,0:0|0:0,0:0:0:0:
114,250,124528,2,0,L|152:244,1,32,2|0,0:0|0:0,0:0:0:0:
229,109,124838,1,2,0:0:0:0:
161,158,124992,1,0,0:0:0:0:
264,195,125147,6,0,P|303:164|313:139,1,64,2|2,0:0|0:0,0:0:0:0:
409,143,125611,2,0,P|359:140|336:126,1,64,2|2,0:0|0:0,0:0:0:0:
290,77,126075,2,0,L|307:119,1,32,2|0,0:0|0:0,0:0:0:0:
189,32,126384,2,0,L|206:74,1,32,2|0,0:0|0:0,0:0:0:0:
160,216,126693,1,2,0:0:0:0:
221,154,126848,1,0,0:0:0:0:
55,97,127003,6,0,P|49:155|54:165,1,64,2|2,0:0|0:0,0:0:0:0:
47,259,127466,2,0,P|41:227|51:197,1,64,2|2,0:0|0:3,0:0:0:0:
118,175,127853,1,2,0:3:0:0:
94,175,127930,1,2,0:3:0:0:
249,238,128085,1,2,0:3:0:0:
200,85,128240,2,0,B|184:132|184:132|198:176,1,90.0000034332277
268,44,128549,2,0,P|213:37|189:4,1,90.0000034332277,4|0,0:0|0:0,0:0:0:0:
348,86,128858,6,0,P|338:135|335:159,1,60.0000022888184,2|0,0:0|0:0,0:0:0:0:
433,3,129167,2,0,P|439:32|444:61,1,60.0000022888184,2|0,0:0|0:0,0:0:0:0:
394,211,129477,1,2,0:0:0:0:
456,147,129631,1,0,0:0:0:0:
435,318,129786,2,0,P|390:290|317:269,1,120.000004577637,2|0,0:0|0:0,0:0:0:0:
246,327,130250,2,0,P|200:355|127:359,1,120.000004577637,2|0,0:0|0:0,0:0:0:0:
15,265,130714,6,0,P|40:352|44:391,1,120.000004577637,2|0,0:0|0:0,0:0:0:0:
15,265,131332,1,2,0:0:0:0:
115,277,131487,1,0,0:0:0:0:
42,174,131642,2,0,P|99:157|150:126,1,120.000004577637,2|0,0:0|0:0,0:0:0:0:
244,79,132106,2,0,P|301:95|352:126,1,120.000004577637,2|0,0:0|0:0,0:0:0:0:
417,351,132570,6,0,P|392:256|388:233,1,120.000004577637,2|0,0:0|0:0,0:0:0:0:
388,234,133188,1,2,0:0:0:0:
305,178,133343,1,0,0:0:0:0:
484,228,133497,2,0,P|509:133|513:110,1,120.000004577637,2|0,0:0|0:0,0:0:0:0:
418,44,133961,2,0,P|366:75|309:91,1,120.000004577637,2|0,0:0|0:0,0:0:0:0:
165,49,134425,5,2,0:0:0:0:
251,12,134580,1,0,0:0:0:0:
240,172,134734,2,0,P|188:140|143:128,1,90.0000034332277,2|0,0:0|0:0,0:0:0:0:
62,105,135044,2,0,P|48:74|39:40,1,60.0000022888184,2|0,0:0|0:0,0:0:0:0:
109,197,135353,2,0,P|100:225|87:252,1,60.0000022888184,2|0,0:0|0:0,0:0:0:0:
26,325,135662,2,0,P|34:353|47:380,1,60.0000022888184,2|0,0:0|0:0,0:0:0:0:
194,208,135972,2,0,P|177:276|164:303,1,90.0000034332277,2|0,0:0|0:0,0:0:0:0:
225,384,136281,6,0,P|287:358|346:352,1,120.000004577637,2|0,0:0|0:0,0:0:0:0:
339,351,136899,1,2,0:0:0:0:
424,294,137054,1,0,0:0:0:0:
296,140,137209,2,0,P|299:199|311:258,1,120.000004577637
417,178,137673,2,0,P|429:119|432:59,1,120.000004577637,2|0,0:0|0:0,0:0:0:0:
333,19,138137,6,0,P|286:48|216:54,1,120.000004577637,2|0,0:0|0:0,0:0:0:0:
41,53,138600,1,0,0:0:0:0:
133,36,138755,2,0,P|119:103|113:118,1,60.0000022888184,2|0,0:0|0:0,0:0:0:0:
40,172,139064,2,0,P|43:201|51:230,1,60.0000022888184,2|0,0:0|0:0,0:0:0:0:
210,114,139374,2,0,P|196:181|190:196,1,60.0000022888184,2|0,0:0|0:0,0:0:0:0:
158,292,139606,1,0,0:0:0:0:
158,292,139683,2,0,P|204:269|249:265,1,90.0000034332277,2|0,0:0|0:0,0:0:0:0:
326,327,139992,6,0,P|351:342|399:353,1,60.0000022888184,2|0,0:0|0:0,0:0:0:0:
500,327,140301,2,0,P|472:257|472:195,1,120.000004577637,0|2,0:0|0:0,0:0:0:0:
483,128,140765,1,0,0:0:0:0:
483,128,140843,1,0,0:0:0:0:
483,128,140920,2,0,P|467:67|444:28,1,95.9999970703126,2|0,0:0|0:0,0:0:0:0:
322,43,141384,1,2,0:0:0:0:
331,134,141539,2,0,P|378:115|389:108,1,55.9999982910157,2|0,0:0|0:0,0:0:0:0:
283,216,141848,6,0,P|231:195|202:190,1,60.0000022888184,2|2,0:0|0:0,0:0:0:0:
163,259,142157,1,0,0:0:0:0:
79,240,142312,1,2,0:0:0:0:
41,167,142466,1,0,0:0:0:0:
86,92,142621,5,8,0:0:0:0:
86,92,142698,1,8,0:0:0:0:
86,92,142776,1,8,0:0:0:0:
181,132,142930,1,2,0:3:0:0:
242,238,143085,1,0,0:0:0:0:
208,360,143240,1,2,0:0:0:0:
106,297,143394,6,0,L|173:284,1,60.0000022888184,2|10,0:0|0:0,0:0:0:0:
314,227,143704,2,0,P|244:214|204:172,2,120.000004577637,4|0|10,0:0|0:0|0:0,0:0:0:0:
436,76,144477,1,0,0:0:0:0:
330,96,144631,2,0,P|349:131|378:169,1,60.0000022888184,8|0,0:0|0:0,0:0:0:0:
451,18,144940,2,0,P|439:60|436:90,1,60.0000022888184
457,228,145250,2,0,P|478:190|486:179,2,40.000001525879,8|8|8,0:0|0:0|0:0,0:0:0:0:
354,274,145559,6,0,P|398:319|463:350,1,120.000004577637,2|0,0:0|0:0,0:0:0:0:
261,197,146023,1,8,0:0:0:0:
261,197,146100,1,8,0:0:0:0:
261,197,146178,2,0,P|251:234|230:271,1,60.0000022888184,10|2,0:0|0:0,0:0:0:0:
177,379,146487,2,0,P|235:358|300:355,2,120.000004577637,8|2|2,0:0|0:0|0:0,0:0:0:0:
10,293,147260,1,2,0:0:0:0:
112,289,147415,6,0,P|90:325|80:354,1,60.0000022888184,2|0,0:0|0:0,0:0:0:0:
2,168,147724,2,0,P|12:193|24:221,2,40.000001525879,8|8|8,0:0|0:0|0:0,0:0:0:0:
196,227,148033,2,0,P|140:204|116:175,1,90.0000034332277,2|0,0:0|0:0,0:0:0:0:
89,104,148343,2,0,P|81:74|74:45,1,60.0000022888184,8|0,0:0|0:0,0:0:0:0:
209,81,148652,2,0,P|201:110|194:139,1,60.0000022888184,0|2,0:0|0:0,0:0:0:0:
150,26,148961,1,2,0:0:0:0:
281,133,149116,1,0,0:0:0:0:
252,0,149271,6,0,P|318:54|377:56,1,120.000004577637,2|2,0:0|0:0,0:0:0:0:
397,158,149734,1,2,0:0:0:0:
491,121,149889,2,0,P|466:87|445:70,1,60.0000022888184,2|2,0:0|0:0,0:0:0:0:
383,247,150198,2,0,P|416:272|443:294,1,60.0000022888184,8|2,0:0|0:0,0:0:0:0:
286,212,150508,2,0,P|298:266|308:293,1,60.0000022888184,2|2,0:0|0:0,0:0:0:0:
240,113,150817,2,0,P|209:140|193:159,1,60.0000022888184,2|2,0:0|0:0,0:0:0:0:
44,23,151126,6,0,P|101:67|151:82,2,120.000004577637,4|8|2,0:0|0:0|0:0,0:0:0:0:
140,0,151899,1,0,0:0:0:0:
13,181,152054,2,0,P|55:130|61:115,1,60.0000022888184,8|2,0:0|0:0,0:0:0:0:
107,313,152363,2,0,P|105:270|91:245,1,60.0000022888184,0|2,0:0|0:0,0:0:0:0:
217,168,152595,1,8,0:0:0:0:
217,168,152673,2,0,P|198:200|194:239,1,60.0000022888184,8|0,0:0|0:0,0:0:0:0:
312,357,152982,6,0,P|293:317|282:284,1,60.0000022888184,2|0,0:0|0:0,0:0:0:0:
407,197,153291,2,0,P|396:224|382:251,1,60.0000022888184,2|4,0:0|0:0,0:0:0:0:
292,155,153600,1,0,0:0:0:0:
479,85,153755,1,0,0:0:0:0:
440,81,153832,1,0,0:0:0:0:
408,59,153909,5,4,0:3:0:0:
467,210,154064,1,4,0:3:0:0:
242,43,154219,5,4,0:3:0:0:
365,136,154374,1,8,0:0:0:0:
150,152,154528,5,8,0:0:0:0:
266,127,154683,1,8,0:0:0:0:
222,213,154838,6,0,L|189:303,1,80,4|0,0:0|0:0,0:0:0:0:
189,303,155069,1,8,0:0:0:0:
183,318,155147,1,8,0:0:0:0:
126,201,155301,5,4,0:0:0:0:
304,258,155456,1,0,0:0:0:0:
290,295,155533,1,0,0:0:0:0:
276,333,155610,1,0,0:0:0:0:
235,183,155765,5,2,0:0:0:0:
384,293,155920,1,2,0:0:0:0:
304,81,156075,5,2,0:0:0:0:
452,170,156229,2,0,L|381:170,1,40,8|8,0:0|0:0,0:0:0:0:
159,17,156384,5,8,0:0:0:0:
168,55,156461,1,0,0:0:0:0:
153,91,156538,1,2,0:0:0:0:
120,112,156615,1,0,0:0:0:0:
81,109,156693,2,0,P|111:133|119:166,1,40,8|8,0:0|0:0,0:0:0:0:
35,247,156848,2,0,P|28:216|22:191,1,40,8|0,0:0|0:0,0:0:0:0:
208,341,157002,1,2,0:0:0:0:
183,334,157079,1,0,0:0:0:0:
159,330,157157,2,0,P|142:375|139:389,1,40,2|0,0:0|0:0,0:0:0:0:
242,144,157312,6,0,P|270:243|276:267,1,88.000002685547,4|0,0:0|0:0,0:0:0:0:
146,218,157544,1,8,0:0:0:0:
173,208,157621,1,8,0:0:0:0:
321,86,157776,2,0,P|271:68|244:36,1,88.000002685547,8|2,0:0|0:0,0:0:0:0:
428,140,158008,2,0,P|378:158|351:190,1,88.000002685547
512,85,158240,2,0,L|421:38,1,88.000002685547,2|2,0:0|0:2,0:0:0:0:
433,228,158549,5,8,0:0:0:0:
313,60,158703,1,0,0:0:0:0:
296,276,158858,5,8,0:0:0:0:
379,156,159013,1,8,0:0:0:0:
379,156,159090,1,0,0:0:0:0:
379,156,159167,2,0,L|312:151,1,44.0000013427735,8|0,0:0|0:0,0:0:0:0:
158,318,159322,2,0,L|225:313,1,44.0000013427735,8|0,0:0|0:0,0:0:0:0:
289,219,159477,2,0,L|222:214,1,44.0000013427735,8|0,0:0|0:0,0:0:0:0:
119,379,159631,1,8,0:0:0:0:
116,323,159708,1,0,0:0:0:0:
77,282,159786,5,12,0:0:0:0:
7,117,159941,1,0,0:0:0:0:
202,279,160095,1,2,0:0:0:0:
3,200,160250,5,12,0:0:0:0:
215,82,160405,1,2,0:0:0:0:
137,192,160559,1,2,0:0:0:0:
76,12,160714,6,0,P|106:76|121:102,1,88.000002685547,12|2,0:0|0:0,0:0:0:0:
309,211,161023,5,12,0:0:0:0:
137,192,161178,1,2,0:0:0:0:
326,58,161332,1,2,0:0:0:0:
234,259,161487,5,12,0:0:0:0:
224,71,161642,1,2,0:0:0:0:
377,302,161796,1,2,0:0:0:0:
97,229,161951,6,0,P|158:198|192:172,1,88.000002685547,12|2,0:0|0:0,0:0:0:0:
370,196,162260,5,12,0:0:0:0:
251,325,162415,1,2,0:0:0:0:
308,112,162569,1,2,0:0:0:0:
351,332,162724,5,12,0:0:0:0:
238,180,162879,1,2,0:0:0:0:
460,318,163033,1,2,0:0:0:0:
404,120,163188,6,0,P|380:179|364:214,1,88.000002685547,12|2,0:0|0:0,0:0:0:0:
199,24,163497,5,12,0:0:0:0:
305,134,163652,1,2,0:0:0:0:
86,85,163807,1,2,0:0:0:0:
281,36,163961,5,12,0:0:0:0:
98,191,164116,1,2,0:0:0:0:
228,143,164270,1,2,0:0:0:0:
247,181,164347,1,2,0:0:0:0:
247,225,164424,1,8,0:0:0:0:
224,260,164503,1,2,0:0:0:0:
203,298,164580,1,2,0:0:0:0:
203,342,164657,1,0,0:0:0:0:
222,381,164734,5,12,0:0:0:0:
161,188,164889,1,2,0:0:0:0:
291,322,165044,1,2,0:0:0:0:
119,293,165198,5,12,0:0:0:0:
286,84,165353,1,2,0:0:0:0:
228,244,165508,1,2,0:0:0:0:
81,140,165662,6,0,P|125:127|183:113,1,88.000002685547,8|0,0:0|0:0,0:0:0:0:
403,154,165972,5,12,0:0:0:0:
249,35,166126,1,2,0:0:0:0:
401,3,166281,1,2,0:0:0:0:
283,212,166435,5,12,0:0:0:0:
512,120,166590,1,2,0:0:0:0:
369,70,166745,1,2,0:0:0:0:
464,257,166899,6,0,P|447:308|439:356,1,88.000002685547,8|2,0:0|0:0,0:0:0:0:
112,148,167209,5,2,0:0:0:0:
302,254,167363,1,0,0:0:0:0:
302,254,167441,1,0,0:0:0:0:
302,254,167518,2,0,L|369:244,1,44.0000013427735,2|0,0:0|0:0,0:0:0:0:
284,26,167673,5,2,0:0:0:0:
25,108,167827,1,0,0:0:0:0:
25,108,167905,1,0,0:0:0:0:
25,108,167982,2,0,P|59:65|74:59,1,44.0000013427735,2|0,0:0|0:0,0:0:0:0:
288,334,168136,5,2,0:0:0:0:
125,193,168291,1,2,0:0:0:0:
125,193,168368,1,0,0:0:0:0:
125,193,168446,2,0,L|145:290,1,88.000002685547,6|8,0:0|0:0,0:0:0:0:
253,127,168678,1,8,0:0:0:0:
253,127,168755,2,0,L|176:105,1,44.0000013427735,8|8,0:0|0:0,0:0:0:0:
382,199,168910,2,0,L|305:221,1,44.0000013427735,8|0,0:0|0:0,0:0:0:0:
389,25,169064,5,2,0:0:0:0:
397,66,169141,1,0,0:0:0:0:
434,87,169219,1,2,0:0:0:0:
474,72,169295,1,0,0:0:0:0:
487,32,169374,5,2,0:0:0:0:
459,85,169451,1,2,0:0:0:0:
466,145,169528,2,0,B|490:213|440:189|467:273,1,120.000004577637,2|0,0:0|0:0,0:0:0:0:
463,261,170147,6,0,B|428:194|357:204|357:204|383:209|403:230,1,176.000005371094,12|2,0:0|0:0,0:0:0:0:
287,151,170611,2,0,P|320:120|361:116,1,88.000002685547,8|2,0:0|0:0,0:0:0:0:
233,358,170920,2,0,B|307:361|334:294|334:294|317:315|296:319,1,176.000005371094,12|2,0:0|0:0,0:0:0:0:
212,134,171384,2,0,B|204:208|270:238|270:238|250:220|246:199,1,176.000005371094,12|2,0:0|0:0,0:0:0:0:
420,173,171848,2,0,L|325:180,1,88.000002685547,12|2,0:0|0:0,0:0:0:0:
255,29,172157,5,12,0:0:0:0:
257,137,172312,1,2,0:0:0:0:
347,65,172466,1,2,0:0:0:0:
175,68,172621,5,12,0:0:0:0:
332,179,172776,1,2,0:0:0:0:
163,200,172930,1,2,0:0:0:0:
287,57,173085,5,12,0:0:0:0:
148,291,173240,1,2,0:0:0:0:
191,284,173317,1,8,0:0:0:0:
234,277,173394,5,8,0:0:0:0:
85,120,173549,1,2,0:0:0:0:
313,354,173703,1,8,0:0:0:0:
313,354,173781,1,8,0:0:0:0:
313,354,173858,2,0,P|327:298|322:283,1,44.0000013427735,8|0,0:0|0:0,0:0:0:0:
202,27,174013,5,2,0:0:0:0:
191,69,174090,1,0,0:0:0:0:
204,110,174167,1,2,0:0:0:0:
237,138,174244,1,0,0:0:0:0:
280,144,174322,2,0,P|345:128|407:160,1,132.00000402832,2|0,0:0|0:0,0:0:0:0:
455,248,174631,6,0,P|435:301|429:345,1,88.000002685547,12|2,0:0|0:0,0:0:0:0:
401,154,174941,1,2,0:0:0:0:
500,113,175095,1,12,0:0:0:0:
334,243,175250,1,2,0:0:0:0:
247,161,175405,2,0,P|188:170|129:178,1,88.000002685547,2|12,0:0|0:0,0:0:0:0:
197,64,175714,1,2,0:0:0:0:
147,291,175868,5,8,0:0:0:0:
66,190,176023,1,2,0:0:0:0:
251,307,176178,1,2,0:0:0:0:
42,278,176332,5,8,0:0:0:0:
206,65,176487,1,2,0:0:0:0:
85,130,176642,1,2,0:0:0:0:
426,332,176796,6,0,P|398:322|346:321,1,44.0000013427735,8|0,0:0|0:0,0:0:0:0:
294,201,176951,2,0,P|267:209|243:210,1,44.0000013427735,2|0,0:0|0:0,0:0:0:0:
154,285,177106,6,0,P|80:312|36:353,1,132.00000402832,12|0,0:0|0:0,0:0:0:0:
131,375,177415,1,2,0:0:0:0:
164,169,177569,2,0,P|214:210|277:230,1,132.00000402832,2|0,0:0|0:0,0:0:0:0:
254,141,177878,1,2,0:0:0:0:
51,201,178033,2,0,P|61:138|63:123,1,44.0000013427735,2|0,0:0|0:0,0:0:0:0:
142,75,178188,2,0,P|132:12|130:-3,1,44.0000013427735,2|0,0:0|0:0,0:0:0:0:
359,121,178343,5,8,0:0:0:0:
251,53,178497,1,8,0:0:0:0:
251,53,178575,1,8,0:0:0:0:
251,53,178652,2,0,L|269:180,1,88.000002685547,8|2,0:0|0:0,0:0:0:0:
364,239,178961,2,0,L|351:326,1,88.000002685547,2|2,0:0|0:0,0:0:0:0:
144,259,179270,5,8,0:0:0:0:
173,248,179347,1,8,0:0:0:0:
204,249,179424,1,8,0:0:0:0:
232,261,179501,1,0,0:0:0:0:
254,283,179580,6,0,L|241:370,2,80,6|0|8,0:0|0:0|0:0,0:0:0:0:
351,326,180044,1,0,0:0:0:0:
184,216,180198,2,0,P|230:188|258:187,1,80,2|2,0:0|0:0,0:0:0:0:
421,128,180508,6,0,B|318:135|373:82|249:76,1,160,8|2,0:0|0:0,0:0:0:0:
399,47,180972,1,2,0:0:0:0:
186,94,181126,2,0,P|188:43|222:9,1,80,8|0,0:0|0:0,0:0:0:0:
282,193,181435,2,0,P|254:237|237:273,1,80,2|2,0:0|0:0,0:0:0:0:
122,59,181745,2,0,P|162:135|181:202,1,120,8|0,0:0|0:0,0:0:0:0:
0,176,182054,6,0,P|46:154|83:130,1,80,2|0,0:0|0:0,0:0:0:0:
163,290,182363,2,0,P|117:268|80:244,1,80,8|0,0:0|0:0,0:0:0:0:
283,302,182673,2,0,P|251:375|248:399,1,80,2|2,0:0|0:0,0:0:0:0:
198,197,182982,6,0,P|274:199|353:159,1,160,8|0,0:0|0:0,0:0:0:0:
256,123,183446,1,2,0:0:0:0:
345,270,183600,2,0,P|362:335|376:353,1,80,8|0,0:0|0:0,0:0:0:0:
495,170,183910,2,0,P|476:228|451:295,1,120,2|0,0:0|0:0,0:0:0:0:
312,192,184219,2,0,P|358:180|407:160,1,80,8|2,0:0|0:0,0:0:0:0:
346,21,184528,6,0,P|327:74|321:113,1,80,2|0,0:0|0:0,0:0:0:0:
245,254,184838,2,0,P|226:201|220:162,1,80,8|0,0:0|0:0,0:0:0:0:
84,118,185147,2,0,P|142:92|171:68,1,80,2|2,0:0|0:0,0:0:0:0:
327,219,185456,1,8,0:0:0:0:
220,177,185611,1,0,0:0:0:0:
169,344,185765,6,0,P|223:319|274:314,1,80,2|2,0:0|0:0,0:0:0:0:
48,206,186075,2,0,P|102:231|153:236,1,80,8|0,0:0|0:0,0:0:0:0:
173,43,186384,2,0,P|198:109|206:188,1,120,2|0,0:0|0:0,0:0:0:0:
368,121,186693,2,0,P|324:108|281:90,1,80,8|2,0:0|0:0,0:0:0:0:
219,258,187002,5,6,0:0:0:0:
321,206,187157,1,0,0:0:0:0:
219,258,187312,2,0,P|203:340|211:362,1,80,8|0,0:0|0:0,0:0:0:0:
212,346,187544,1,0,0:0:0:0:
223,356,187621,1,2,0:0:0:0:
298,300,187776,1,2,0:0:0:0:
49,180,187930,1,0,0:0:0:0:
121,103,188085,6,0,P|142:169|114:279,1,160,8|2,0:0|0:0,0:0:0:0:
332,181,188549,2,0,P|276:159|239:148,1,80,8|8,0:0|0:0,0:0:0:0:
241,149,188781,1,8,0:0:0:0:
225,145,188858,1,8,0:0:0:0:
326,71,189013,1,2,0:0:0:0:
358,293,189167,2,0,P|414:280|462:269,1,80,8|2,0:0|0:0,0:0:0:0:
232,365,189477,6,0,P|248:273|268:243,1,120,4|0,0:0|0:0,0:0:0:0:
341,298,189786,1,8,0:0:0:0:
121,121,189941,2,0,P|147:175|151:235,1,120,2|0,0:0|0:0,0:0:0:0:
65,205,190250,1,2,0:0:0:0:
133,18,190405,2,0,P|190:58|234:65,1,80,12|0,0:0|0:0,0:0:0:0:
312,133,190714,6,0,P|275:149|245:175,1,80,0|2,0:0|0:0,0:0:0:0:
384,10,191023,2,0,P|393:66|400:97,1,80,8|0,0:0|0:0,0:0:0:0:
509,274,191332,2,0,P|485:216|424:193,1,120,2|0,0:0|0:0,0:0:0:0:
376,296,191642,2,0,P|401:345|415:375,1,80,8|0,0:0|0:0,0:0:0:0:
290,150,191951,6,0,P|267:245|258:291,1,120,6|0,0:0|0:0,0:0:0:0:
352,206,192260,1,8,0:0:0:0:
147,44,192415,2,0,P|170:139|179:185,1,120,2|0,0:0|0:0,0:0:0:0:
85,100,192724,1,2,0:0:0:0:
263,351,192879,2,0,P|227:322|181:310,1,80,8|0,0:0|0:0,0:0:0:0:
44,356,193188,6,0,P|72:309|84:273,1,80,0|2,0:0|0:0,0:0:0:0:
154,384,193497,1,8,0:0:0:0:
22,209,193652,1,8,0:0:0:0:
61,201,193729,1,0,0:0:0:0:
100,194,193806,1,2,0:0:0:0:
351,73,193961,1,2,0:0:0:0:
184,83,194116,1,2,0:0:0:0:
298,169,194270,5,2,0:0:0:0:
298,169,194348,1,0,0:0:0:0:
298,169,194425,2,0,P|289:218|289:235,3,40,12|0|2|0,0:0|0:0|0:0|0:0,0:0:0:0:
409,352,194734,2,0,P|400:303|400:286,3,40,8|0|2|0,0:0|0:0|0:0|0:0,0:0:0:0:
512,216,195044,5,8,0:0:0:0:
467,201,195121,1,0,0:0:0:0:
440,162,195198,1,2,0:0:0:0:
443,114,195275,1,0,0:0:0:0:
474,79,195353,2,0,P|472:28|465:17,1,40,8|0,0:0|0:0,0:0:0:0:
282,127,195508,5,2,0:0:0:0:
320,127,195585,1,0,0:0:0:0:
347,98,195662,1,8,0:0:0:0:
313,59,195739,1,0,0:0:0:0:
263,51,195816,1,2,0:0:0:0:
219,77,195893,1,0,0:0:0:0:
202,125,195972,5,8,0:0:0:0:
209,169,196049,1,0,0:0:0:0:
245,193,196126,1,2,0:0:0:0:
252,236,196203,1,0,0:0:0:0:
300,256,196281,5,8,0:0:0:0:
325,286,196358,1,0,0:0:0:0:
329,325,196435,1,2,0:0:0:0:
311,360,196512,1,0,0:0:0:0:
277,378,196590,6,0,L|222:363,1,40,8|0,0:0|0:0,0:0:0:0:
70,235,196745,2,0,L|125:219,1,40,2|0,0:0|0:0,0:0:0:0:
339,103,196899,5,12,0:0:0:0:
86,45,197054,1,0,0:0:0:0:
86,45,197131,1,8,0:0:0:0:
86,45,197209,1,8,0:0:0:0:
435,235,197363,5,2,0:0:0:0:
213,27,197518,1,0,0:0:0:0:
213,27,197595,1,0,0:0:0:0:
213,27,197673,1,2,0:0:0:0:
361,371,197827,5,8,0:0:0:0:
361,371,198136,2,0,P|395:349|331:322,2,143.999995605469,2|2|2,0:0|0:0|0:0,0:0:0:0:
451,267,199374,2,0,B|406:215|330:231|330:231|385:183|376:137,1,240,2|2,0:0|0:0,0:0:0:0:
268,35,200611,2,0,B|171:132|225:196|311:194|293:114,1,240
256,192,201616,12,0,202466,0:0:0:0:
297,119,202688,6,0,L|162:111,1,132.00000402832,2|0,0:0|0:0,0:0:0:0:
178,86,203056,2,0,P|234:186|199:237,1,160,2|0,0:0|0:0,0:0:0:0:
84,241,203486,2,0,B|135:218|193:246|193:246|147:266|140:324,1,200,2|0,0:0|0:0,0:0:0:0:
327,377,204004,2,0,P|267:367|229:321,1,120,2|0,0:0|0:0,0:0:0:0:
282,210,204322,6,0,L|321:324,1,88.000002685547,6|0,0:0|0:0,0:0:0:0:
393,206,204631,1,8,0:0:0:0:
210,116,204785,1,0,0:0:0:0:
210,116,204863,1,0,0:0:0:0:
210,116,204940,2,0,P|193:167|182:219,1,88.000002685547,2|2,0:0|0:0,0:0:0:0:
340,130,205249,1,8,0:0:0:0:
67,8,205404,6,0,P|91:90|124:134,1,132.00000402832,2|0,0:0|0:0,0:0:0:0:
155,28,205713,1,2,0:0:0:0:
0,256,205868,2,0,P|30:212|41:172,1,88.000002685547,8|0,0:0|0:0,0:0:0:0:
198,364,206177,1,2,0:0:0:0:
95,295,206332,1,2,0:0:0:0:
224,268,206486,2,0,P|287:309|310:335,1,88.000002685547,8|2,0:0|0:0,0:0:0:0:
386,95,206796,6,0,P|345:184|296:232,1,132.00000402832,2|0,0:0|0:0,0:0:0:0:
167,176,207105,2,0,P|245:146|278:144,1,88.000002685547,8|0,0:0|0:0,0:0:0:0:
464,68,207414,1,2,0:0:0:0:
352,2,207569,1,2,0:0:0:0:
357,207,207724,6,0,P|338:138|320:106,1,88.000002685547,8|2,0:0|0:0,0:0:0:0:
482,286,208033,2,0,P|464:326|455:369,1,88.000002685547,0|2,0:0|0:0,0:0:0:0:
298,344,208342,1,8,0:0:0:0:
442,183,208497,1,0,0:0:0:0:
209,207,208651,2,0,P|283:250|326:257,1,88.000002685547,2|2,0:0|0:0,0:0:0:0:
51,358,208961,2,0,P|125:315|168:308,1,88.000002685547,8|2,0:0|0:0,0:0:0:0:
131,98,209270,6,0,P|116:165|97:261,1,132.00000402832,2|0,0:0|0:0,0:0:0:0:
0,54,209579,2,0,P|18:127|34:165,1,88.000002685547,8|0,0:0|0:0,0:0:0:0:
213,81,209889,2,0,P|123:55|68:12,1,132.00000402832,2|0,0:0|0:0,0:0:0:0:
193,221,210198,2,0,P|259:195|306:186,1,88.000002685547,8|2,0:0|0:0,0:0:0:0:
374,22,210507,5,0,0:0:0:0:
288,101,210662,1,2,0:0:0:0:
498,142,210816,2,0,P|412:111|398:100,1,88.000002685547,8|0,0:0|0:0,0:0:0:0:
260,254,211126,2,0,P|321:215|357:212,1,88.000002685547,2|2,0:0|0:0,0:0:0:0:
512,358,211435,1,8,0:0:0:0:
389,291,211590,1,2,0:0:0:0:
232,346,211744,6,0,P|211:267|194:205,1,132.00000402832,2|0,0:0|0:0,0:0:0:0:
116,126,212053,2,0,P|136:70|153:28,1,88.000002685547,8|0,0:0|0:0,0:0:0:0:
230,141,212363,1,2,0:0:0:0:
100,218,212517,1,2,0:0:0:0:
340,108,212672,6,0,P|300:62|267:44,1,88.000002685547,8|2,0:0|0:0,0:0:0:0:
459,230,212981,2,0,P|474:179|489:143,1,88.000002685547,0|2,0:0|0:0,0:0:0:0:
357,363,213291,2,0,P|342:312|327:276,1,88.000002685547,8|0,0:0|0:0,0:0:0:0:
256,198,213523,1,0,0:0:0:0:
256,198,213600,2,0,P|207:173|197:172,1,44.0000013427735,2|0,0:0|0:0,0:0:0:0:
24,109,213754,2,0,P|44:100|61:86,1,44.0000013427735,8|8,0:0|0:0,0:0:0:0:
229,26,213909,5,12,0:0:0:0:
224,78,213986,1,0,0:0:0:0:
220,131,214063,1,8,0:0:0:0:
216,183,214140,1,8,0:0:0:0:
211,236,214218,5,6,0:0:0:0:
143,122,214373,1,0,0:0:0:0:
311,186,214528,1,8,0:0:0:0:
111,217,214682,5,0,0:0:0:0:
289,89,214837,1,0,0:0:0:0:
285,293,214992,1,2,0:0:0:0:
114,120,215146,6,0,L|197:49,1,88.000002685547,8|0,0:0|0:0,0:0:0:0:
266,236,215456,2,0,P|225:197|217:164,1,88.000002685547,0|2,0:0|0:0,0:0:0:0:
20,301,215765,2,0,P|70:244|146:223,1,132.00000402832,8|0,0:0|0:0,0:0:0:0:
185,300,216074,2,0,P|165:358|152:393,1,88.000002685547,2|2,0:0|0:0,0:0:0:0:
31,127,216383,2,0,P|46:168|60:210,1,88.000002685547,8|2,0:0|0:0,0:0:0:0:
198,21,216693,6,0,P|176:78|148:103,1,88.000002685547,2|0,0:0|0:0,0:0:0:0:
388,99,217002,2,0,P|323:72|275:53,1,88.000002685547,8|0,0:0|0:0,0:0:0:0:
225,283,217311,1,2,0:0:0:0:
177,151,217466,1,2,0:0:0:0:
350,306,217620,6,0,P|313:359|295:394,1,88.000002685547,8|2,0:0|0:0,0:0:0:0:
360,170,217930,2,0,P|296:186|270:198,1,88.000002685547,0|2,0:0|0:0,0:0:0:0:
448,375,218239,1,8,0:0:0:0:
357,293,218394,1,0,0:0:0:0:
357,293,218471,1,0,0:0:0:0:
357,293,218548,1,2,0:0:0:0:
491,169,218703,1,8,0:0:0:0:
491,169,218780,1,8,0:0:0:0:
491,169,218858,2,0,P|424:126|371:55,1,132.00000402832,8|0,0:0|0:0,0:0:0:0:
91,86,219167,6,0,B|153:101|225:49|225:49|201:89|221:137,1,204.000003890991,6|0,0:0|0:0,0:0:0:0:
130,2,219476,1,0,0:0:0:0:
420,123,219631,2,0,B|358:108|286:160|286:160|310:120|289:71,1,204.000003890991,8|0,0:0|0:0,0:0:0:0:
381,207,219940,1,0,0:0:0:0:
154,161,220095,2,0,P|275:204|270:281,1,204.000003890991,8|0,0:0|0:0,0:0:0:0:
197,233,220404,5,2,0:0:0:0:
281,50,220559,1,8,0:0:0:0:
381,207,220713,1,0,0:0:0:0:
136,28,220868,1,2,0:0:0:0:
136,28,220945,1,0,0:0:0:0:
136,28,221023,2,0,B|166:94|217:99|217:99|157:129|150:173,1,204.000003890991,4|0,0:0|0:0,0:0:0:0:
6,115,221332,2,0,L|78:109,1,68.0000012969971,8|0,0:0|0:0,0:0:0:0:
196,272,221486,2,0,L|124:266,1,68.0000012969971
349,90,221641,6,0,P|307:144|329:234,1,136.000002593994,2|2,0:0|0:0,0:0:0:0:
478,193,221873,1,2,0:0:0:0:
460,189,221950,2,0,L|382:168,1,68.0000012969971,2|2,0:0|0:0,0:0:0:0:
510,297,222105,2,0,L|432:276,1,68.0000012969971,2|2,0:0|0:0,0:0:0:0:
248,14,222260,5,2,0:0:0:0:
290,45,222337,1,2,0:0:0:0:
295,98,222414,1,2,0:0:0:0:
260,137,222491,1,2,0:0:0:0:
207,138,222569,2,0,P|139:83|82:105,1,136.000002593994,2|2,0:0|0:0,0:0:0:0:
104,321,222878,6,0,B|95:243|129:171|129:171|98:194|26:204,1,204.000003890991,6|0,0:0|0:0,0:0:0:0:
98,92,223187,1,8,0:0:0:0:
281,322,223342,2,0,P|215:213|293:221,1,272.000005187988,6|8,0:0|0:0,0:0:0:0:
385,280,223729,1,0,0:0:0:0:
382,296,223806,2,0,L|368:373,1,68.0000012969971,8|0,0:0|0:0,0:0:0:0:
490,255,223961,2,0,L|476:332,1,68.0000012969971,8|0,0:0|0:0,0:0:0:0:
364,178,224115,6,0,B|444:195|405:130|547:162,1,136.000002593994,6|0,0:0|0:0,0:0:0:0:
329,8,224425,2,0,P|378:60|381:100,1,88.000002685547,8|0,0:0|0:0,0:0:0:0:
246,216,224734,1,2,0:0:0:0:
293,87,224889,1,2,0:0:0:0:
113,163,225043,2,0,P|169:144|212:127,1,88.000002685547,8|2,0:0|0:0,0:0:0:0:
0,111,225352,6,0,P|26:226|25:275,1,132.00000402832
129,297,225662,2,0,P|115:355|115:386,1,88.000002685547,8|0,0:0|0:0,0:0:0:0:
230,313,225971,1,2,0:0:0:0:
141,192,226126,1,2,0:0:0:0:
321,369,226280,1,8,0:0:0:0:
291,215,226435,1,2,0:0:0:0:
408,315,226590,6,0,L|508:297,1,88.000002685547,2|0,0:0|0:0,0:0:0:0:
236,192,226899,2,0,L|336:210,1,88.000002685547,8|0,0:0|0:0,0:0:0:0:
503,135,227208,1,2,0:0:0:0:
432,212,227363,1,2,0:0:0:0:
377,21,227517,6,0,P|411:91|422:133,1,88.000002685547,8|2,0:0|0:0,0:0:0:0:
269,257,227827,2,0,P|303:187|314:145,1,88.000002685547,0|2,0:0|0:0,0:0:0:0:
171,91,228136,2,0,P|223:78|271:63,1,88.000002685547,8|0,0:0|0:0,0:0:0:0:
20,166,228445,2,0,P|72:179|120:194,1,88.000002685547,2|2,0:0|0:0,0:0:0:0:
283,320,228754,1,8,0:0:0:0:
217,197,228909,1,2,0:0:0:0:
157,284,229064,6,0,P|189:347|197:373,1,88.000002685547,2|0,0:0|0:0,0:0:0:0:
304,146,229373,2,0,P|280:215|259:245,1,88.000002685547,8|0,0:0|0:0,0:0:0:0:
78,184,229682,2,0,P|127:167|172:143,1,88.000002685547,2|2,0:0|0:0,0:0:0:0:
233,3,229992,2,0,P|282:20|327:44,1,88.000002685547,8|2,0:0|0:0,0:0:0:0:
411,195,230301,5,0,0:0:0:0:
509,132,230456,1,2,0:0:0:0:
339,129,230610,2,0,P|318:196|313:236,1,88.000002685547,8|0,0:0|0:0,0:0:0:0:
488,359,230919,2,0,P|479:315|464:274,1,88.000002685547,2|2,0:0|0:0,0:0:0:0:
374,47,231229,2,0,P|328:90|256:86,1,132.00000402832,8|0,0:0|0:0,0:0:0:0:
134,20,231538,6,0,P|162:70|174:111,1,88.000002685547,2|0,0:0|0:0,0:0:0:0:
50,314,231847,2,0,P|79:278|114:170,1,132.00000402832,8|0,0:0|0:0,0:0:0:0:
74,93,232157,1,2,0:0:0:0:
0,230,232311,1,2,0:0:0:0:
168,306,232466,1,8,0:0:0:0:
224,143,232620,6,0,B|323:150|275:93|409:102,1,176.000005371094,2|2,0:0|0:0,0:0:0:0:
336,254,233007,1,0,0:0:0:0:
340,239,233084,2,0,P|394:193|402:193,1,44.0000013427735,8|0,0:0|0:0,0:0:0:0:
506,333,233239,2,0,L|433:318,1,44.0000013427735,8|8,0:0|0:0,0:0:0:0:
219,231,233394,5,8,0:0:0:0:
262,235,233471,1,0,0:0:0:0:
298,259,233548,1,8,0:0:0:0:
319,297,233625,1,8,0:0:0:0:
320,340,233703,2,0,L|263:343,1,44.0000013427735,8|0,0:0|0:0,0:0:0:0:
165,295,233858,2,0,L|107:297,1,44.0000013427735,8|8,0:0|0:0,0:0:0:0:
368,172,234012,6,0,B|278:187|278:187|219:164,1,132.00000402832,6|0,0:0|0:0,0:0:0:0:
207,10,234322,2,0,P|249:50|249:96,1,88.000002685547,8|0,0:0|0:0,0:0:0:0:
178,297,234631,2,0,B|196:222|134:247|159:133,1,132.00000402832,2|0,0:0|0:0,0:0:0:0:
71,93,234940,2,0,L|167:85,1,88.000002685547,8|2,0:0|0:0,0:0:0:0:
339,235,235249,5,0,0:0:0:0:
240,172,235404,1,2,0:0:0:0:
380,121,235559,5,8,0:0:0:0:
262,269,235713,1,8,0:0:0:0:
262,269,235791,1,8,0:0:0:0:
262,269,235868,2,0,L|307:319,1,44.0000013427735,8|0,0:0|0:0,0:0:0:0:
280,87,236023,2,0,L|235:137,1,44.0000013427735,2|0,0:0|0:0,0:0:0:0:
36,226,236177,2,0,B|127:235|73:193|188:203,1,132.00000402832,8|0,0:0|0:0,0:0:0:0:
152,289,236486,6,0,P|111:343|112:375,1,88.000002685547,2|0,0:0|0:0,0:3:0:0:
249,202,236796,2,0,P|222:139|194:124,1,88.000002685547,12|0,0:0|0:0,0:0:0:0:
271,347,237105,2,0,P|338:355|365:338,1,88.000002685547,2|2,0:0|0:0,0:0:0:0:
400,145,237414,1,12,0:0:0:0:
324,243,237569,1,2,0:0:0:0:
496,337,237724,6,0,P|461:271|453:239,1,88.000002685547,2|0,0:0|0:0,0:0:0:0:
408,39,238033,2,0,P|392:80|369:117,1,88.000002685547,12|2,0:0|0:0,0:0:0:0:
265,255,238265,1,2,0:0:0:0:
265,255,238342,2,0,P|319:242|366:233,1,88.000002685547,2|2,0:0|0:0,0:0:0:0:
132,110,238651,1,8,0:0:0:0:
261,144,238806,1,2,0:0:0:0:
182,360,238961,6,0,P|171:282|140:230,1,132.00000402832,6|0,0:0|0:0,0:0:0:0:
35,202,239270,2,0,P|71:144|102:128,1,88.000002685547,8|2,0:0|0:0,0:0:0:0:
258,307,239579,1,2,0:0:0:0:
145,236,239734,1,2,0:0:0:0:
259,63,239889,2,0,P|250:137|237:222,1,132.00000402832,12|0,0:0|0:0,0:0:0:0:
74,163,240198,6,0,P|118:141|165:127,1,88.000002685547,2|0,0:0|0:0,0:0:0:0:
241,310,240507,2,0,P|199:296|160:276,1,88.000002685547,8|2,0:0|0:0,0:0:0:0:
318,209,240816,1,2,0:0:0:0:
366,360,240971,1,2,0:0:0:0:
462,158,241126,1,8,0:0:0:0:
394,255,241280,1,2,0:0:0:0:
311,32,241435,5,6,0:0:0:0:
380,133,241590,1,0,0:0:0:0:
380,133,241667,1,0,0:0:0:0:
380,133,241744,2,0,L|321:142,1,44.0000013427735,8|0,0:0|0:0,0:0:0:0:
126,85,241899,2,0,L|185:76,1,44.0000013427735,8|0,0:0|0:0,0:0:0:0:
383,251,242053,2,0,L|324:260,1,44.0000013427735,2|0,0:0|0:0,0:0:0:0:
74,173,242208,2,0,L|133:164,1,44.0000013427735,2|0,0:0|0:0,0:0:0:0:
438,361,242363,5,2,0:0:0:0:
438,361,242672,2,0,B|399:252|476:282|441:178,2,180.000006866455,2|2|2,0:0|0:0|0:0,0:0:0:0:
438,361,243909,6,0,P|376:300|294:332,1,176.000005371094,6|8,0:0|0:0,0:0:0:0:
318,203,244373,1,0,0:0:0:0:
183,294,244528,2,0,L|219:395,1,88.000002685547,2|2,0:0|0:0,0:0:0:0:
88,273,244837,1,8,0:0:0:0:
237,179,244992,6,0,P|182:159|146:115,1,88.000002685547,2|0,0:0|0:0,0:0:0:0:
247,78,245301,1,2,0:0:0:0:
71,178,245456,2,0,P|65:107|77:73,1,88.000002685547,8|0,0:0|0:0,0:0:0:0:
196,264,245765,2,0,P|168:303|135:346,1,88.000002685547,2|2,0:0|0:0,0:0:0:0:
111,243,246074,1,8,0:0:0:0:
244,358,246229,1,2,0:0:0:0:
247,187,246383,6,0,P|192:168|158:179,1,88.000002685547,2|0,0:0|0:0,0:0:0:0:
347,297,246693,2,0,P|389:303|429:285,1,88.000002685547,8|0,0:0|0:0,0:0:0:0:
403,115,247002,1,2,0:0:0:0:
331,187,247157,1,2,0:0:0:0:
503,123,247311,1,8,0:0:0:0:
361,27,247466,6,0,L|418:158,1,132.00000402832,2|0,0:0|0:0,0:0:0:0:
456,43,247775,1,2,0:0:0:0:
312,206,247930,2,0,P|341:242|382:260,1,88.000002685547,8|0,0:0|0:0,0:0:0:0:
210,63,248239,2,0,P|266:102|278:128,1,88.000002685547,2|2,0:0|0:0,0:0:0:0:
34,201,248548,2,0,P|111:183|170:158,1,132.00000402832,8|0,0:0|0:0,0:0:0:0:
238,249,248858,6,0,P|225:309|219:346,1,88.000002685547,2|0,0:0|0:0,0:0:0:0:
128,109,249167,2,0,P|135:152|145:195,1,88.000002685547,8|0,0:0|0:0,0:0:0:0:
332,189,249476,1,2,0:0:0:0:
219,120,249631,1,2,0:0:0:0:
322,298,249785,1,8,0:0:0:0:
457,178,249940,6,0,L|305:158,1,132.00000402832,2|0,0:0|0:0,0:0:0:0:
428,93,250249,1,2,0:0:0:0:
219,120,250404,2,0,P|263:66|305:62,1,88.000002685547,8|0,0:0|0:0,0:0:0:0:
195,295,250713,1,2,0:0:0:0:
255,205,250868,1,2,0:0:0:0:
112,106,251023,2,0,L|143:205,1,88.000002685547,8|2,0:0|0:0,0:0:0:0:
38,371,251332,6,0,P|97:310|178:345,1,176.000005371094,2|8,0:0|0:0,0:0:0:0:
138,189,251796,1,0,0:0:0:0:
322,274,251950,2,0,P|252:277|223:251,1,88.000002685547,2|2,0:0|0:0,0:0:0:0:
90,113,252260,2,0,P|130:97|172:108,1,88.000002685547,8|2,0:0|0:0,0:0:0:0:
285,210,252569,5,6,0:0:0:0:
433,13,252724,1,8,0:0:0:0:
433,13,252801,1,8,0:0:0:0:
433,13,252878,2,0,L|353:-5,1,44.0000013427735,8|0,0:0|0:0,0:0:0:0:
411,289,253033,5,2,0:0:0:0:
253,91,253188,1,0,0:0:0:0:
253,91,253265,1,2,0:0:0:0:
253,91,253342,2,0,L|333:73,1,44.0000013427735,2|0,0:0|0:0,0:0:0:0:
466,269,253497,1,8,0:0:0:0:
425,253,253574,1,8,0:0:0:0:
384,267,253651,1,8,0:0:0:0:
362,304,253728,1,8,0:0:0:0:
368,346,253806,6,0,B|261:314|300:382|193:356,1,176.000005371094,6|8,0:0|0:0,0:0:0:0:
196,181,254270,1,0,0:0:0:0:
283,209,254425,2,0,P|246:265|211:274,1,88.000002685547,2|2,0:0|0:0,0:0:0:0:
114,366,254734,1,8,0:0:0:0:
63,194,254889,6,0,P|82:265|93:305,1,88.000002685547,2|0,0:0|0:0,0:0:0:0:
279,158,255198,1,2,0:0:0:0:
201,96,255352,2,0,P|174:164|160:203,1,88.000002685547,8|0,0:0|0:0,0:0:0:0:
28,25,255662,1,2,0:0:0:0:
96,103,255816,1,2,0:0:0:0:
275,32,255971,2,0,P|206:6|177:0,1,88.000002685547,8|2,0:0|0:0,0:0:0:0:
266,186,256280,6,0,P|329:167|389:141,1,132.00000402832,2|0,0:0|0:0,0:0:0:0:
506,74,256590,2,0,P|496:127|493:172,1,88.000002685547,8|0,0:0|0:0,0:0:0:0:
388,328,256899,1,2,0:0:0:0:
477,230,257053,1,2,0:0:0:0:
278,379,257208,1,8,0:0:0:0:
399,204,257363,6,0,L|300:295,1,132.00000402832,2|0,0:0|0:0,0:0:0:0:
278,379,257672,1,2,0:0:0:0:
405,305,257827,1,8,0:0:0:0:
239,213,257981,2,0,P|196:283|220:346,1,132.00000402832
301,293,258291,1,2,0:0:0:0:
69,107,258445,2,0,P|102:146|116:193,1,88.000002685547,8|0,0:0|0:0,0:0:0:0:
317,105,258754,6,0,P|237:112|164:16,1,176.000005371094,6|8,0:0|0:0,0:0:0:0:
268,22,259218,1,2,0:0:0:0:
407,142,259373,2,0,P|368:187|342:199,1,88.000002685547,2|2,0:0|0:0,0:0:0:0:
317,105,259682,1,8,0:0:0:0:
475,248,259837,6,0,P|437:324|418:391,1,132.00000402832,2|0,0:0|0:0,0:0:0:0:
361,262,260146,1,2,0:0:0:0:
506,368,260301,1,8,0:0:0:0:
269,176,260456,2,0,P|327:133|431:172,1,176.000005371094,2|2,0:0|0:0,0:0:0:0:
182,227,260919,2,0,P|156:166|147:130,1,88.000002685547,8|2,0:0|0:0,0:0:0:0:
362,243,261229,5,12,0:0:0:0:
290,353,261383,1,2,0:0:0:0:
232,113,261538,5,8,0:0:0:0:
295,275,261693,1,2,0:0:0:0:
355,35,261847,5,8,0:0:0:0:
237,213,262002,1,2,0:0:0:0:
436,89,262157,5,8,0:0:0:0:
176,45,262311,1,2,0:0:0:0:
176,45,262389,1,2,0:0:0:0:
176,45,262466,2,0,L|235:29,1,44.0000013427735,2|2,0:0|0:0,0:0:0:0:
346,18,262620,5,8,0:0:0:0:
104,165,262774,1,2,0:0:0:0:
104,165,262852,1,2,0:0:0:0:
104,165,262929,2,0,L|163:181,1,44.0000013427735,2|2,0:0|0:0,0:0:0:0:
292,116,263084,5,8,0:0:0:0:
260,158,263161,1,0,0:0:0:0:
280,206,263238,1,2,0:0:0:0:
333,214,263315,1,2,0:0:0:0:
366,172,263394,2,0,P|372:214|401:248,1,64,2|2,0:0|0:0,0:0:0:0:
486,277,263548,2,0,P|500:305|502:336,1,64,8|0,0:0|0:0,0:0:0:0:
378,384,263703,5,12,0:0:0:0:
245,282,263858,1,2,0:0:0:0:
308,359,264012,5,8,0:0:0:0:
253,183,264167,1,2,0:0:0:0:
245,282,264322,5,8,0:0:0:0:
322,96,264476,1,2,0:0:0:0:
253,183,264631,5,8,0:0:0:0:
415,60,264785,1,2,0:0:0:0:
220,39,264940,5,12,0:0:0:0:
319,105,265095,1,2,0:0:0:0:
150,123,265249,5,12,0:0:0:0:
341,17,265404,1,2,0:0:0:0:
96,32,265559,5,12,0:0:0:0:
233,129,265713,1,2,0:0:0:0:
14,124,265868,5,12,0:0:0:0:
243,14,266023,1,2,0:0:0:0:
112,185,266177,5,8,0:0:0:0:
33,24,266332,1,2,0:0:0:0:
38,300,266486,5,8,0:0:0:0:
148,96,266641,1,2,0:0:0:0:
256,257,266796,6,0,L|146:225,1,88.000002685547,8|2,0:0|0:0,0:0:0:0:
52,39,267105,2,0,L|136:14,1,88.000002685547,8|2,0:0|0:0,0:0:0:0:
189,331,267414,5,12,0:0:0:0:
100,124,267569,1,2,0:0:0:0:
274,323,267724,5,12,0:0:0:0:
245,149,267878,1,2,0:0:0:0:
351,333,268033,5,12,0:0:0:0:
382,83,268187,1,2,0:0:0:0:
434,350,268342,5,12,0:0:0:0:
505,210,268496,1,2,0:0:0:0:
233,331,268651,5,8,0:0:0:0:
433,271,268806,1,2,0:0:0:0:
194,181,268961,5,8,0:0:0:0:
370,361,269115,1,2,0:0:0:0:
412,153,269270,6,0,L|320:193,1,88.000002685547,8|2,0:0|0:0,0:0:0:0:
89,68,269579,2,0,L|181:28,1,88.000002685547,8|2,0:0|0:0,0:0:0:0:
221,223,269889,5,12,0:0:0:0:
319,97,270043,1,2,0:0:0:0:
127,156,270198,5,12,0:0:0:0:
345,271,270352,1,2,0:0:0:0:
92,281,270507,5,12,0:0:0:0:
262,82,270662,1,2,0:0:0:0:
12,194,270816,5,12,0:0:0:0:
280,344,270971,1,2,0:0:0:0:
166,367,271126,5,8,0:0:0:0:
100,165,271280,1,2,0:0:0:0:
278,135,271435,5,8,0:0:0:0:
67,288,271590,1,2,0:0:0:0:
208,21,271744,6,0,L|182:127,1,88.000002685547,8|2,0:0|0:0,0:0:0:0:
300,364,272053,2,0,L|320:278,1,88.000002685547,8|2,0:0|0:0,0:0:0:0:
493,87,272363,5,12,0:0:0:0:
456,64,272440,1,0,0:0:0:0:
413,64,272517,1,2,0:0:0:0:
376,86,272594,1,2,0:0:0:0:
357,126,272672,2,0,P|354:58|333:35,1,71.9999978027344,2|2,0:0|0:0,0:0:0:0:
126,72,272827,2,0,L|211:59,1,71.9999978027344,12|0,0:0|0:0,0:0:0:0:
312,295,272981,5,2,0:0:0:0:
318,247,273058,1,2,0:0:0:0:
299,204,273135,1,2,0:0:0:0:
260,177,273212,1,2,0:0:0:0:
213,174,273291,2,0,L|196:258,1,71.9999978027344,12|0,0:0|0:0,0:0:0:0:
43,18,273445,2,0,L|60:102,1,71.9999978027344,8|0,0:0|0:0,0:0:0:0:
161,332,273600,5,8,0:0:0:0:
353,270,273754,1,2,0:0:0:0:
131,156,273909,5,8,0:0:0:0:
295,371,274063,1,2,0:0:0:0:
262,65,274218,5,8,0:0:0:0:
113,258,274373,1,2,0:0:0:0:
139,20,274528,5,8,0:0:0:0:
341,205,274682,1,2,0:0:0:0:
53,145,274837,6,0,L|157:122,1,88.000002685547,12|2,0:0|0:0,0:0:0:0:
337,309,275146,2,0,L|233:286,1,88.000002685547,12|2,0:0|0:0,0:0:0:0:
88,47,275456,5,12,0:0:0:0:
141,256,275610,1,2,0:0:0:0:
266,19,275765,5,12,0:0:0:0:
67,148,275919,1,2,0:0:0:0:
371,139,276074,5,8,0:0:0:0:
155,20,276229,1,2,0:0:0:0:
306,205,276383,5,8,0:0:0:0:
341,31,276538,1,2,0:0:0:0:
229,289,276693,5,8,0:0:0:0:
152,103,276847,1,2,0:0:0:0:
349,380,277002,5,8,0:0:0:0:
423,197,277157,1,2,0:0:0:0:
259,316,277311,5,12,0:0:0:0:
472,286,277466,1,2,0:0:0:0:
269,149,277620,5,12,0:0:0:0:
386,368,277775,1,2,0:0:0:0:
389,66,277930,6,0,L|284:40,1,88.000002685547,12|2,0:0|0:0,0:0:0:0:
155,265,278239,2,0,L|240:243,1,88.000002685547,12|2,0:0|0:0,0:0:0:0:
433,165,278548,5,8,0:0:0:0:
198,81,278703,1,2,0:0:0:0:
341,89,278858,5,8,0:0:0:0:
117,185,279012,1,2,0:0:0:0:
198,81,279167,5,8,0:0:0:0:
137,307,279322,1,2,0:0:0:0:
117,185,279476,5,8,0:0:0:0:
231,384,279631,1,2,0:0:0:0:
327,367,279785,5,12,0:0:0:0:
137,307,279940,1,2,0:0:0:0:
404,193,280095,5,12,0:0:0:0:
211,369,280249,1,2,0:0:0:0:
244,45,280404,5,12,0:0:0:0:
363,272,280559,1,10,0:0:0:0:
59,55,280713,6,0,L|123:49,1,44.0000013427735,8|2,0:0|0:0,0:0:0:0:
333,146,280868,2,0,L|269:140,1,44.0000013427735,2|0,0:0|0:0,0:0:0:0:
75,219,281023,5,6,0:0:0:0:
223,37,281177,1,0,0:0:0:0:
188,303,281332,5,8,0:0:0:0:
99,98,281486,1,8,0:0:0:0:
335,328,281641,5,8,0:0:0:0:
126,231,281796,1,8,0:0:0:0:
126,231,281873,1,0,0:0:0:0:
126,231,281950,2,0,P|186:210|212:217,1,71.9999978027344,8|0,0:0|0:0,0:0:0:0:
353,124,282105,2,0,P|317:121|286:103,1,71.9999978027344,8|0,0:0|0:0,0:0:0:0:
209,9,282260,5,6,0:0:0:0:
383,260,282414,1,0,0:0:0:0:
101,155,282569,5,8,0:0:0:0:
451,45,282724,1,8,0:0:0:0:
22,31,282878,5,8,0:0:0:0:
317,174,283033,1,2,0:0:0:0:
317,174,283110,1,0,0:0:0:0:
317,174,283187,2,0,L|299:256,1,80,2|2,0:0|0:0,0:0:0:0:
188,131,283497,6,0,B|73:73|36:230|130:288|203:240|245:174|245:174|282:121|349:99|434:174|386:278|293:251,1,640,4|0,0:0|0:0,0:0:0:0:
256,192,288523,12,0,298342,0:0:0:0:
