osu file format v14

[General]
AudioFilename: audio.mp3
AudioLeadIn: 0
PreviewTime: 197750
Countdown: 0
SampleSet: Soft
StackLeniency: 0.5
Mode: 0
LetterboxInBreaks: 0
WidescreenStoryboard: 1

[Editor]
DistanceSpacing: 1.3
BeatDivisor: 4
GridSize: 4
TimelineZoom: 1.7

[Metadata]
Title:Fairytale,
TitleUnicode:Fairytale,
Artist:Ito Kashitaro
ArtistUnicode:伊東歌詞太郎
Creator:Battle
Version:NiNo's Insane
Source:
Tags:gumi hero buzzg Haruto Haruto_Aizawa Nerova_Riuz_GX NRG SnowNiNo_ Doormat Anxient utaite male vocal cilia vocaloid cover japanese rock jrock j-rock dakinibrave xayah
BeatmapID:912909
BeatmapSetID:417615

[Difficulty]
HPDrainRate:5.4
CircleSize:4
OverallDifficulty:8
ApproachRate:9
SliderMultiplier:1.8
SliderTickRate:1

[Events]
//Background and Video events
Video,-621,"y.avi"
0,0,"5b7c7dd6f0.jpg",0,0
//Break Periods
//Storyboard Layer 0 (Background)
//Storyboard Layer 1 (Fail)
//Storyboard Layer 2 (Pass)
//Storyboard Layer 3 (Foreground)
//Storyboard Layer 4 (Overlay)
//Storyboard Sound Samples

[TimingPoints]
1436,309.278350515464,4,2,2,60,1,0
2363,-200,4,2,2,60,0,0
2982,-100,4,2,2,60,0,0
4838,-200,4,2,2,60,0,0
6075,-100,4,2,2,60,0,0
7312,-200,4,2,2,60,0,0
8781,-200,4,2,2,5,0,0
8858,-100,4,2,2,60,0,0
9786,-200,4,2,2,60,0,0
11023,-100,4,2,2,60,0,0
12260,-200,4,2,2,60,0,0
13807,-100,4,2,2,60,0,0
14734,-200,4,2,2,60,0,0
16281,-100,4,2,2,60,0,0
17209,-200,4,2,2,60,0,0
18678,-200,4,2,2,5,0,0
18755,-100,4,2,2,60,0,0
19683,-200,4,2,2,60,0,0
21152,-200,4,2,2,60,0,0
21229,-200,4,2,2,60,0,0
31126,-133.333333333333,4,2,2,60,0,0
32054,-200,4,2,2,60,0,0
33291,-133.333333333333,4,2,2,60,0,0
33523,-133.333333333333,4,2,2,5,0,0
33600,-133.333333333333,4,2,2,60,0,0
34528,-200,4,2,2,60,0,0
36075,-133.333333333333,4,2,2,60,0,0
37621,-200,4,2,2,60,0,0
38626,-200,4,2,2,60,0,0
39477,-200,4,2,2,60,0,0
39863,-200,4,2,2,60,0,0
41796,-200,4,2,2,5,0,0
41951,-200,4,2,2,60,0,0
42183,-200,4,2,2,5,0,0
42260,-133.333333333333,4,2,2,60,0,0
42647,-133.333333333333,4,2,2,5,0,0
42724,-200,4,2,2,60,0,0
43111,-200,4,2,2,5,0,0
43188,-200,4,2,2,60,0,0
43420,-200,4,2,2,5,0,0
43497,-83.3333333333333,4,2,3,80,0,1
43575,-83.3333333333333,4,2,3,80,0,1
43729,-83.3333333333333,4,2,3,5,0,1
43807,-83.3333333333333,4,2,3,80,0,1
51152,-83.3333333333333,4,2,3,5,0,1
51229,-83.3333333333333,4,2,3,80,0,1
56100,-83.3333333333333,4,2,3,5,0,1
56178,-83.3333333333333,4,2,3,80,0,1
58343,-66.6666666666667,4,2,3,80,0,1
59503,-66.6666666666667,4,2,3,5,0,1
59580,-83.3333333333333,4,2,3,80,0,1
63291,-83.3333333333333,4,2,3,80,0,1
63368,-83.3333333333333,4,2,3,80,0,1
63523,-83.3333333333333,4,2,3,5,0,1
63600,-83.3333333333333,4,2,3,80,0,1
68472,-83.3333333333333,4,2,3,5,0,1
68549,-83.3333333333333,4,2,3,80,0,1
80611,-83.3333333333333,4,2,1,60,0,0
80920,-133.333333333333,4,2,1,60,0,0
81848,-100,4,2,1,60,0,0
83085,-133.333333333333,4,2,1,60,0,0
84322,-100,4,2,1,60,0,0
86100,-100,4,2,1,5,0,0
86178,-100,4,2,1,60,0,0
88575,-100,4,2,1,5,0,0
88652,-100,4,2,1,60,0,0
95456,-100,4,2,1,80,0,0
97853,-100,4,2,1,5,0,0
97930,-100,4,2,1,80,0,0
100405,-200,4,2,1,40,0,0
101023,-83.3333333333333,4,2,1,40,0,0
101642,-100,4,2,1,60,0,0
108987,-100,4,2,1,5,0,0
109064,-100,4,2,1,60,0,0
118884,-100,4,2,1,5,0,0
118961,-100,4,2,1,60,0,0
119657,-100,4,2,1,5,0,0
119734,-100,4,2,1,60,0,0
121436,309.278350515464,6,2,2,40,1,0
121436,-200,6,2,2,40,0,0
142621,-200,6,2,1,40,0,0
143704,-200,6,2,4,40,0,0
154838,309.278350515464,4,2,3,60,1,0
158781,-100,4,2,3,5,0,0
158858,-100,4,2,3,60,0,0
165894,-100,4,2,3,5,0,0
165972,-100,4,2,3,60,0,0
169838,-100,4,2,3,60,0,0
170147,-100,4,2,3,60,0,0
177338,-100,4,2,3,5,0,0
177415,-100,4,2,3,60,0,0
179580,-133.333333333333,4,2,3,60,0,0
188008,-133.333333333333,4,2,3,5,0,0
188085,-133.333333333333,4,2,3,60,0,0
189709,-133.333333333333,4,2,3,5,0,0
189786,-133.333333333333,4,2,3,60,0,0
192183,-133.333333333333,4,2,3,5,0,0
192260,-133.333333333333,4,2,3,60,0,0
198136,-200,4,2,2,60,0,0
199451,-200,4,2,2,60,0,0
200147,-200,4,2,2,5,0,0
200224,-200,4,2,2,5,0,0
200301,-200,4,2,2,60,0,0
200611,-200,4,2,2,60,0,0
201539,-200,4,2,2,5,0,0
201616,-200,4,2,2,80,0,0
201693,-200,4,2,2,5,0,0
202466,-200,4,2,2,80,0,0
202688,309.278350515464,4,2,2,60,1,0
202688,-200,4,2,2,60,0,0
202919,-200,4,2,2,5,0,0
203056,309.278350515464,4,2,2,60,1,0
203056,-100,4,2,2,60,0,0
203365,-100,4,2,2,5,0,0
203486,309.278350515464,4,2,2,60,1,0
203486,-222.222222222222,4,2,2,60,0,0
203872,-222.222222222222,4,2,2,5,0,0
204001,-222.222222222222,4,2,2,60,0,0
204004,309.278350515464,4,2,2,60,1,0
204235,-100,4,2,2,5,0,0
204322,309.278350515464,4,2,3,80,1,1
204322,-76.9230769230769,4,2,3,80,0,1
204399,-76.9230769230769,4,2,3,80,0,1
204553,-76.9230769230769,4,2,3,5,0,1
204631,-76.9230769230769,4,2,3,80,0,1
207028,-76.9230769230769,4,2,3,5,0,1
207105,-76.9230769230769,4,2,3,80,0,1
216925,-76.9230769230769,4,2,3,5,0,1
217002,-76.9230769230769,4,2,3,80,0,1
220327,-76.9230769230769,4,2,3,5,0,1
220404,-76.9230769230769,4,2,3,80,0,1
224116,-76.9230769230769,4,2,3,80,0,1
224193,-76.9230769230769,4,2,3,80,0,1
229296,-76.9230769230769,4,2,3,5,0,1
229373,-76.9230769230769,4,2,3,80,0,1
231770,-76.9230769230769,4,2,3,5,0,1
231847,-76.9230769230769,4,2,3,80,0,1
236718,-76.9230769230769,4,2,3,5,0,1
236796,-76.9230769230769,4,2,3,80,0,1
240430,-76.9230769230769,4,2,3,5,0,1
240507,-76.9230769230769,4,2,3,80,0,1
242672,-133.333333333333,4,2,2,60,0,1
243059,-133.333333333333,4,2,2,5,0,1
243136,-133.333333333333,4,2,2,60,0,1
243523,-133.333333333333,4,2,2,5,0,1
243600,-133.333333333333,4,2,2,60,0,1
243832,-133.333333333333,4,2,2,5,0,1
243909,-100,4,2,3,80,0,0
251564,-100,4,2,3,5,0,0
251641,-100,4,2,3,80,0,0
254038,-100,4,2,3,5,0,0
254115,-100,4,2,3,80,0,0
258677,-100,4,2,3,5,0,0
258754,-100,4,2,3,80,0,0
258986,-100,4,2,3,5,0,0
259064,-100,4,2,3,80,0,0
263703,-83.3333333333333,4,2,3,80,0,0
283497,-83.3333333333333,4,2,3,60,0,0
292619,-83.3333333333333,4,2,3,35,0,0

[Colours]
Combo1 : 140,140,140
Combo2 : 83,119,119
Combo3 : 143,162,102
Combo4 : 165,129,101
Combo5 : 232,164,62
Combo6 : 226,85,82
Combo7 : 119,163,217
Combo8 : 120,205,122

[HitObjects]
64,160,1126,5,2,0:0:0:0:
64,160,1281,1,2,0:0:0:0:
64,160,1436,6,0,P|108:168|228:112,1,180,2|0,0:0|0:0,0:0:0:0:
228,28,1899,2,0,P|284:52|292:160,1,180,2|0,0:0|0:0,0:0:0:0:
224,196,2363,6,0,P|244:224|341:221,1,135,2|0,0:0|0:0,0:0:0:0:
432,166,2982,6,0,L|448:278,1,90,2|0,0:0|0:0,0:0:0:0:
323,314,3291,2,0,L|339:202,1,90,2|0,0:0|0:0,0:0:0:0:
371,94,3600,2,0,P|319:86|287:58,1,90,2|0,0:0|0:0,0:0:0:0:
156,44,3910,6,0,P|112:64|88:184,1,180,2|2,0:0|0:0,0:0:0:0:
168,136,4374,2,0,P|176:180|296:236,1,180,2|2,0:0|0:0,0:0:0:0:
260,148,4838,6,0,P|329:160|316:323,1,270,2|0,0:0|0:0,0:0:0:0:
318,321,6075,6,0,L|226:301,1,90,2|2,0:0|0:0,0:0:0:0:
152,284,6384,2,0,P|120:232|176:128,1,180,2|2,0:0|0:0,0:0:0:0:
208,212,6848,2,0,P|256:224|348:132,1,180,2|2,0:0|0:0,0:0:0:0:
256,136,7312,6,0,P|300:72|404:76,1,180,2|2,0:0|0:0,0:0:0:0:
396,72,8549,5,2,0:0:0:0:
396,72,8858,2,0,P|440:112|404:240,1,180,2|0,0:0|0:0,0:0:0:0:
392,308,9322,2,0,P|348:268|384:140,1,180,2|0,0:0|0:0,0:0:0:0:
308,84,9786,6,0,B|196:-12|196:180|68:84,1,270,2|0,0:0|0:0,0:0:0:0:
67,83,11023,6,0,L|59:175,1,90,2|2,0:0|0:0,0:0:0:0:
149,171,11332,2,0,P|208:160|280:244,1,180,2|2,0:0|0:0,0:0:0:0:
324,320,11796,2,0,P|264:336|189:252,1,180,2|2,0:0|0:0,0:0:0:0:
279,242,12260,6,0,B|355:216|355:216|374:228|374:228|450:202,1,180,2|2,0:0|0:0,0:0:0:0:
480,120,13188,2,0,P|464:88|408:56,1,90,2|2,0:0|0:0,0:0:0:0:
344,136,13807,6,0,L|144:120,1,180,2|2,0:0|0:0,0:0:0:0:
120,40,14271,2,0,P|80:80|116:200,1,180,2|2,0:0|0:0,0:0:0:0:
192,204,14734,6,0,B|236:220|236:220|248:252|248:252|308:272,1,135,2|0,0:0|0:0,0:0:0:0:
392,268,15353,2,0,L|376:212,1,45,2|0,0:0|0:0,0:0:0:0:
352,140,15662,1,2,0:0:0:0:
352,140,15817,1,2,0:0:0:0:
352,140,16126,5,2,0:0:0:0:
352,140,16281,2,0,P|340:84|224:44,1,180,2|2,0:0|0:0,0:0:0:0:
164,92,16745,2,0,B|144:232|144:232|192:220,1,180,2|2,0:0|0:0,0:0:0:0:
251,279,17209,6,0,P|268:232|259:187,1,90,2|0,0:0|0:0,0:0:0:0:
261,193,17827,1,2,0:0:0:0:
261,193,18446,5,2,0:0:0:0:
261,193,18755,2,0,P|269:137|165:65,1,180,2|2,0:0|0:0,0:0:0:0:
108,116,19219,2,0,L|80:300,1,180,2|2,0:0|0:0,0:0:0:0:
152,348,19683,6,0,B|228:320|228:320|228:336|228:336|312:304,1,180,2|0,0:0|0:0,0:0:0:0:
305,306,20611,1,0,0:0:0:0:
376,216,20920,5,2,0:0:0:0:
376,216,21229,2,0,P|392:188|376:120,1,90,2|0,0:0|0:0,0:0:0:0:
348,48,21848,1,2,0:0:0:0:
260,68,22157,2,0,L|160:76,1,90,2|0,0:0|0:0,0:0:0:0:
170,75,22776,1,2,0:0:0:0:
170,75,23394,5,2,0:0:0:0:
88,116,23704,2,0,P|68:140|64:200,1,90,2|2,0:0|0:0,0:0:0:0:
112,272,24322,1,2,0:0:0:0:
144,176,24631,2,0,L|284:164,1,135,2|2,0:0|0:0,0:0:0:0:
316,80,25250,2,0,P|352:104|364:160,1,90,2|0,0:0|0:0,0:0:0:0:
360,236,25868,1,2,0:0:0:0:
360,236,26178,6,0,P|348:260|280:284,1,90,2|0,0:0|0:0,0:0:0:0:
212,248,26796,2,0,P|224:224|292:200,1,90,2|0,0:0|0:0,0:0:0:0:
368,184,27415,2,0,L|352:84,1,90,2|0,0:0|0:0,0:0:0:0:
292,28,28033,2,0,L|276:128,1,90,2|0,0:0|0:0,0:0:0:0:
256,204,28652,6,0,P|176:188|104:252,1,180,2|2,0:0|0:0,0:0:0:0:
212,328,29580,1,2,0:0:0:0:
212,328,29889,2,0,L|396:320,1,180,2|2,0:0|0:0,0:0:0:0:
396,324,30972,5,2,0:0:0:0:
396,324,31126,2,0,P|432:280|420:196,1,135.000005149842,2|2,0:0|0:0,0:0:0:0:
332,240,31590,2,0,P|296:196|308:112,1,135.000005149842,2|2,0:0|0:0,0:0:0:0:
388,96,32054,6,0,P|364:56|236:60,1,180,2|2,0:0|0:0,0:0:0:0:
243,53,33291,5,2,0:0:0:0:
243,53,33600,2,0,P|259:97|231:177,1,135.000005149842,2|2,0:0|0:0,0:0:0:0:
155,105,34064,2,0,P|126:164|142:229,1,135.000005149842,2|2,0:0|0:0,0:0:0:0:
64,276,34528,6,0,P|100:308|224:260,1,180,2|2,0:0|0:0,0:0:0:0:
220,280,35920,5,2,0:0:0:0:
220,280,36075,2,0,P|256:304|356:304,1,135.000005149842,2|2,0:0|0:0,0:0:0:0:
476,268,36693,1,2,0:0:0:0:
476,268,37003,2,0,L|460:128,1,135.000005149842,2|0,0:0|0:0,0:0:0:0:
412,60,37621,6,0,P|376:40|348:184,1,270,2|2,0:0|0:0,0:0:0:0:
341,182,39786,1,2,0:0:0:0:
48,216,41951,5,2,0:0:0:0:
48,216,42260,2,0,P|32:172|96:64,1,168.750006437302,2|0,0:0|0:0,0:0:0:0:
132,160,42724,6,0,P|152:220|116:292,1,135,2|2,0:0|0:0,0:0:0:0:
256,328,43497,6,0,P|320:340|372:324,1,107.999996704102,6|0,0:0|0:0,0:0:0:0:
432,184,43807,2,0,P|368:172|316:188,1,107.999996704102,8|0,0:0|0:0,0:0:0:0:
192,272,44116,1,2,0:0:0:0:
376,256,44271,1,2,0:0:0:0:
248,160,44425,1,8,0:0:0:0:
320,368,44580,1,2,0:0:0:0:
192,272,44734,6,0,P|164:212|164:160,1,107.999996704102
304,88,45044,2,0,P|332:148|332:200,1,107.999996704102,8|0,0:0|0:0,0:0:0:0:
256,332,45353,1,2,0:0:0:0:
248,160,45508,1,2,0:0:0:0:
336,304,45662,1,8,0:0:0:0:
304,88,45817,1,2,0:0:0:0:
220,248,45972,6,0,L|96:240,1,107.999996704102,2|0,0:0|0:0,0:0:0:0:
64,84,46281,2,0,L|188:76,1,107.999996704102,8|0,0:0|0:0,0:0:0:0:
288,192,46590,1,2,0:0:0:0:
252,32,46745,1,2,0:0:0:0:
220,248,46899,6,0,P|276:284|328:272,1,107.999996704102,8|2,0:0|0:0,0:0:0:0:
452,192,47209,2,0,L|436:76,1,107.999996704102,2|0,0:0|0:0,0:0:0:0:
302,85,47518,2,0,L|286:201,1,107.999996704102,8|0,0:0|0:0,0:0:0:0:
176,308,47827,2,0,P|136:252|128:208,1,107.999996704102,2|2,0:0|0:0,0:0:0:0:
239,98,48137,2,0,P|279:154|287:198,1,107.999996704102,8|2,0:0|0:0,0:0:0:0:
360,336,48446,6,0,P|428:320|472:184,1,215.999993408203,2|8,0:0|0:0,0:0:0:0:
380,60,48910,1,0,0:0:0:0:
357,220,49064,2,0,P|289:216|241:248,1,107.999996704102,2|0,0:0|0:0,0:0:0:0:
128,328,49374,2,0,P|196:332|244:300,1,107.999996704102,8|2,0:0|0:0,0:0:0:0:
374,326,49683,6,0,L|354:206,1,107.999996704102,0|2,0:0|0:0,0:0:0:0:
272,127,49992,2,0,L|252:247,1,107.999996704102,8|0,0:0|0:0,0:0:0:0:
137,272,50301,2,0,P|177:308|245:308,1,107.999996704102,2|0,0:0|0:0,0:0:0:0:
356,220,50611,2,0,P|316:184|248:184,1,107.999996704102,8|2,0:0|0:0,0:0:0:0:
160,60,50920,6,0,L|380:40,1,215.999993408203,2|8,0:0|0:0,0:0:0:0:
492,148,51384,1,0,0:0:0:0:
358,221,51539,2,0,P|294:209|260:168,1,107.999996704102,2|2,0:0|0:0,0:0:0:0:
375,40,51848,6,0,L|496:24,1,107.999996704102,8|2,0:0|0:0,0:0:0:0:
433,176,52157,2,0,P|443:232|412:295,1,107.999996704102,0|2,0:0|0:0,0:0:0:0:
250,224,52466,2,0,L|366:220,1,107.999996704102,8|0,0:0|0:0,0:0:0:0:
375,40,52776,2,0,L|259:36,1,107.999996704102,2|2,0:0|0:0,0:0:0:0:
112,84,53085,2,0,P|168:124|216:128,1,107.999996704102,12|2,0:0|0:0,0:0:0:0:
336,200,53394,6,0,P|324:276|184:320,1,215.999993408203,6|8,0:0|0:0,0:0:0:0:
202,84,53858,2,0,L|428:95,1,215.999993408203,2|2,0:0|0:0,0:0:0:0:
230,222,54322,2,0,L|116:216,1,107.999996704102,8|0,0:0|0:0,0:0:0:0:
352,352,54631,5,0,0:0:0:0:
380,192,54786,1,2,0:0:0:0:
264,304,54941,2,0,P|248:252|268:196,1,107.999996704102,8|0,0:0|0:0,0:0:0:0:
312,92,55250,1,2,0:0:0:0:
332,252,55405,1,2,0:0:0:0:
392,40,55559,2,0,P|408:92|388:148,1,107.999996704102,8|2,0:0|0:0,0:0:0:0:
232,144,55868,6,0,P|181:115|44:184,1,215.999993408203,2|8,0:0|0:0,0:0:0:0:
39,336,56332,1,0,0:0:0:0:
149,217,56487,2,0,P|193:249|245:253,1,107.999996704102,2|2,0:0|0:0,0:0:0:0:
408,236,56796,2,0,P|364:204|312:200,1,107.999996704102,8|2,0:0|0:0,0:0:0:0:
172,32,57106,5,0,0:0:0:0:
245,252,57260,1,2,0:0:0:0:
336,54,57415,1,8,0:0:0:0:
168,216,57570,1,0,0:0:0:0:
254,39,57724,1,2,0:0:0:0:
311,200,57879,1,2,0:0:0:0:
172,32,58033,1,8,0:0:0:0:
168,216,58188,1,2,0:0:0:0:
312,80,58343,6,0,B|388:52|468:84|468:84|440:160|460:224,1,270.000010299683,6|8,0:0|0:0,0:0:0:0:
428,364,58807,2,0,B|465:271|465:271|394:274|354:212|384:140,1,270.000010299683,4|2,0:0|0:0,0:0:0:0:
240,144,59271,2,0,P|200:216|208:284,1,135.000005149842,8|0,0:0|0:0,0:0:0:0:
352,324,59580,6,0,B|276:288|276:288|262:335|207:365|146:330,1,215.999993408203,2|8,0:0|0:0,0:0:0:0:
79,199,60044,2,0,B|148:157|148:157|125:247|226:275,1,215.999993408203,2|0,0:0|0:0,0:0:0:0:
332,172,60508,2,0,L|216:188,1,107.999996704102,8|2,0:0|0:0,0:0:0:0:
148,44,60817,5,4,0:0:0:0:
124,264,60972,1,2,0:0:0:0:
44,60,61126,1,8,0:0:0:0:
232,192,61281,1,2,0:0:0:0:
232,192,61358,1,2,0:0:0:0:
232,192,61436,1,2,0:0:0:0:
20,224,61590,1,2,0:0:0:0:
148,44,61745,1,8,0:0:0:0:
124,264,61899,1,6,0:0:0:0:
44,60,62054,6,0,P|68:120|116:148,1,107.999996704102,2|0,0:0|0:0,0:0:0:0:
290,275,62363,2,0,P|266:215|218:187,1,107.999996704102,8|6,0:0|0:0,0:0:0:0:
200,76,62673,1,0,0:0:0:0:
226,72,62750,1,0,0:0:0:0:
253,68,62827,1,8,0:0:0:0:
280,64,62904,1,8,0:0:0:0:
306,60,62982,1,8,0:0:0:0:
333,56,63059,1,8,0:0:0:0:
360,52,63136,1,8,0:0:0:0:
387,48,63214,1,0,0:0:0:0:
416,44,63291,6,0,P|472:68|504:112,1,107.999996704102,6|0,0:0|0:0,0:0:0:0:
388,292,63600,2,0,L|396:160,1,107.999996704102,8|0,0:0|0:0,0:0:0:0:
304,32,63910,1,2,0:0:0:0:
296,248,64064,1,2,0:0:0:0:
188,60,64219,2,0,L|180:192,1,107.999996704102,8|2,0:0|0:0,0:0:0:0:
221,359,64528,6,0,L|213:227,1,107.999996704102,0|2,0:0|0:0,0:0:0:0:
336,328,64838,1,8,0:0:0:0:
135,239,64992,1,0,0:0:0:0:
347,220,65147,2,0,P|307:176|255:152,1,107.999996704102,2|2,0:0|0:0,0:0:0:0:
53,174,65456,2,0,P|93:218|145:242,1,107.999996704102,8|2,0:0|0:0,0:0:0:0:
336,328,65765,6,0,L|348:216,1,107.999996704102,2|0,0:0|0:0,0:0:0:0:
268,16,66075,1,8,0:0:0:0:
416,172,66229,1,0,0:0:0:0:
220,84,66384,2,0,P|188:124|184:188,1,107.999996704102,2|2,0:0|0:0,0:0:0:0:
276,372,66693,1,8,0:0:0:0:
272,160,66848,1,2,0:0:0:0:
132,296,67003,6,0,L|248:280,1,107.999996704102,0|2,0:0|0:0,0:0:0:0:
378,174,67312,2,0,L|262:158,1,107.999996704102,8|0,0:0|0:0,0:0:0:0:
64,92,67621,2,0,P|60:164|88:204,1,107.999996704102,2|2,0:0|0:0,0:0:0:0:
238,281,67930,1,8,0:0:0:0:
194,89,68085,1,2,0:0:0:0:
140,288,68240,6,0,P|160:220|200:192,1,107.999996704102,2|0,0:0|0:0,0:0:0:0:
400,216,68549,2,0,P|380:284|340:312,1,107.999996704102,8|0,0:0|0:0,0:0:0:0:
187,197,68858,2,0,L|195:89,1,107.999996704102,2|2,0:0|0:0,0:0:0:0:
392,108,69167,2,0,L|400:216,1,107.999996704102,8|2,0:0|0:0,0:0:0:0:
252,336,69477,6,0,P|276:268|272:224,1,107.999996704102,0|2,0:0|0:0,0:0:0:0:
316,32,69786,2,0,P|292:100|296:144,1,107.999996704102,8|0,0:0|0:0,0:0:0:0:
498,107,70095,2,0,P|434:115|378:103,1,107.999996704102,2|0,0:0|0:0,0:0:0:0:
187,135,70405,2,0,P|251:127|307:139,1,107.999996704102,8|2,0:0|0:0,0:0:0:0:
444,304,70714,5,2,0:0:0:0:
240,236,70868,1,0,0:0:0:0:
456,208,71023,2,0,L|336:220,1,107.999996704102,8|0,0:0|0:0,0:0:0:0:
232,88,71332,1,2,0:0:0:0:
216,320,71487,1,2,0:0:0:0:
132,120,71642,2,0,P|120:192|128:236,1,107.999996704102,8|2,0:0|0:0,0:0:0:0:
328,304,71951,5,0,0:0:0:0:
105,312,72106,1,2,0:0:0:0:
348,218,72260,1,8,0:0:0:0:
125,226,72415,1,0,0:0:0:0:
236,40,72570,1,8,0:0:0:0:
262,44,72647,1,8,0:0:0:0:
289,49,72724,1,8,0:0:0:0:
315,53,72801,1,8,0:0:0:0:
342,58,72879,1,2,0:0:0:0:
369,62,72956,1,0,0:0:0:0:
395,67,73033,1,2,0:0:0:0:
422,71,73111,1,0,0:0:0:0:
448,76,73188,6,0,P|488:152|388:260,1,215.999993408203,6|8,0:0|0:0,0:0:0:0:
272,316,73652,1,0,0:0:0:0:
164,192,73807,2,0,L|400:148,1,215.999993408203,2|8,0:0|0:0,0:0:0:0:
472,20,74271,1,2,0:0:0:0:
312,44,74425,6,0,P|252:32|196:64,1,107.999996704102,0|2,0:0|0:0,0:0:0:0:
62,197,74734,2,0,P|122:209|178:177,1,107.999996704102,8|0,0:0|0:0,0:0:0:0:
376,244,75044,2,0,L|360:120,1,107.999996704102,2|2,0:0|0:0,0:0:0:0:
210,49,75353,2,0,L|194:173,1,107.999996704102,8|2,0:0|0:0,0:0:0:0:
92,348,75662,5,2,0:0:0:0:
76,132,75817,1,0,0:0:0:0:
172,328,75972,2,0,L|179:221,1,107.999996704102,12|0,0:0|0:0,0:0:0:0:
280,40,76281,1,2,0:0:0:0:
291,270,76436,1,2,0:0:0:0:
420,130,76590,2,0,P|369:106|315:109,1,107.999996704102,12|0,0:0|0:0,0:0:0:0:
76,84,76899,5,0,0:0:0:0:
280,40,77054,1,0,0:0:0:0:
162,223,77209,2,0,L|42:211,1,107.999996704102,12|0,0:0|0:0,0:0:0:0:
282,144,77518,1,2,0:0:0:0:
308,360,77673,1,2,0:0:0:0:
162,223,77827,2,0,P|134:167|138:119,1,107.999996704102,8|2,0:0|0:0,0:0:0:0:
284,60,78137,5,6,0:0:0:0:
262,230,78291,1,0,0:0:0:0:
192,73,78446,1,0,0:0:0:0:
204,275,78600,1,8,0:0:0:0:
294,128,78755,1,2,0:0:0:0:
131,185,78910,1,2,0:0:0:0:
326,243,79064,1,12,0:0:0:0:
188,137,79219,1,0,0:0:0:0:
144,340,79374,6,0,P|204:344|252:320,1,107.999996704102,2|8,0:0|0:0,0:0:0:0:
428,227,79683,2,0,P|368:223|320:247,1,107.999996704102,2|2,0:0|0:0,0:0:0:0:
128,244,79992,1,2,0:0:0:0:
120,218,80069,1,0,0:0:0:0:
118,191,80146,1,8,0:0:0:0:
121,164,80223,1,0,0:0:0:0:
131,139,80301,1,8,0:0:0:0:
146,117,80378,1,0,0:0:0:0:
166,98,80455,1,8,0:0:0:0:
189,85,80533,1,0,0:0:0:0:
215,77,80611,6,0,P|272:80|328:120,1,107.999996704102,6|0,0:0|0:0,0:0:0:0:
360,232,80920,6,0,L|372:308,1,67.5000025749208
152,232,81229,2,0,L|140:308,1,67.5000025749208
256,368,81539,2,0,L|256:300,1,67.5000025749208
316,136,81848,6,0,P|364:112|408:128,1,90
196,136,82157,2,0,P|148:112|104:128,1,90
141,298,82466,2,0,P|129:250|145:202,1,90
371,298,82776,2,0,P|383:250|367:202,1,90
256,144,83085,6,0,L|256:220,1,67.5000025749208
141,298,83394,2,0,P|101:290|65:270,1,67.5000025749208
371,298,83704,2,0,P|411:290|447:270,1,67.5000025749208
256,335,84013,2,0,L|256:268,1,67.5000025749208
212,92,84322,6,0,P|252:76|308:104,1,90
256,268,84631,1,0,0:0:0:0:
264,164,84786,1,8,0:0:0:0:
264,164,84863,1,8,0:0:0:0:
264,164,84941,1,8,0:0:0:0:
204,332,85095,1,2,0:0:0:0:
344,236,85250,1,2,0:0:0:0:
168,236,85405,1,2,0:0:0:0:
308,332,85559,6,0,P|368:340|444:256,1,180,6|0,0:0|0:0,0:0:0:0:
276,192,86023,1,0,0:0:0:0:
443,125,86178,2,0,P|394:53|308:52,1,180,8|0,0:0|0:0,0:0:0:0:
164,164,86642,1,8,0:0:0:0:
344,148,86796,6,0,P|376:204|416:216,1,90
248,316,87106,2,0,P|216:260|176:248,1,90,0|2,0:0|0:0,0:0:0:0:
28,176,87415,2,0,P|52:124|168:88,1,180,8|2,0:0|0:0,0:0:0:0:
161,86,88033,6,0,L|344:72,1,180,2|0,0:0|0:0,0:0:0:0:
480,188,88497,1,0,0:0:0:0:
344,308,88652,2,0,P|296:344|168:304,1,180,8|0,0:0|0:0,0:0:0:0:
104,160,89116,1,8,0:0:0:0:
256,260,89271,6,0,P|284:224|336:212,1,90,2|8,0:0|0:0,0:0:0:0:
496,268,89580,2,0,P|468:304|416:316,1,90,4|2,0:0|0:0,0:0:0:0:
372,144,89889,1,8,0:0:0:0:
348,324,90044,1,2,0:0:0:0:
450,136,90198,1,8,0:0:0:0:
426,316,90353,1,2,0:0:0:0:
372,144,90508,6,0,P|384:88|420:60,1,90,8|2,0:0|0:0,0:0:0:0:
456,240,90817,1,2,0:0:0:0:
484,60,90972,1,2,0:0:0:0:
372,144,91126,2,0,P|332:176|292:184,1,90,2|2,0:0|0:0,0:0:0:0:
140,88,91436,2,0,P|180:56|220:48,1,90,10|2,0:0|0:0,0:0:0:0:
224,228,91745,5,2,0:0:0:0:
292,64,91899,1,2,0:0:0:0:
308,272,92054,1,10,0:0:0:0:
196,132,92209,1,2,0:0:0:0:
372,172,92363,2,0,L|464:168,1,90,2|2,0:0|0:0,0:0:0:0:
308,272,92673,2,0,L|216:268,1,90,10|2,0:0|0:0,0:0:0:0:
44,316,92982,6,0,P|32:256|52:208,1,90,2|2,0:0|0:0,0:0:0:0:
80,52,93291,2,0,P|92:112|72:160,1,90,8|2,0:0|0:0,0:0:0:0:
140,304,93600,2,0,P|176:272|240:276,1,90,2|2,0:0|0:0,0:0:0:0:
276,96,93910,2,0,P|240:128|176:124,1,90,10|2,0:0|0:0,0:0:0:0:
57,233,94219,5,2,0:0:0:0:
216,267,94374,1,2,0:0:0:0:
97,151,94528,1,10,0:0:0:0:
175,348,94683,1,8,0:0:0:0:
175,348,94760,1,8,0:0:0:0:
175,348,94838,1,8,0:0:0:0:
201,188,94992,1,2,0:0:0:0:
248,343,95147,1,10,0:0:0:0:
274,183,95301,1,2,0:0:0:0:
120,256,95456,6,0,P|56:244|32:224,1,90,12|2,0:0|0:0,0:0:0:0:
191,156,95765,2,0,P|255:168|279:188,1,90,8|2,0:0|0:0,0:0:0:0:
104,162,96075,2,0,P|116:98|136:74,1,90,8|2,0:0|0:0,0:0:0:0:
213,240,96384,2,0,P|201:304|181:328,1,90,8|2,0:0|0:0,0:0:0:0:
4,310,96693,5,8,0:0:0:0:
104,162,96848,1,2,0:0:0:0:
84,304,97003,1,8,0:0:0:0:
184,156,97158,1,2,0:0:0:0:
188,320,97312,2,0,P|232:348|272:344,1,90,8|2,0:0|0:0,0:0:0:0:
264,181,97621,2,0,P|220:153|180:157,1,90,8|0,0:0|0:0,0:0:0:0:
32,252,97930,6,0,L|48:152,1,90,12|2,0:0|0:0,0:0:0:0:
169,66,98240,2,0,L|185:166,1,90,8|0,0:0|0:0,0:0:0:0:
140,328,98549,1,8,0:0:0:0:
140,328,98626,1,8,0:0:0:0:
140,328,98704,1,8,0:0:0:0:
46,163,98858,1,2,0:0:0:0:
16,340,99013,1,2,0:0:0:0:
172,252,99167,6,0,P|212:280|220:328,1,90,12|2,0:0|0:0,0:0:0:0:
156,148,99477,2,0,P|116:120|108:72,1,90,12|2,0:0|0:0,0:0:0:0:
256,180,99786,1,12,0:0:0:0:
80,212,99941,1,12,0:0:0:0:
184,72,100095,1,12,0:0:0:0:
152,320,100250,1,2,0:0:0:0:
256,180,100405,6,2,B|336:132|336:228|424:180,1,180,2|10,1:0|1:0,1:0:0:0:
436,188,101332,5,0,0:0:0:0:
436,188,101487,1,2,0:0:0:0:
436,188,101642,2,0,P|460:228|392:344,1,180,6|8,0:0|0:0,0:0:0:0:
276,368,102106,2,0,P|252:328|320:212,1,180,0|2,0:0|0:0,0:0:0:0:
412,115,102570,6,0,P|313:136|202:4,1,270,8|2,0:0|0:0,0:0:0:0:
112,72,103188,2,0,P|88:116|96:160,1,90,8|0,0:0|0:0,0:0:0:0:
216,284,103497,2,0,P|240:240|232:196,1,90,2|2,0:0|0:0,0:0:0:0:
56,228,103807,2,0,L|168:224,1,90,8|2,0:0|0:0,0:0:0:0:
236,124,104116,5,2,0:0:0:0:
227,259,104271,2,0,L|221:366,1,90,2|8,0:0|0:0,0:0:0:0:
380,284,104580,2,0,P|316:240|336:128,1,180,2|2,0:0|0:0,0:0:0:0:
504,92,105044,6,0,P|496:144|380:192,1,180,8|0,0:0|0:0,0:0:0:0:
320,145,105508,1,2,0:0:0:0:
403,19,105662,2,0,L|399:115,1,90,8|0,0:0|0:0,0:0:0:0:
390,195,105972,1,2,0:0:0:0:
390,195,106126,1,2,0:0:0:0:
320,145,106281,6,0,L|223:130,1,90,8|2,0:0|0:0,0:0:0:0:
192,28,106590,2,0,P|136:40|76:152,1,180,2|8,0:0|0:0,0:0:0:0:
184,136,107054,2,0,P|180:204|264:288,1,180,0|2,0:0|0:0,0:0:0:0:
288,360,107518,6,0,P|320:332|276:204,1,180,8|0,0:0|0:0,0:0:0:0:
250,283,107982,1,2,0:0:0:0:
335,285,108137,2,0,L|435:277,1,90,8|0,0:0|0:0,0:0:0:0:
294,212,108446,2,0,L|194:204,1,90,2|2,0:0|0:0,0:0:0:0:
111,199,108755,1,8,0:0:0:0:
111,199,109064,6,0,P|132:144|254:126,1,180,2|8,0:0|0:0,0:0:0:0:
280,244,109528,2,0,P|268:304|163:344,1,180,2|2,0:0|0:0,0:0:0:0:
32,296,109992,1,8,0:0:0:0:
32,296,110301,6,0,P|36:240|60:212,1,90,0|2,0:0|0:0,0:0:0:0:
188,256,110611,2,0,P|184:200|160:172,1,90,8|0,0:0|0:0,0:0:0:0:
163,174,110843,1,8,0:0:0:0:
163,174,110920,1,8,0:0:0:0:
68,80,111075,1,8,0:0:0:0:
68,80,111152,1,8,0:0:0:0:
68,80,111229,1,8,0:0:0:0:
68,80,111307,1,0,0:0:0:0:
68,80,111384,1,2,0:0:0:0:
68,80,111461,1,2,0:0:0:0:
68,80,111539,6,0,P|120:92|244:48,1,180,6|8,0:0|0:0,0:0:0:0:
288,180,112003,2,0,P|236:168|112:212,1,180,0|2,0:0|0:0,0:0:0:0:
28,212,112466,6,0,P|100:296|168:280,1,180,8|0,0:0|0:0,0:0:0:0:
252,270,112930,1,2,0:0:0:0:
150,375,113085,2,0,L|158:283,1,90,8|0,0:0|0:0,0:0:0:0:
244,180,113394,2,0,L|252:272,1,90,2|2,0:0|0:0,0:0:0:0:
350,352,113704,1,8,0:0:0:0:
350,352,114013,6,0,P|370:300|306:180,1,180,2|8,0:0|0:0,0:0:0:0:
380,72,114477,2,0,L|188:56,1,180,0|2,0:0|0:0,0:0:0:0:
108,120,114941,6,0,B|31:241|176:256|92:379,1,270,12|2,0:0|0:0,0:0:0:0:
245,334,115559,2,0,L|256:240,1,90,8|0,0:0|0:0,0:0:0:0:
108,295,115868,1,2,0:0:0:0:
108,295,116023,2,0,L|97:201,1,90,2|8,0:0|0:0,0:0:0:0:
25,281,116332,5,2,0:0:0:0:
51,359,116487,2,0,P|119:380|199:293,1,180,6|8,0:0|0:0,0:0:0:0:
115,115,116951,2,0,L|107:299,1,180,0|2,0:0|0:0,0:0:0:0:
274,369,117415,6,0,L|266:185,1,180,8|0,0:0|0:0,0:0:0:0:
213,113,117879,1,2,0:0:0:0:
175,198,118033,2,0,L|357:179,1,180,8|2,0:0|0:0,0:0:0:0:
101,302,118652,1,8,0:0:0:0:
101,302,118961,6,0,P|69:260|109:132,1,180,6|8,0:0|0:0,0:0:0:0:
343,203,119425,2,0,L|164:222,1,180,2|2,0:0|0:0,0:0:0:0:
262,297,119889,2,0,P|302:349|490:328,1,270,8|2,0:0|0:0,0:0:0:0:
404,160,120508,1,8,0:0:0:0:
239,200,120662,1,8,0:0:0:0:
239,200,120740,1,8,0:0:0:0:
239,200,120817,2,0,L|231:64,2,135,8|8|2,0:0|0:0|0:0,0:0:0:0:
308,308,121436,6,0,P|348:336|404:336,1,90,2|2,0:0|0:0,0:0:0:0:
460,288,121899,2,0,P|420:260|364:260,1,90,2|2,0:0|0:0,0:0:0:0:
312,200,122363,2,0,L|324:96,2,90,2|2|2,0:0|0:0|0:0,0:0:0:0:
312,200,123291,6,0,P|280:168|224:168,1,90,2|2,0:0|0:0,0:0:0:0:
164,216,123755,2,0,P|196:248|252:248,1,90,2|2,0:0|0:0,0:0:0:0:
324,276,124219,2,0,L|332:368,2,90,2|2|2,0:0|0:0|0:0,0:0:0:0:
324,276,125147,6,0,L|340:180,1,90,2|2,0:0|0:0,0:0:0:0:
420,144,125611,2,0,L|436:240,1,90,2|2,0:0|0:0,0:0:0:0:
340,188,126075,2,0,L|236:180,2,90,2|2|2,0:0|0:0|0:0,0:0:0:0:
340,188,127003,6,0,P|344:156|316:92,1,90,2|2,0:0|0:0,0:0:0:0:
256,160,127466,2,0,L|208:156,1,45,2|0,0:0|0:0,0:0:0:0:
124,184,127776,1,2,0:3:0:0:
124,184,127853,1,2,0:3:0:0:
124,184,127930,1,2,0:3:0:0:
152,268,128085,1,2,0:3:0:0:
235,240,128240,1,0,0:0:0:0:
211,156,128394,1,0,0:0:0:0:
124,184,128549,2,0,P|92:172|64:136,1,67.5,4|0,0:0|0:0,0:0:0:0:
75,73,128858,5,2,0:0:0:0:
75,73,129477,2,0,L|135:65,1,45,2|0,0:0|0:0,0:0:0:0:
211,67,129786,2,0,P|247:59|331:111,1,135,2|2,0:0|0:0,0:0:0:0:
288,186,130405,2,0,P|268:166|254:140,1,45
328,106,130714,2,0,P|356:110|424:202,1,135,2|0,0:0|0:0,0:0:0:0:
364,256,131332,2,0,P|352:236|348:208,1,45,2|0,0:0|0:0,0:0:0:0:
422,186,131642,2,0,P|446:214|426:322,1,135,2|2,0:0|0:0,0:0:0:0:
368,360,132260,2,0,P|352:328|352:312,1,45
384,236,132570,6,0,P|376:208|276:152,1,135,2|0,0:0|0:0,0:0:0:0:
234,223,133188,2,0,P|214:199|204:178,1,45,2|0,0:0|0:0,0:0:0:0:
228,96,133497,2,0,L|240:0,2,90,2|0|0,0:0|0:0|0:0,0:0:0:0:
228,96,134425,6,0,P|192:88|132:104,1,90,2|2,0:0|0:0,0:0:0:0:
52,76,134889,2,0,P|48:120|76:164,1,90
156,188,135353,2,0,L|140:280,2,90,2|2|2,0:0|0:0|0:0,0:0:0:0:
156,188,136281,6,0,P|192:168|284:172,1,135,2|0,0:0|0:0,0:0:0:0:
332,248,136899,2,0,P|358:230|366:213,1,45,2|0,0:0|0:0,0:0:0:0:
360,132,137209,2,0,L|456:120,2,90
360,132,138137,6,0,P|352:96|256:52,1,135,2|0,0:0|0:0,0:0:0:0:
184,60,138755,2,0,P|184:92|196:116,1,45,2|0,0:0|0:0,0:0:0:0:
272,140,139064,2,0,L|264:232,1,90,2|2,0:0|0:0,0:0:0:0:
228,312,139528,1,0,0:0:0:0:
228,312,139606,1,0,0:0:0:0:
228,312,139683,1,2,0:0:0:0:
228,312,139992,6,0,P|288:324|344:272,1,135,2|0,0:0|0:0,0:0:0:0:
293,205,140611,2,0,P|273:218|261:239,1,45,2|0,0:0|0:0,0:0:0:0:
341,279,140920,2,0,P|369:251|369:159,1,135,2|2,0:0|0:0,0:0:0:0:
308,96,141539,2,0,P|296:124|296:152,1,45,2|0,0:0|0:0,0:0:0:0:
369,160,141848,5,2,0:0:0:0:
300,220,142003,2,0,L|296:276,1,45,2|0,0:0|0:0,0:0:0:0:
347,342,142312,2,0,P|323:354|295:358,1,45,2|0,0:0|0:0,0:0:0:0:
224,316,142621,1,8,0:0:0:0:
224,316,142698,1,8,0:0:0:0:
224,316,142776,5,8,0:0:0:0:
300,220,142930,1,2,0:3:0:0:
168,240,143085,1,0,0:0:0:0:
244,144,143239,1,2,0:0:0:0:
224,316,143394,2,0,L|288:328,1,45,2|10,0:0|0:0,0:0:0:0:
376,352,143704,6,0,P|380:304|328:232,1,135,4|0,0:0|0:0,0:0:0:0:
252,196,144322,2,0,P|260:168|274:151,1,45,10|0,0:0|0:0,0:0:0:0:
364,160,144631,2,0,P|360:124|280:64,1,135,8|0,0:0|0:0,0:0:0:0:
204,32,145250,2,0,P|192:56|192:92,1,45,8|0,0:0|0:0,0:0:0:0:
112,116,145559,6,0,P|128:144|224:156,1,135,2|8,0:0|0:0,0:0:0:0:
221,157,146100,1,8,0:0:0:0:
221,157,146178,1,10,0:0:0:0:
228,164,146487,6,0,L|280:160,1,45,8|0,0:0|0:0,0:0:0:0:
268,72,146796,2,0,L|320:76,1,45,2|0,0:0|0:0,0:0:0:0:
388,28,147106,2,0,P|400:60|400:80,1,45,2|2,0:0|0:0,0:0:0:0:
484,104,147415,6,0,P|472:132|372:156,1,135,2|0,0:0|0:0,0:0:0:0:
324,232,148033,2,0,P|304:216|294:190,1,45,2|0,0:0|0:0,0:0:0:0:
380,160,148343,2,0,P|360:125|264:111,1,135,8|2,0:0|0:0,0:0:0:0:
212,40,148961,2,0,P|196:64|192:92,1,45,2|0,0:0|0:0,0:0:0:0:
272,106,149271,6,0,P|264:134|172:174,1,135,2|2,0:0|0:0,0:0:0:0:
95,122,149889,2,0,P|83:154|87:178,1,45,2|2,0:0|0:0,0:0:0:0:
175,174,150198,2,0,P|148:195|140:218,1,45,8|2,0:0|0:0,0:0:0:0:
223,254,150508,2,0,P|189:259|170:275,1,45,2|2,0:0|0:0,0:0:0:0:
235,338,150817,2,0,P|268:332|287:316,1,45,2|2,0:0|0:0,0:0:0:0:
368,352,151126,6,0,P|372:316|340:256,2,90,4|8|2,0:0|0:0|0:0,0:0:0:0:
368,352,152054,2,0,P|420:348|480:288,1,135,8|2,0:0|0:0,0:0:0:0:
403,221,152673,2,0,P|391:245|391:273,1,45,8|0,0:0|0:0,0:0:0:0:
477,293,152982,6,0,P|493:233|463:158,1,135,2|4,0:0|0:0,0:0:0:0:
408,104,153600,2,0,P|388:124|380:150,1,45
392,232,153910,2,0,L|336:224,1,45,4|4,0:3|0:3,0:0:0:0:
347,225,154374,5,8,0:0:0:0:
168,121,154528,1,8,0:0:0:0:
309,86,154683,1,8,0:0:0:0:
206,260,154838,2,0,P|140:268|48:184,1,180,4|8,0:0|0:0,0:0:0:0:
54,201,155224,1,0,0:0:0:0:
60,204,155301,2,0,B|80:64|80:64|120:48,1,180,4|0,0:0|0:0,0:0:0:0:
115,49,155688,1,0,0:0:0:0:
115,49,155765,5,2,0:0:0:0:
144,184,155920,1,2,0:0:0:0:
199,29,156074,1,2,0:0:0:0:
68,212,156229,1,8,0:0:0:0:
68,212,156307,1,8,0:0:0:0:
68,212,156384,2,0,P|100:256|216:220,1,180,8|8,0:0|0:0,0:0:0:0:
344,252,156848,1,8,0:0:0:0:
344,252,156925,1,0,0:0:0:0:
344,252,157002,2,0,L|328:152,1,90,2|2,0:0|0:0,0:0:0:0:
396,44,157312,5,4,0:0:0:0:
444,216,157466,1,0,0:0:0:0:
444,216,157544,1,8,0:0:0:0:
444,216,157621,1,8,0:0:0:0:
320,88,157776,2,0,P|276:56|228:56,1,90,8|2,0:0|0:0,0:0:0:0:
192,100,158008,2,0,P|152:128|104:124,1,90
44,124,158240,2,0,L|32:232,1,90,2|2,0:0|0:2,0:0:0:0:
175,324,158549,6,0,L|163:216,1,90,8|0,0:0|0:0,0:0:0:0:
120,44,158858,1,8,0:0:0:0:
34,213,159013,1,8,0:0:0:0:
192,128,159167,1,8,0:0:0:0:
175,324,159322,1,8,0:0:0:0:
76,140,159477,1,8,0:0:0:0:
44,352,159631,1,8,0:0:0:0:
188,240,159786,6,0,P|240:276|364:268,1,180,12|2,0:0|0:0,0:0:0:0:
460,128,160250,2,0,P|408:164|284:156,1,180,12|2,0:0|0:0,0:0:0:0:
160,44,160714,2,0,P|220:40|264:64,1,90,12|2,0:0|0:0,0:0:0:0:
156,208,161023,6,0,P|108:180|72:56,1,180,12|2,0:0|0:0,0:0:0:0:
246,51,161487,2,0,P|294:79|330:203,1,180,12|2,0:0|0:0,0:0:0:0:
136,291,161951,2,0,P|136:239|180:191,1,90,12|2,0:0|0:0,0:0:0:0:
304,100,162260,6,0,P|372:106|426:214,1,180,12|2,0:0|0:0,0:0:0:0:
314,352,162724,2,0,P|290:296|342:184,1,180,12|2,0:0|0:0,0:0:0:0:
496,116,163188,2,0,L|400:104,1,90,12|2,0:0|0:0,0:0:0:0:
235,51,163497,6,0,P|287:163|343:195,1,180,12|2,0:0|0:0,0:0:0:0:
212,328,163961,2,0,P|160:216|104:184,1,180,12|2,0:0|0:0,0:0:0:0:
65,66,164425,1,8,0:0:0:0:
65,66,164502,1,2,0:0:0:0:
65,66,164580,1,2,0:0:0:0:
65,66,164657,1,0,0:0:0:0:
65,66,164734,6,0,P|117:82|245:42,1,180,12|2,0:0|0:0,0:0:0:0:
384,148,165198,2,0,P|332:132|204:172,1,180,12|2,0:0|0:0,0:0:0:0:
228,344,165662,2,0,P|260:296|264:256,1,90,8|0,0:0|0:0,0:0:0:0:
96,204,165972,6,0,P|96:132|172:52,1,180,12|2,0:0|0:0,0:0:0:0:
368,120,166435,2,0,L|192:160,1,180,12|2,0:0|0:0,0:0:0:0:
128,328,166899,2,0,P|188:336|224:320,1,90,8|2,0:0|0:0,0:0:0:0:
392,364,167209,6,0,P|408:320|360:192,1,180,2|2,0:0|0:0,0:0:0:0:
256,56,167673,2,0,P|240:100|288:228,1,180,2|2,0:0|0:0,0:0:0:0:
128,328,168136,2,0,P|124:276|148:228,1,90,2|2,0:0|0:0,0:0:0:0:
280,221,168446,5,6,0:0:0:0:
92,168,168600,1,8,0:0:0:0:
92,168,168678,1,8,0:0:0:0:
92,168,168755,1,8,0:0:0:0:
128,328,168910,1,8,0:0:0:0:
171,112,169064,1,2,0:0:0:0:
65,285,169219,1,2,0:0:0:0:
225,163,169374,1,2,0:0:0:0:
30,216,169528,1,2,0:0:0:0:
30,216,170147,6,0,B|16:156|39:89|39:89|78:137,1,180,12|2,0:0|0:0,0:0:0:0:
173,233,170611,2,0,L|161:129,1,90,8|2,0:0|0:0,0:0:0:0:
216,28,170920,6,0,P|260:60|388:48,1,180,12|2,0:0|0:0,0:0:0:0:
464,212,171384,2,0,P|420:180|292:192,1,180,12|2,0:0|0:0,0:0:0:0:
328,364,171848,2,0,P|360:328|364:268,1,90,12|2,0:0|0:0,0:0:0:0:
444,124,172157,6,0,L|264:96,1,180,12|2,0:0|0:0,0:0:0:0:
100,24,172621,2,0,P|72:72|116:188,1,180,12|2,0:0|0:0,0:0:0:0:
188,344,173085,2,0,P|208:276|200:256,1,90,12|2,0:0|0:0,0:0:0:0:
202,261,173317,1,8,0:0:0:0:
202,261,173394,5,8,0:0:0:0:
266,96,173549,1,2,0:0:0:0:
116,192,173703,1,8,0:0:0:0:
116,192,173781,1,8,0:0:0:0:
116,192,173858,1,8,0:0:0:0:
296,180,174013,2,0,P|340:148|352:112,1,90,2|2,0:0|0:0,0:0:0:0:
171,127,174322,2,0,P|127:159|115:195,1,90,2|0,0:0|0:0,0:0:0:0:
272,276,174631,6,0,L|368:268,1,90,12|2,0:0|0:0,0:0:0:0:
441,123,174941,2,0,L|345:115,1,90,2|12,0:0|0:0,0:0:0:0:
188,44,175250,1,2,0:0:0:0:
336,192,175405,1,2,0:0:0:0:
171,127,175559,1,12,0:0:0:0:
171,127,175868,6,0,L|72:112,1,90,8|2,0:0|0:0,0:0:0:0:
264,100,176178,1,2,0:0:0:0:
320,268,176332,6,0,L|328:160,1,90,8|2,0:0|0:0,0:0:0:0:
244,340,176642,1,2,0:0:0:0:
80,268,176796,6,0,L|188:276,1,90,8|2,0:0|0:0,0:0:0:0:
8,192,177106,1,12,0:0:0:0:
8,192,177415,5,2,0:0:0:0:
74,27,177569,1,2,0:0:0:0:
80,268,177724,1,0,0:0:0:0:
8,72,177879,5,2,0:0:0:0:
6,281,178033,1,2,0:0:0:0:
100,100,178188,1,2,0:0:0:0:
200,292,178343,5,8,0:0:0:0:
88,176,178497,1,8,0:0:0:0:
60,340,178652,1,8,0:0:0:0:
160,204,178807,5,2,0:0:0:0:
160,360,178961,1,2,0:0:0:0:
80,256,179116,1,2,0:0:0:0:
200,292,179270,5,8,0:0:0:0:
160,204,179425,1,8,0:0:0:0:
260,220,179580,2,0,P|293:272|446:263,1,202.500007724762,6|0,0:0|0:0,0:0:0:0:
400,140,180198,2,0,P|380:156|361:207,1,67.5000025749208,2|2,0:0|0:0,0:0:0:0:
423,282,180508,6,0,P|468:253|479:170,1,135.000005149842,8|2,0:0|0:0,0:0:0:0:
434,58,180972,1,2,0:0:0:0:
434,58,181126,2,0,P|354:66|314:118,1,135.000005149842,8|2,0:0|0:0,0:0:0:0:
254,165,181590,1,2,0:0:0:0:
254,165,181745,1,8,0:0:0:0:
254,165,182054,6,0,P|230:129|230:93,1,67.5000025749208,2|0,0:0|0:0,0:0:0:0:
124,132,182363,2,0,P|148:168|148:204,1,67.5000025749208,8|0,0:0|0:0,0:0:0:0:
125,287,182673,2,0,P|77:263|65:235,1,67.5000025749208,2|2,0:0|0:0,0:0:0:0:
124,132,182982,2,0,P|132:80|272:48,1,202.500007724762,8|2,0:0|0:0,0:0:0:0:
328,112,183600,2,0,P|300:132|260:140,1,67.5000025749208,8|0,0:0|0:0,0:0:0:0:
258,39,183910,2,0,P|286:19|326:11,1,67.5000025749208,2|0,0:0|0:0,0:0:0:0:
396,74,184219,2,0,P|408:114|391:157,1,67.5000025749208,8|2,0:0|0:0,0:0:0:0:
387,240,184528,6,0,P|347:228|316:185,1,67.5000025749208,2|0,0:0|0:0,0:0:0:0:
300,119,184838,1,8,0:0:0:0:
402,138,184992,1,0,0:0:0:0:
328,210,185147,2,0,P|296:218|252:206,1,67.5000025749208,2|2,0:0|0:0,0:0:0:0:
234,120,185456,2,0,P|266:112|310:124,1,67.5000025749208,8|0,0:0|0:0,0:0:0:0:
328,210,185765,6,0,L|320:286,1,67.5000025749208,2|2,0:0|0:0,0:0:0:0:
236,315,186075,1,8,0:0:0:0:
239,215,186229,1,0,0:0:0:0:
320,277,186384,2,0,P|372:285|388:277,1,67.5000025749208,2|0,0:0|0:0,0:0:0:0:
236,315,186693,2,0,P|184:307|168:315,1,67.5000025749208,8|2,0:0|0:0,0:0:0:0:
96,248,187002,6,0,L|100:160,1,67.5000025749208,6|0,0:0|0:0,0:0:0:0:
116,80,187312,1,8,0:0:0:0:
196,144,187466,1,0,0:0:0:0:
100,180,187621,2,0,P|60:168|40:140,1,67.5000025749208,2|2,0:0|0:0,0:0:0:0:
200,148,187930,1,0,0:0:0:0:
200,148,188085,2,0,L|276:144,1,67.5000025749208,8|0,0:0|0:0,0:0:0:0:
236,240,188394,5,2,0:0:0:0:
236,240,188549,2,0,L|312:236,1,67.5000025749208,8|8,0:0|0:0,0:0:0:0:
352,324,188781,1,8,0:0:0:0:
352,324,188858,2,0,L|276:320,1,67.5000025749208,8|2,0:0|0:0,0:0:0:0:
184,324,189167,1,8,0:0:0:0:
236,240,189322,1,2,0:0:0:0:
136,236,189477,6,0,L|152:96,1,135.000005149842,4|8,0:0|0:0,0:0:0:0:
236,48,189941,2,0,P|288:36|384:80,1,135.000005149842,2|2,0:0|0:0,0:0:0:0:
452,40,190405,6,0,P|445:101|384:151,1,135.000005149842,12|0,0:0|0:0,0:0:0:0:
392,148,191023,1,8,0:0:0:0:
392,148,191642,1,8,0:0:0:0:
392,148,191951,6,0,P|380:180|412:276,1,135.000005149842,6|8,0:0|0:0,0:0:0:0:
352,351,192415,2,0,L|196:335,1,135.000005149842,2|2,0:0|0:0,0:0:0:0:
128,335,192879,6,0,P|136:295|228:247,1,135.000005149842,8|0,0:0|0:0,0:0:0:0:
210,245,193497,1,8,0:0:0:0:
308,253,193652,1,8,0:0:0:0:
308,253,193729,1,0,0:0:0:0:
308,253,193807,1,2,0:0:0:0:
308,253,194270,5,2,0:0:0:0:
308,253,194425,2,0,P|348:201|332:113,1,135.000005149842,12|8,0:0|0:0,0:0:0:0:
236,52,194889,1,2,0:0:0:0:
260,173,195044,2,0,P|232:197|216:233,1,67.5000025749208,8|2,0:0|0:0,0:0:0:0:
344,134,195353,2,0,P|372:110|388:74,1,67.5000025749208,8|2,0:0|0:0,0:0:0:0:
236,52,195662,6,0,L|160:48,1,67.5000025749208,8|2,0:0|0:0,0:0:0:0:
60,132,195972,2,0,L|136:128,1,67.5000025749208,8|2,0:0|0:0,0:0:0:0:
232,216,196281,2,0,L|156:212,1,67.5000025749208,8|2,0:0|0:0,0:0:0:0:
56,296,196591,2,0,L|132:292,1,67.5000025749208,8|2,0:0|0:0,0:0:0:0:
243,357,196899,5,12,0:0:0:0:
240,224,197054,1,0,0:0:0:0:
240,224,197131,1,8,0:0:0:0:
240,224,197209,1,8,0:0:0:0:
324,328,197363,1,2,0:0:0:0:
320,196,197518,1,0,0:0:0:0:
320,196,197595,1,0,0:0:0:0:
320,196,197673,1,2,0:0:0:0:
404,300,197827,5,8,0:0:0:0:
404,300,198136,2,0,P|440:268|448:216,1,90,2|0,0:0|0:0,0:0:0:0:
496,152,198600,2,0,P|468:140|400:152,1,90,2|0,0:0|0:0,0:0:0:0:
360,224,199064,1,2,0:0:0:0:
360,224,199374,6,0,B|248:160|248:288|136:224,1,225,2|0,0:0|0:0,0:0:0:0:
20,272,200301,6,0,B|72:348|120:328|136:304|136:304|92:292|20:236|104:116|193:174,1,405,2|0,0:0|0:0,0:0:0:0:
193,174,202688,5,2,0:0:0:0:
193,174,203056,2,0,P|219:119|335:95,1,180,2|0,0:0|0:0,0:0:0:0:
391,247,203486,6,0,P|359:247|291:179,1,135,2|2,0:0|0:0,0:0:0:0:
291,179,204322,6,0,L|407:171,1,116.999994644165,6|0,0:0|0:0,0:0:0:0:
272,60,204631,2,0,L|156:52,1,116.999994644165,8|0,0:0|0:0,0:0:0:0:
44,172,204940,1,2,0:0:0:0:
216,140,205095,1,2,0:0:0:0:
80,252,205249,2,0,L|196:244,1,116.999994644165,8|2,0:0|0:0,0:0:0:0:
44,172,205559,5,0,0:0:0:0:
56,348,205713,1,2,0:0:0:0:
196,244,205868,2,0,L|184:128,1,116.999994644165,8|0,0:0|0:0,0:0:0:0:
312,8,206177,1,2,0:0:0:0:
280,180,206332,1,2,0:0:0:0:
169,37,206486,2,0,P|111:69|92:124,1,116.999994644165,8|2,0:0|0:0,0:0:0:0:
160,276,206796,6,0,P|232:280|276:248,1,116.999994644165,2|0,0:0|0:0,0:0:0:0:
231,66,207105,2,0,P|191:127|197:181,1,116.999994644165,8|0,0:0|0:0,0:0:0:0:
378,232,207414,2,0,P|345:167|295:145,1,116.999994644165,2|2,0:0|0:0,0:0:0:0:
160,276,207724,6,0,L|40:256,1,116.999994644165,8|2,0:0|0:0,0:0:0:0:
193,169,208033,2,0,L|312:148,1,116.999994644165,0|2,0:0|0:0,0:0:0:0:
440,264,208342,2,0,P|436:200|384:148,1,116.999994644165,8|0,0:0|0:0,0:0:0:0:
272,44,208651,2,0,P|276:108|328:160,1,116.999994644165,2|2,0:0|0:0,0:0:0:0:
468,64,208961,2,0,L|348:76,1,116.999994644165,8|2,0:0|0:0,0:0:0:0:
180,40,209270,6,0,P|112:48|60:192,1,233.999989288331,2|8,0:0|0:0,0:0:0:0:
160,320,209734,1,0,0:0:0:0:
152,144,209889,2,0,P|224:140|264:92,1,116.999994644165,2|0,0:0|0:0,0:0:0:0:
262,287,210198,2,0,P|190:291|150:339,1,116.999994644165,8|2,0:0|0:0,0:0:0:0:
272,184,210507,6,0,P|336:212|364:264,1,116.999994644165,0|2,0:0|0:0,0:0:0:0:
188,212,210816,2,0,P|131:253|72:251,1,116.999994644165,8|0,0:0|0:0,0:0:0:0:
204,124,211126,2,0,P|196:54|227:4,1,116.999994644165,2|2,0:0|0:0,0:0:0:0:
378,67,211435,6,0,P|422:115|354:251,1,233.999989288331,8|2,0:0|0:0,0:0:0:0:
184,240,211899,1,0,0:0:0:0:
280,72,212053,2,0,P|304:136|356:160,1,116.999994644165,8|0,0:0|0:0,0:0:0:0:
248,326,212363,2,0,P|224:262|172:238,1,116.999994644165,2|2,0:0|0:0,0:0:0:0:
32,324,212672,6,0,L|180:340,1,116.999994644165,8|2,0:0|0:0,0:0:0:0:
300,227,212981,2,0,L|152:243,1,116.999994644165,0|2,0:0|0:0,0:0:0:0:
8,240,213291,2,0,P|16:164|56:120,1,116.999994644165,8|0,0:0|0:0,0:0:0:0:
214,132,213600,2,0,P|206:208|166:252,1,116.999994644165,2|8,0:0|0:0,0:0:0:0:
44,348,213909,5,12,0:0:0:0:
44,348,213986,1,0,0:0:0:0:
44,348,214064,1,8,0:0:0:0:
44,348,214141,1,8,0:0:0:0:
44,348,214218,2,0,L|280:324,1,233.999989288331,6|8,0:0|0:0,0:0:0:0:
436,248,214682,2,0,B|367:207|332:272|332:272|363:310|356:356|332:381,1,233.999989288331,0|2,0:0|0:0,0:0:0:0:
228,236,215146,2,0,L|240:112,1,116.999994644165,8|0,0:0|0:0,0:0:0:0:
392,32,215456,5,0,0:0:0:0:
352,200,215610,1,2,0:0:0:0:
276,40,215765,2,0,P|208:36|160:84,1,116.999994644165,8|0,0:0|0:0,0:0:0:0:
104,228,216074,1,2,0:0:0:0:
239,119,216229,1,2,0:0:0:0:
184,280,216383,2,0,P|196:208|168:160,1,116.999994644165,8|2,0:0|0:0,0:0:0:0:
54,71,216693,6,0,L|174:63,1,116.999994644165,2|0,0:0|0:0,0:0:0:0:
295,179,217002,2,0,L|175:171,1,116.999994644165,8|0,0:0|0:0,0:0:0:0:
36,276,217311,2,0,P|14:211|30:163,1,116.999994644165,2|2,0:0|0:0,0:0:0:0:
170,63,217620,2,0,P|192:128|176:176,1,116.999994644165,8|2,0:0|0:0,0:0:0:0:
120,296,217930,5,0,0:0:0:0:
112,123,218084,1,2,0:0:0:0:
191,260,218239,1,8,0:0:0:0:
240,109,218394,1,0,0:0:0:0:
126,216,218548,1,2,0:0:0:0:
144,58,218703,1,8,0:0:0:0:
191,260,218858,1,8,0:0:0:0:
94,134,219012,1,0,0:0:0:0:
252,136,219167,6,0,B|300:84|412:76|412:76|380:136,1,233.999989288331,6|0,0:0|0:0,0:0:0:0:
472,256,219631,2,0,B|448:160|448:160|436:192|388:224|336:196|320:156,1,233.999989288331,8|0,0:0|0:0,0:0:0:0:
375,286,220095,2,0,P|407:342|467:360,1,116.999994644165,8|0,0:0|0:0,0:0:0:0:
335,179,220404,6,0,B|263:231|287:307|287:307|195:275,1,233.999989288331,2|0,0:0|0:0,0:0:0:0:
80,332,220868,2,0,B|136:320|136:320|104:248|156:188|224:204,1,233.999989288331,2|0,0:0|0:0,0:0:0:0:
335,179,221332,2,0,P|307:123|251:99,1,116.999994644165,8|0,0:0|0:0,0:0:0:0:
164,254,221641,5,2,0:0:0:0:
260,100,221795,1,2,0:0:0:0:
93,167,221950,1,2,0:0:0:0:
93,167,222028,1,2,0:0:0:0:
93,167,222105,1,2,0:0:0:0:
93,167,222182,1,2,0:0:0:0:
93,167,222260,1,2,0:0:0:0:
266,213,222414,1,2,0:0:0:0:
154,75,222568,1,2,0:0:0:0:
163,254,222724,1,2,0:0:0:0:
276,112,222878,6,0,P|332:88|468:208,1,233.999989288331,6|8,0:0|0:0,0:0:0:0:
432,348,223342,2,0,P|344:304|356:184,1,233.999989288331,6|8,0:0|0:0,0:0:0:0:
256,40,223806,1,8,0:0:0:0:
226,43,223883,1,0,0:0:0:0:
197,47,223960,1,8,0:0:0:0:
168,50,224037,1,0,0:0:0:0:
139,54,224115,6,0,P|92:96|76:152,1,116.999994644165,6|0,0:0|0:0,0:0:0:0:
15,211,224425,2,0,P|70:232|126:221,1,116.999994644165,8|0,0:0|0:0,0:0:0:0:
223,244,224734,2,0,P|214:187|176:143,1,116.999994644165,2|2,0:0|0:0,0:0:0:0:
152,316,225043,2,0,P|208:348|264:336,1,116.999994644165,8|2,0:0|0:0,0:0:0:0:
400,236,225352,5,0,0:0:0:0:
223,244,225507,1,0,0:0:0:0:
380,324,225662,2,0,P|456:308|480:276,1,116.999994644165,8|0,0:0|0:0,0:0:0:0:
328,180,225971,1,2,0:0:0:0:
257,339,226126,1,2,0:0:0:0:
228,168,226280,2,0,P|260:100|304:84,1,116.999994644165,8|2,0:0|0:0,0:0:0:0:
395,263,226590,6,0,P|363:195|319:179,1,116.999994644165,2|0,0:0|0:0,0:0:0:0:
160,84,226899,2,0,P|192:152|236:168,1,116.999994644165,8|0,0:0|0:0,0:0:0:0:
367,61,227208,2,0,L|239:81,1,116.999994644165,2|2,0:0|0:0,0:0:0:0:
196,240,227517,6,0,L|324:260,1,116.999994644165,8|2,0:0|0:0,0:0:0:0:
480,200,227827,2,0,P|416:180|380:144,1,116.999994644165,0|2,0:0|0:0,0:0:0:0:
255,21,228136,2,0,P|211:73|219:145,1,116.999994644165,8|0,0:0|0:0,0:0:0:0:
87,249,228445,2,0,P|154:261|212:218,1,116.999994644165,2|2,0:0|0:0,0:0:0:0:
332,282,228754,1,8,0:0:0:0:
134,170,228909,1,2,0:0:0:0:
255,21,229064,6,0,L|384:48,1,116.999994644165,2|0,0:0|0:0,0:0:0:0:
419,211,229373,2,0,L|290:184,1,116.999994644165,8|0,0:0|0:0,0:0:0:0:
160,68,229682,2,0,P|116:124|108:180,1,116.999994644165,2|2,0:0|0:0,0:0:0:0:
252,286,229992,2,0,P|296:230|304:174,1,116.999994644165,8|2,0:0|0:0,0:0:0:0:
369,44,230301,6,0,P|301:60|261:104,1,116.999994644165,0|2,0:0|0:0,0:0:0:0:
108,168,230610,2,0,P|155:218|213:231,1,116.999994644165,8|0,0:0|0:0,0:0:0:0:
350,329,230919,2,0,P|370:262|352:205,1,116.999994644165,2|2,0:0|0:0,0:0:0:0:
268,91,231229,6,0,P|204:63|46:129,1,233.999989288331,8|2,0:0|0:0,0:0:0:0:
40,304,231693,1,0,0:0:0:0:
160,180,231847,2,0,P|100:204|28:204,1,116.999994644165,8|0,0:0|0:0,0:0:0:0:
220,244,232157,2,0,P|270:283|306:346,1,116.999994644165,2|2,0:0|0:0,0:0:0:0:
244,160,232466,2,0,P|253:96|289:33,1,116.999994644165,8|2,0:0|0:0,0:0:0:0:
396,176,232775,6,0,L|392:296,1,116.999994644165,0|2,0:0|0:0,0:0:0:0:
220,328,233084,2,0,P|204:268|144:232,1,116.999994644165,8|8,0:0|0:0,0:0:0:0:
16,140,233394,1,8,0:0:0:0:
30,114,233471,1,0,0:0:0:0:
50,93,233548,1,8,0:0:0:0:
73,75,233625,1,8,0:0:0:0:
99,62,233703,1,8,0:0:0:0:
127,54,233780,1,0,0:0:0:0:
157,52,233857,1,8,0:0:0:0:
186,56,233935,1,8,0:0:0:0:
213,64,234012,6,0,P|304:120|320:260,1,233.999989288331,6|8,0:0|0:0,0:0:0:0:
188,348,234476,1,0,0:0:0:0:
218,158,234631,2,0,P|134:162|18:70,1,233.999989288331,2|8,0:0|0:0,0:0:0:0:
213,64,235095,1,2,0:0:0:0:
162,245,235249,6,0,P|214:269|286:249,1,116.999994644165,0|2,0:0|0:0,0:0:0:0:
412,160,235559,2,0,P|360:136|288:156,1,116.999994644165,8|8,0:0|0:0,0:0:0:0:
128,168,235791,1,8,0:0:0:0:
128,168,235868,2,0,P|116:108|128:48,1,116.999994644165,8|2,0:0|0:0,0:0:0:0:
272,259,236177,2,0,P|284:319|272:379,1,116.999994644165,8|0,0:0|0:0,0:0:0:0:
84,332,236486,6,0,L|208:320,1,116.999994644165,2|0,0:0|0:0,0:3:0:0:
388,270,236796,2,0,L|264:258,1,116.999994644165,12|0,0:0|0:0,0:0:0:0:
80,224,237105,2,0,L|204:212,1,116.999994644165,2|2,0:0|0:0,0:0:0:0:
381,168,237415,2,0,L|257:156,1,116.999994644165,12|2,0:0|0:0,0:0:0:0:
136,36,237724,6,0,P|104:96|108:148,1,116.999994644165,2|0,0:0|0:0,0:0:0:0:
204,288,238033,1,12,0:0:0:0:
208,112,238187,1,2,0:0:0:0:
208,112,238265,1,2,0:0:0:0:
208,112,238342,1,2,0:0:0:0:
104,252,238497,1,2,0:0:0:0:
272,200,238651,2,0,P|368:192|388:176,1,116.999994644165,8|2,0:0|0:0,0:0:0:0:
208,112,238961,6,0,P|172:168|256:308,1,233.999989288331,6|8,0:0|0:0,0:0:0:0:
416,288,239425,1,2,0:0:0:0:
272,200,239579,2,0,P|312:148|308:96,1,116.999994644165,2|2,0:0|0:0,0:0:0:0:
113,89,239889,6,0,L|99:330,1,233.999989288331,12|2,0:0|0:0,0:0:0:0:
233,358,240352,1,0,0:0:0:0:
288,232,240507,2,0,P|238:202|173:197,1,116.999994644165,8|2,0:0|0:0,0:0:0:0:
408,276,240816,1,2,0:0:0:0:
392,100,240971,1,2,0:0:0:0:
288,232,241126,2,0,L|168:220,1,116.999994644165,8|2,0:0|0:0,0:0:0:0:
16,140,241435,5,6,0:0:0:0:
104,292,241590,1,0,0:0:0:0:
152,124,241744,1,8,0:0:0:0:
104,292,241899,2,0,P|198:326|352:300,1,233.999989288331,8|2,0:0|0:0,0:0:0:0:
460,180,242363,2,0,P|400:172|340:176,1,116.999994644165,2|0,0:0|0:0,0:0:0:0:
188,44,242672,6,0,P|144:68|112:180,1,168.750006437302,2|0,0:0|0:0,0:0:0:0:
32,292,243136,2,0,B|44:216|44:216|76:264|144:248,1,168.750006437302,2|0,0:0|0:0,0:0:0:0:
196,292,243600,2,0,P|208:260|184:196,1,101.250003862381,2|0,0:0|0:0,0:0:0:0:
211,133,243909,6,0,L|315:121,1,90,6|0,0:0|0:0,0:0:0:0:
388,224,244218,2,0,L|284:212,1,90,8|0,0:0|0:0,0:0:0:0:
408,132,244528,2,0,P|408:76|376:24,1,90,2|2,0:0|0:0,0:0:0:0:
298,213,244837,2,0,P|298:269|330:321,1,90,8|2,0:0|0:0,0:0:0:0:
460,240,245146,6,0,P|404:232|366:247,1,90,0|2,0:0|0:0,0:0:0:0:
323,137,245456,2,0,P|379:145|411:129,1,90,8|0,0:0|0:0,0:0:0:0:
304,48,245765,1,2,0:0:0:0:
268,224,245919,1,2,0:0:0:0:
192,112,246074,2,0,P|148:88|104:96,1,90,8|2,0:0|0:0,0:0:0:0:
128,272,246383,6,0,L|136:164,1,90,2|0,0:0|0:0,0:0:0:0:
185,22,246693,2,0,L|193:130,1,90,8|0,0:0|0:0,0:0:0:0:
232,240,247002,1,2,0:0:0:0:
268,64,247157,1,2,0:0:0:0:
308,192,247311,2,0,P|360:204|400:196,1,90,8|2,0:0|0:0,0:0:0:0:
360,328,247620,6,0,L|264:312,1,90,0|2,0:0|0:0,0:0:0:0:
143,254,247930,2,0,L|239:238,1,90,8|0,0:0|0:0,0:0:0:0:
304,124,248239,2,0,P|292:64|264:28,1,90,2|2,0:0|0:0,0:0:0:0:
204,155,248548,2,0,P|216:215|244:251,1,90,8|0,0:0|0:0,0:0:0:0:
356,313,248858,6,0,P|376:265|360:209,1,90,2|0,0:0|0:0,0:0:0:0:
284,125,249167,2,0,P|232:131|191:173,1,90,8|0,0:0|0:0,0:0:0:0:
164,288,249476,2,0,P|195:329|252:343,1,90,2|2,0:0|0:0,0:0:0:0:
312,236,249785,1,8,0:0:0:0:
203,154,249940,6,0,P|116:166|72:241,1,180,2|2,0:0|0:0,0:0:0:0:
208,240,250404,2,0,P|260:224|280:184,1,90,8|0,0:0|0:0,0:0:0:0:
348,80,250713,2,0,P|335:133|360:170,1,90,2|2,0:0|0:0,0:0:0:0:
416,284,251023,2,0,P|376:246|331:249,1,90,8|2,0:0|0:0,0:0:0:0:
240,332,251332,6,0,P|180:328|124:200,1,180,2|8,0:0|0:0,0:0:0:0:
192,104,251796,1,0,0:0:0:0:
220,236,251950,2,0,P|280:240|308:268,1,90,2|2,0:0|0:0,0:0:0:0:
404,344,252260,6,0,L|392:244,1,90,8|2,0:0|0:0,0:0:0:0:
464,140,252569,2,0,P|440:88|320:56,1,180,6|8,0:0|0:0,0:0:0:0:
200,88,253033,2,0,P|224:140|344:172,1,180,2|2,0:0|0:0,0:0:0:0:
440,260,253497,1,8,0:0:0:0:
440,260,253574,1,8,0:0:0:0:
440,260,253651,1,8,0:0:0:0:
440,260,253729,1,8,0:0:0:0:
440,260,253806,6,0,P|400:304|356:316,1,90,6|0,0:0|0:0,0:0:0:0:
248,264,254115,2,0,P|288:220|332:208,1,90,8|0,0:0|0:0,0:0:0:0:
200,140,254425,1,2,0:0:0:0:
188,344,254579,1,2,0:0:0:0:
88,196,254734,1,8,0:0:0:0:
248,264,254889,6,0,L|436:244,1,180,2|2,0:0|0:0,0:0:0:0:
412,116,255352,2,0,P|364:112|328:84,1,90,8|0,0:0|0:0,0:0:0:0:
200,48,255662,2,0,P|220:91|214:136,1,90,2|2,0:0|0:0,0:0:0:0:
248,264,255971,2,0,P|275:224|317:207,1,90,8|2,0:0|0:0,0:0:0:0:
331,87,256280,6,0,L|215:75,1,90,2|0,0:0|0:0,0:0:0:0:
148,176,256590,2,0,L|264:164,1,90,8|0,0:0|0:0,0:0:0:0:
372,180,256899,1,2,0:0:0:0:
241,77,257053,1,2,0:0:0:0:
376,91,257208,1,8,0:0:0:0:
237,166,257363,6,0,L|222:363,1,180,2|2,0:0|0:0,0:0:0:0:
108,148,257827,2,0,P|124:200|171:232,1,90,8|0,0:0|0:0,0:0:0:0:
321,155,258136,2,0,P|263:151|216:193,1,90,0|2,0:0|0:0,0:0:0:0:
206,347,258445,2,0,P|233:300|231:237,1,90,8|0,0:0|0:0,0:0:0:0:
184,96,258754,6,0,P|240:72|296:72,1,90,6|0,0:0|0:0,0:0:0:0:
420,172,259064,2,0,P|364:196|308:196,1,90,8|2,0:0|0:0,0:0:0:0:
408,32,259373,2,0,P|460:36|504:60,1,90,2|2,0:0|0:0,0:0:0:0:
335,198,259682,2,0,P|283:194|239:170,1,90,8|2,0:0|0:0,0:0:0:0:
132,40,259992,6,0,L|112:144,1,90,0|2,0:0|0:0,0:0:0:0:
156,304,260301,2,0,P|176:244|168:204,1,90,8|2,0:0|0:0,0:0:0:0:
25,138,260610,2,0,L|129:126,1,90,0|2,0:0|0:0,0:0:0:0:
262,228,260919,2,0,L|158:216,1,90,8|2,0:0|0:0,0:0:0:0:
187,56,261229,5,12,0:0:0:0:
172,217,261383,1,2,0:0:0:0:
248,73,261538,5,8,0:0:0:0:
219,233,261692,1,2,0:0:0:0:
309,95,261847,5,8,0:0:0:0:
266,251,262001,1,2,0:0:0:0:
366,120,262157,5,8,0:0:0:0:
310,271,262311,2,0,P|276:306|144:316,1,180,2|8,0:0|0:0,0:0:0:0:
36,216,262775,2,0,P|73:176|205:160,1,180,2|8,0:0|0:0,0:0:0:0:
151,319,263239,1,2,0:0:0:0:
308,224,263394,1,2,0:0:0:0:
308,224,263471,1,2,0:0:0:0:
308,224,263548,1,8,0:0:0:0:
308,224,263626,1,0,0:0:0:0:
308,224,263703,6,0,P|352:184|368:140,1,107.999996704102,12|2,0:0|0:0,0:0:0:0:
188,175,264012,2,0,P|160:235|176:291,1,107.999996704102,8|2,0:0|0:0,0:0:0:0:
320,327,264322,2,0,P|385:321|426:279,1,107.999996704102,8|2,0:0|0:0,0:0:0:0:
368,139,264631,2,0,P|330:84|273:70,1,107.999996704102,8|2,0:0|0:0,0:0:0:0:
140,134,264940,5,12,0:0:0:0:
284,163,265095,1,2,0:0:0:0:
144,203,265249,1,12,0:0:0:0:
287,231,265404,1,2,0:0:0:0:
139,282,265559,2,0,P|86:301|30:298,1,107.999996704102,12|2,0:0|0:0,0:0:0:0:
214,169,265868,2,0,L|220:297,1,107.999996704102,12|2,0:0|0:0,0:0:0:0:
392,356,266177,6,0,L|408:244,1,107.999996704102,8|2,0:0|0:0,0:0:0:0:
325,135,266486,2,0,P|293:179|297:263,1,107.999996704102,8|2,0:0|0:0,0:0:0:0:
192,364,266796,2,0,P|169:314|95:275,1,107.999996704102,8|2,0:0|0:0,0:0:0:0:
56,136,267105,2,0,P|110:141|180:96,1,107.999996704102,8|2,0:0|0:0,0:0:0:0:
275,179,267414,5,12,0:0:0:0:
131,211,267569,1,2,0:0:0:0:
271,250,267724,1,12,0:0:0:0:
127,283,267879,1,2,0:0:0:0:
268,329,268033,2,0,P|328:323|372:294,1,107.999996704102,12|2,0:0|0:0,0:0:0:0:
348,131,268342,2,0,P|304:98|246:97,1,107.999996704102,12|2,0:0|0:0,0:0:0:0:
36,148,268651,6,0,L|156:140,1,107.999996704102,8|2,0:0|0:0,0:0:0:0:
252,95,268961,2,0,P|284:151|276:223,1,107.999996704102,8|2,0:0|0:0,0:0:0:0:
314,314,269270,2,0,P|249:313|191:270,1,107.999996704102,8|2,0:0|0:0,0:0:0:0:
93,259,269579,2,0,P|125:203|191:174,1,107.999996704102,8|2,0:0|0:0,0:0:0:0:
339,214,269889,5,12,0:0:0:0:
212,293,270043,1,2,0:0:0:0:
315,127,270198,1,12,0:0:0:0:
193,203,270352,1,2,0:0:0:0:
337,321,270507,2,0,L|339:211,1,107.999996704102,12|2,0:0|0:0,0:0:0:0:
191,95,270816,2,0,L|193:205,1,107.999996704102,12|2,0:0|0:0,0:0:0:0:
70,338,271126,6,0,P|81:285|67:234,1,107.999996704102,8|2,0:0|0:0,0:0:0:0:
195,128,271435,2,0,P|235:136|299:195,1,107.999996704102,8|2,0:0|0:0,0:0:0:0:
448,188,271744,2,0,P|421:218|337:244,1,107.999996704102,8|2,0:0|0:0,0:0:0:0:
272,380,272053,2,0,P|258:341|278:256,1,107.999996704102,8|2,0:0|0:0,0:0:0:0:
332,124,272363,5,12,0:0:0:0:
305,119,272440,1,0,0:0:0:0:
278,115,272517,1,2,0:0:0:0:
252,110,272594,1,2,0:0:0:0:
225,106,272672,1,2,0:0:0:0:
72,48,272827,5,12,0:0:0:0:
56,69,272904,1,0,0:0:0:0:
48,95,272981,1,2,0:0:0:0:
48,122,273058,1,2,0:0:0:0:
58,147,273136,1,2,0:0:0:0:
180,268,273291,5,12,0:0:0:0:
180,268,273368,1,0,0:0:0:0:
180,268,273445,1,8,0:0:0:0:
180,268,273523,1,0,0:0:0:0:
180,268,273600,6,0,P|244:288|296:280,1,107.999996704102,8|2,0:0|0:0,0:0:0:0:
432,184,273909,2,0,L|328:140,1,107.999996704102,8|2,0:0|0:0,0:0:0:0:
236,12,274218,2,0,L|249:124,1,107.999996704102,8|2,0:0|0:0,0:0:0:0:
180,268,274528,2,0,L|270:199,1,107.999996704102,8|2,0:0|0:0,0:0:0:0:
344,60,274837,5,12,0:0:0:0:
266,202,274992,1,2,0:0:0:0:
404,116,275146,1,12,0:0:0:0:
206,146,275301,1,2,0:0:0:0:
338,253,275456,2,0,P|350:189|327:136,1,107.999996704102,12|2,0:0|0:0,0:0:0:0:
133,96,275765,2,0,P|118:147|131:199,1,107.999996704102,12|2,0:0|0:0,0:0:0:0:
323,360,276074,6,0,L|337:252,1,107.999996704102,8|2,0:0|0:0,0:0:0:0:
265,122,276383,2,0,P|307:161|363:171,1,107.999996704102,8|2,0:0|0:0,0:0:0:0:
236,249,276693,2,0,P|181:265|144:309,1,107.999996704102,8|2,0:0|0:0,0:0:0:0:
146,161,277002,2,0,P|158:105|139:51,1,107.999996704102,8|2,0:0|0:0,0:0:0:0:
332,76,277311,5,12,0:0:0:0:
339,238,277466,1,2,0:0:0:0:
416,72,277620,1,12,0:0:0:0:
255,242,277775,1,2,0:0:0:0:
224,62,277930,2,0,L|343:77,1,107.999996704102,12|2,0:0|0:0,0:0:0:0:
446,224,278239,2,0,L|327:239,1,107.999996704102,12|2,0:0|0:0,0:0:0:0:
111,343,278548,6,0,L|131:231,1,107.999996704102,8|2,0:0|0:0,0:0:0:0:
174,65,278858,2,0,P|118:89|62:81,1,107.999996704102,8|2,0:0|0:0,0:0:0:0:
130,237,279167,2,0,P|178:273|199:325,1,107.999996704102,8|2,0:0|0:0,0:0:0:0:
306,193,279476,2,0,P|313:132|348:88,1,107.999996704102,8|2,0:0|0:0,0:0:0:0:
504,44,279785,5,12,0:0:0:0:
340,96,279940,1,2,0:0:0:0:
500,124,280095,1,12,0:0:0:0:
344,16,280250,1,2,0:0:0:0:
404,164,280404,2,0,L|396:276,1,107.999996704102,12|10,0:0|0:0,0:0:0:0:
256,356,280713,1,8,0:0:0:0:
256,356,280791,1,2,0:0:0:0:
256,356,280868,1,2,0:0:0:0:
256,356,280945,1,0,0:0:0:0:
256,356,281023,6,0,P|200:352|156:320,1,107.999996704102,6|0,0:0|0:0,0:0:0:0:
172,160,281332,2,0,P|116:164|72:196,1,107.999996704102,8|8,0:0|0:0,0:0:0:0:
325,135,281641,2,0,P|350:84|344:30,1,107.999996704102,8|8,0:0|0:0,0:0:0:0:
270,280,281950,2,0,P|301:327|351:349,1,107.999996704102,8|8,0:0|0:0,0:0:0:0:
456,224,282260,5,6,0:0:0:0:
347,348,282414,1,0,0:0:0:0:
500,292,282569,1,8,0:0:0:0:
303,280,282723,1,8,0:0:0:0:
404,156,282878,1,8,0:0:0:0:
347,348,283033,1,2,0:0:0:0:
456,224,283187,1,2,0:0:0:0:
256,140,283342,1,2,0:0:0:0:
256,368,283497,5,4,0:0:0:0:
