osu file format v14

[General]
AudioFilename: audio.mp3
AudioLeadIn: 0
PreviewTime: 197750
Countdown: 0
SampleSet: Soft
StackLeniency: 0.4
Mode: 0
LetterboxInBreaks: 0
WidescreenStoryboard: 0

[Editor]
Bookmarks: 101642,215456
DistanceSpacing: 1.3
BeatDivisor: 4
GridSize: 32
TimelineZoom: 2.799999

[Metadata]
Title:Fairytale,
TitleUnicode:Fairytale,
Artist:Ito Kashitaro
ArtistUnicode:伊東歌詞太郎
Creator:Battle
Version:Banx's Hard
Source:
Tags:gumi hero buzzg Haruto Haruto_Aizawa Nerova_Riuz_GX NRG SnowNiNo_ Doormat Anxient utaite male vocal cilia vocaloid cover japanese rock jrock j-rock dakinibrave xayah
BeatmapID:907316
BeatmapSetID:417615

[Difficulty]
HPDrainRate:5
CircleSize:4
OverallDifficulty:6
ApproachRate:8.2
SliderMultiplier:1.4
SliderTickRate:1

[Events]
//Background and Video events
0,0,"5b7c7dd6f0.jpg"
Video,-621,"y.avi"
//Break Periods
2,80811,84066
2,121635,128138
2,202466,203602
//Storyboard Layer 0 (Background)
//Storyboard Layer 1 (Fail)
//Storyboard Layer 2 (Pass)
//Storyboard Layer 3 (Foreground)
//Storyboard Layer 4 (Overlay)
//Storyboard Sound Samples

[TimingPoints]
1436,309.278350515464,4,2,2,60,1,0
1436,-133.333333333333,4,2,2,60,0,0
8781,-133.333333333333,4,2,2,5,0,0
8858,-133.333333333333,4,2,2,60,0,0
18678,-133.333333333333,4,2,2,5,0,0
18755,-133.333333333333,4,2,2,60,0,0
33523,-133.333333333333,4,2,2,5,0,0
33600,-133.333333333333,4,2,2,60,0,0
38626,-133.333333333333,4,2,2,5,0,0
39477,-133.333333333333,4,2,2,60,0,0
39863,-133.333333333333,4,2,2,5,0,0
41796,-133.333333333333,4,2,2,5,0,0
41951,-133.333333333333,4,2,2,60,0,0
42183,-133.333333333333,4,2,2,5,0,0
42260,-133.333333333333,4,2,2,60,0,0
42647,-133.333333333333,4,2,2,5,0,0
42724,-133.333333333333,4,2,2,60,0,0
43111,-133.333333333333,4,2,2,5,0,0
43188,-133.333333333333,4,2,2,60,0,0
43420,-133.333333333333,4,2,2,5,0,0
43497,-100,4,2,3,80,0,1
43575,-100,4,2,3,80,0,1
43729,-100,4,2,3,5,0,1
43807,-100,4,2,3,80,0,1
51152,-100,4,2,3,5,0,1
51229,-100,4,2,3,80,0,1
56100,-100,4,2,3,5,0,1
56178,-100,4,2,3,80,0,1
59503,-100,4,2,3,5,0,1
59580,-100,4,2,3,80,0,1
63291,-100,4,2,3,80,0,1
63368,-100,4,2,3,80,0,1
63523,-100,4,2,3,5,0,1
63600,-100,4,2,3,80,0,1
68472,-100,4,2,3,5,0,1
68549,-100,4,2,3,80,0,1
80611,-100,4,2,1,60,0,0
86100,-100,4,2,1,5,0,0
86178,-100,4,2,1,60,0,0
88575,-100,4,2,1,5,0,0
88652,-100,4,2,1,60,0,0
90508,-90.9090909090909,4,2,1,60,0,0
95456,-90.9090909090909,4,2,1,80,0,0
97853,-90.9090909090909,4,2,1,5,0,0
97930,-90.9090909090909,4,2,1,80,0,0
100405,-90.9090909090909,4,2,1,40,0,0
101255,-90.9090909090909,4,2,1,40,0,0
101642,-100,4,2,1,60,0,0
102879,-100,4,2,1,60,0,0
108987,-100,4,2,1,5,0,0
109064,-100,4,2,1,60,0,0
118884,-100,4,2,1,5,0,0
118961,-100,4,2,1,60,0,0
119657,-100,4,2,1,5,0,0
119734,-100,4,2,1,60,0,0
121436,309.278350515464,6,2,2,40,1,0
128858,-125,4,2,2,40,0,0
142466,-111.111111111111,4,2,2,40,0,0
142621,-111.111111111111,4,2,1,40,0,0
143704,-111.111111111111,4,2,4,40,0,0
154838,309.278350515464,4,2,3,60,1,0
154838,-100,4,2,3,60,0,0
158781,-100,4,2,3,5,0,0
158858,-100,4,2,3,60,0,0
165894,-100,4,2,3,5,0,0
165972,-100,4,2,3,60,0,0
169838,-100,4,2,3,60,0,0
170147,-100,4,2,3,60,0,0
177338,-100,4,2,3,5,0,0
177415,-100,4,2,3,60,0,0
188008,-100,4,2,3,5,0,0
188085,-100,4,2,3,60,0,0
189709,-100,4,2,3,5,0,0
189786,-100,4,2,3,60,0,0
192183,-100,4,2,3,5,0,0
192260,-100,4,2,3,60,0,0
198136,-100,4,2,2,60,0,0
199451,-100,4,2,2,60,0,0
200224,-100,4,2,2,5,0,0
200301,-100,4,2,2,60,0,0
200611,-100,4,2,2,60,0,0
201539,-100,4,2,2,5,0,0
201616,-100,4,2,2,80,0,0
201693,-100,4,2,2,5,0,0
202466,-100,4,2,2,80,0,0
202688,309.278350515464,4,2,2,60,1,0
202919,-100,4,2,2,5,0,0
203056,309.278350515464,4,2,2,60,1,0
203365,-100,4,2,2,5,0,0
203486,309.278350515464,4,2,2,60,1,0
203872,-100,4,2,2,5,0,0
204004,309.278350515464,4,2,2,60,1,0
204235,-100,4,2,2,5,0,0
204322,309.278350515464,4,2,3,80,1,1
204322,-90.9090909090909,4,2,3,80,0,1
204399,-90.9090909090909,4,2,3,80,0,1
204553,-90.9090909090909,4,2,3,5,0,1
204631,-90.9090909090909,4,2,3,80,0,1
207028,-90.9090909090909,4,2,3,5,0,1
207105,-90.9090909090909,4,2,3,80,0,1
216925,-90.9090909090909,4,2,3,5,0,1
217002,-90.9090909090909,4,2,3,80,0,1
220327,-90.9090909090909,4,2,3,5,0,1
220404,-90.9090909090909,4,2,3,80,0,1
224116,-90.9090909090909,4,2,3,80,0,1
224193,-90.9090909090909,4,2,3,80,0,1
229296,-90.9090909090909,4,2,3,5,0,1
229373,-90.9090909090909,4,2,3,80,0,1
231770,-90.9090909090909,4,2,3,5,0,1
231847,-90.9090909090909,4,2,3,80,0,1
236718,-90.9090909090909,4,2,3,5,0,1
236796,-90.9090909090909,4,2,3,80,0,1
240430,-90.9090909090909,4,2,3,5,0,1
240507,-90.9090909090909,4,2,3,80,0,1
242672,-90.9090909090909,4,2,2,60,0,1
243059,-90.9090909090909,4,2,2,5,0,1
243136,-90.9090909090909,4,2,2,60,0,1
243523,-90.9090909090909,4,2,2,5,0,1
243600,-90.9090909090909,4,2,2,60,0,1
243832,-90.9090909090909,4,2,2,5,0,1
243909,-100,4,2,3,80,0,0
251564,-100,4,2,3,5,0,0
251641,-100,4,2,3,80,0,0
254038,-100,4,2,3,5,0,0
254115,-100,4,2,3,80,0,0
258677,-100,4,2,3,5,0,0
258754,-100,4,2,3,80,0,0
258986,-100,4,2,3,5,0,0
259064,-100,4,2,3,80,0,0
263703,-100,4,2,3,80,0,0
283497,-100,4,2,3,60,0,0
283574,-100,4,2,3,5,0,0
283591,-100,4,2,3,60,0,0
292619,-100,4,2,3,35,0,0
298342,-100,4,2,3,35,0,0
301553,-100,4,2,3,35,0,0

[Colours]
Combo1 : 140,140,140
Combo2 : 83,119,119
Combo3 : 143,162,102
Combo4 : 165,129,101
Combo5 : 232,164,62
Combo6 : 226,85,82
Combo7 : 119,163,217
Combo8 : 120,205,122

[HitObjects]
51,76,1436,6,0,L|175:70,1,105.000004005432,2|0,0:0|0:0,0:0:0:0:
233,124,1899,2,0,L|337:129,1,105.000004005432,2|0,0:0|0:0,0:0:0:0:
432,135,2363,1,2,0:0:0:0:
432,135,2982,2,0,P|443:180|424:241,2,105.000004005432,2|2|2,0:0|0:0|0:0,0:0:0:0:
432,135,3910,6,0,L|308:129,1,105.000004005432,2|2,0:0|0:0,0:0:0:0:
250,183,4373,2,0,L|145:188,1,105.000004005432,2|2,0:0|0:0,0:0:0:0:
51,194,4837,1,2,0:0:0:0:
51,194,6075,5,2,0:0:0:0:
25,284,6229,1,2,0:0:0:0:
116,260,6384,2,0,P|156:251|228:264,1,105.000004005432,2|2,0:0|0:0,0:0:0:0:
290,321,6848,2,0,P|330:330|402:317,1,105.000004005432,2|2,0:0|0:0,0:0:0:0:
446,242,7312,1,2,0:0:0:0:
446,242,7930,2,0,P|394:232|343:242,2,105.000004005432,2|0|2,0:0|0:0|0:0,0:0:0:0:
387,120,8858,6,0,P|310:135|232:123,2,157.500006008148,2|2|2,0:0|0:0|0:0,0:0:0:0:
387,120,10405,2,0,P|438:110|489:119,2,105.000004005432,0|0|2,0:0|0:0|0:0,0:0:0:0:
310,175,11178,1,2,0:0:0:0:
232,123,11332,6,0,P|180:113|129:122,1,105.000004005432,2|2,0:0|0:0,0:0:0:0:
181,202,11796,2,0,P|145:215|102:281,1,105.000004005432,2|2,0:0|0:0,0:0:0:0:
143,353,12260,2,0,B|194:370|194:370|312:356,1,157.500006008148,2|0,0:0|0:0,0:0:0:0:
388,329,12879,2,0,P|403:288|386:217,2,105.000004005432,2|2|2,0:0|0:0|0:0,0:0:0:0:
264,270,13807,6,0,P|233:227|220:176,1,105.000004005432,2|2,0:0|0:0,0:0:0:0:
314,191,14271,2,0,P|310:152|352:86,1,105.000004005432,2|2,0:0|0:0,0:0:0:0:
424,51,14734,6,0,P|376:62|260:49,1,157.500006008148,2|0,0:0|0:0,0:0:0:0:
201,119,15353,2,0,P|149:112|97:122,1,105.000004005432,2|2,0:0|0:0,0:0:0:0:
25,183,15817,1,2,0:0:0:0:
25,183,16126,1,2,0:0:0:0:
87,254,16281,6,0,P|95:299|80:375,1,105.000004005432,2|2,0:0|0:0,0:0:0:0:
179,337,16745,2,0,P|183:296|168:219,1,105.000004005432,2|2,0:0|0:0,0:0:0:0:
218,150,17209,2,0,P|269:140|321:146,1,105.000004005432,2|0,0:0|0:0,0:0:0:0:
450,191,17827,1,2,0:0:0:0:
450,191,18446,1,2,0:0:0:0:
494,323,18755,6,0,P|442:330|392:314,1,105.000004005432,2|2,0:0|0:0,0:0:0:0:
322,252,19219,2,0,P|270:244|220:260,1,105.000004005432,2|2,0:0|0:0,0:0:0:0:
165,337,19683,1,2,0:0:0:0:
165,337,20301,2,0,P|214:352|266:344,2,105.000004005432,0|0|2,0:0|0:0|0:0,0:0:0:0:
71,237,21229,6,0,B|45:259|65:289|65:289|95:286|124:249|131:209|110:145,1,210.000008010865,2|2,0:0|0:0,0:0:0:0:
64,36,22157,2,0,B|118:60|118:60|220:49,1,157.500006008148,2|0,0:0|0:0,0:0:0:0:
310,37,22776,1,2,0:0:0:0:
310,37,23394,1,2,0:0:0:0:
354,166,23704,6,0,B|397:174|405:204|405:204|382:227|381:258,1,105.000004005432,2|2,0:0|0:0,0:0:0:0:
377,371,24322,1,2,0:0:0:0:
463,265,24631,2,0,P|484:228|429:114,1,157.500006008148,2|2,0:0|0:0,0:0:0:0:
477,34,25250,1,2,0:0:0:0:
477,34,25868,1,2,0:0:0:0:
450,125,26178,6,0,L|329:116,1,105.000004005432,2|0,0:0|0:0,0:0:0:0:
250,162,26796,2,0,L|145:169,1,105.000004005432,2|0,0:0|0:0,0:0:0:0:
56,112,27415,2,0,P|40:150|52:221,1,105.000004005432,2|0,0:0|0:0,0:0:0:0:
130,276,28033,2,0,L|234:268,1,105.000004005432,2|0,0:0|0:0,0:0:0:0:
331,310,28652,6,0,L|435:317,2,105.000004005432,2|2|2,0:0|0:0|0:0,0:0:0:0:
389,222,29580,1,2,0:0:0:0:
389,222,29889,1,2,0:0:0:0:
389,222,30972,1,2,0:0:0:0:
443,145,31126,6,0,P|407:131|323:152,1,105.000004005432,2|2,0:0|0:0,0:0:0:0:
277,208,31590,2,0,P|226:218|176:202,1,105.000004005432,2|2,0:0|0:0,0:0:0:0:
100,137,32054,2,0,B|104:103|87:78|87:78|176:103|221:42,1,210.000008010865,2|2,0:0|0:0,0:0:0:0:
220,42,33291,1,2,0:0:0:0:
220,42,33600,6,0,P|251:60|289:124,1,105.000004005432,2|2,0:0|0:0,0:0:0:0:
375,81,34064,2,0,P|380:131|358:202,1,105.000004005432,2|2,0:0|0:0,0:0:0:0:
286,232,34528,2,0,P|279:268|408:275,1,210.000008010865,2|2,0:0|0:0,0:0:0:0:
404,287,35920,1,2,0:0:0:0:
317,248,36075,6,0,L|201:247,1,105.000004005432,2|2,0:0|0:0,0:0:0:0:
130,313,36693,1,2,0:0:0:0:
55,238,37003,2,0,P|47:192|96:90,1,157.500006008148,2|0,0:0|0:0,0:0:0:0:
182,119,37621,2,0,L|286:118,2,105.000004005432,2|0|0,0:0|0:0|0:0,0:0:0:0:
89,69,38549,1,2,0:0:0:0:
256,192,38626,12,2,39786,0:0:0:0:
256,192,39863,12,2,41951,0:0:0:0:
25,296,43497,6,0,P|58:272|171:304,1,140,6|8,0:0|0:0,0:0:0:0:
221,341,43961,1,0,0:0:0:0:
296,289,44116,2,0,P|315:244|313:204,1,70,2|2,0:0|0:0,0:0:0:0:
249,160,44425,2,0,P|230:115|232:75,1,70,8|2,0:0|0:0,0:0:0:0:
281,19,44734,6,0,P|346:1|407:31,1,140,0|8,0:0|0:0,0:0:0:0:
460,105,45198,1,0,0:0:0:0:
395,169,45353,2,0,P|376:214|378:254,1,70,2|2,0:0|0:0,0:0:0:0:
442,298,45662,2,0,P|461:343|459:383,1,70,8|2,0:0|0:0,0:0:0:0:
370,356,45972,6,0,P|304:374|243:343,1,140,2|8,0:0|0:0,0:0:0:0:
179,279,46436,1,0,0:0:0:0:
94,250,46590,2,0,P|89:284|96:318,1,70,2|2,0:0|0:0,0:0:0:0:
157,185,46899,2,0,P|163:150|159:116,1,70,8|2,0:0|0:0,0:0:0:0:
99,47,47209,6,0,P|52:47|9:139,2,140,2|8|2,0:0|0:0|0:0,0:0:0:0:
159,116,47982,1,2,0:0:0:0:
239,72,48137,2,0,P|296:59|320:64,1,70,8|2,0:0|0:0,0:0:0:0:
289,150,48446,6,0,P|324:174|317:283,1,140,2|8,0:0|0:0,0:0:0:0:
253,311,48910,1,0,0:0:0:0:
178,259,49064,2,0,P|137:253|97:262,1,70,2|0,0:0|0:0,0:0:0:0:
53,184,49374,2,0,P|22:222|16:265,1,70,8|2,0:0|0:0,0:0:0:0:
143,175,49683,6,0,P|158:136|139:32,1,140,0|8,0:0|0:0,0:0:0:0:
230,10,50147,1,0,0:0:0:0:
289,78,50301,2,0,L|378:74,1,70,2|0,0:0|0:0,0:0:0:0:
445,105,50611,2,0,L|514:108,1,70,8|2,0:0|0:0,0:0:0:0:
376,165,50920,6,0,P|361:204|380:308,1,140,2|8,0:0|0:0,0:0:0:0:
289,330,51384,1,0,0:0:0:0:
230,262,51538,2,0,L|141:266,1,70,2|2,0:0|0:0,0:0:0:0:
74,235,51848,2,0,L|5:232,1,70,8|2,0:0|0:0,0:0:0:0:
47,151,52157,5,0,0:0:0:0:
47,151,52312,1,2,0:0:0:0:
126,107,52466,1,8,0:0:0:0:
126,107,52621,1,0,0:0:0:0:
201,144,52776,2,0,P|246:165|280:165,1,70,2|2,0:0|0:0,0:0:0:0:
326,59,53085,2,0,P|292:64|262:82,1,70,12|2,0:0|0:0,0:0:0:0:
289,198,53394,6,0,P|341:216|430:194,1,140,6|8,0:0|0:0,0:0:0:0:
482,258,53858,2,0,P|509:296|516:333,1,70,2|0,0:0|0:0,0:0:0:0:
459,381,54167,1,2,0:0:0:0:
382,345,54322,2,0,P|315:326|248:345,1,140,8|0,0:0|0:0,0:0:0:0:
171,311,54786,1,2,0:0:0:0:
200,232,54941,2,0,P|208:191|204:158,1,70,8|0,0:0|0:0,0:0:0:0:
148,100,55250,6,0,P|110:91|34:171,2,140,2|8|2,0:0|0:0|0:0,0:0:0:0:
205,163,56023,1,0,0:0:0:0:
278,121,56178,2,0,P|331:112|374:122,1,70,8|0,0:0|0:0,0:0:0:0:
420,154,56487,1,2,0:0:0:0:
493,112,56642,1,2,0:0:0:0:
436,50,56796,2,0,P|385:32|341:35,1,70,8|2,0:0|0:0,0:0:0:0:
278,121,57106,6,0,P|285:166|205:251,1,140,0|8,0:0|0:0,0:0:0:0:
155,267,57570,1,0,0:0:0:0:
88,215,57724,2,0,P|82:180|89:146,1,70,2|2,0:0|0:0,0:0:0:0:
155,267,58033,2,0,P|162:301|156:335,1,70,8|2,0:0|0:0,0:0:0:0:
238,356,58343,6,0,B|268:336|268:336|377:325,1,140,6|8,0:0|0:0,0:0:0:0:
455,317,58807,2,0,P|472:262|438:173,1,140,4|2,0:0|0:0,0:0:0:0:
364,194,59271,2,0,P|327:169|315:126,1,70,8|0,0:0|0:0,0:0:0:0:
271,76,59580,6,0,P|226:65|206:158,1,140,2|8,0:0|0:0,0:0:0:0:
236,206,60044,2,0,P|219:268|154:266,1,140,2|0,0:0|0:0,0:0:0:0:
88,214,60508,2,0,P|36:207|6:213,1,70,8|2,0:0|0:0,0:0:0:0:
63,121,60817,5,4,0:0:0:0:
133,75,60972,1,2,0:0:0:0:
207,112,61126,2,0,P|254:117|303:103,1,70,8|2,0:0|0:0,0:0:0:0:
352,75,61436,2,0,P|399:70|448:84,1,70,2|2,0:0|0:0,0:0:0:0:
497,110,61745,1,8,0:0:0:0:
387,168,61899,1,6,0:0:0:0:
450,222,62054,6,0,P|462:263|373:318,1,140,2|8,0:0|0:0,0:0:0:0:
323,285,62518,2,0,P|311:244|400:189,1,140,6|8,0:0|0:0,0:0:0:0:
325,376,62982,2,0,P|276:385|227:373,1,70,8|8,0:0|0:0,0:0:0:0:
145,337,63291,6,0,P|77:320|7:323,1,140,6|8,0:0|0:0,0:0:0:0:
13,239,63755,1,0,0:0:0:0:
77,184,63910,2,0,P|90:136|86:94,1,70,2|2,0:0|0:0,0:0:0:0:
158,18,64219,2,0,P|159:52|170:85,1,70,8|2,0:0|0:0,0:0:0:0:
227,148,64528,6,0,P|294:164|364:161,1,140,0|8,0:0|0:0,0:0:0:0:
433,112,64992,1,0,0:0:0:0:
491,172,65147,2,0,P|507:214|509:258,1,70,2|2,0:0|0:0,0:0:0:0:
425,230,65456,2,0,P|418:267|396:308,1,70,8|2,0:0|0:0,0:0:0:0:
342,353,65765,6,0,P|274:369|204:366,1,140,2|8,0:0|0:0,0:0:0:0:
139,313,66229,1,0,0:0:0:0:
58,338,66384,2,0,P|43:306|37:271,1,70,2|2,0:0|0:0,0:0:0:0:
91,207,66693,2,0,P|105:175|111:140,1,70,8|2,0:0|0:0,0:0:0:0:
165,75,67003,6,0,P|205:58|271:131,1,140,0|8,0:0|0:0,0:0:0:0:
232,188,67466,1,0,0:0:0:0:
284,253,67621,2,0,P|319:271|366:272,1,70,2|2,0:0|0:0,0:0:0:0:
405,212,67930,2,0,P|448:210|489:184,1,70,8|2,0:0|0:0,0:0:0:0:
507,121,68240,6,0,P|465:68|400:81,1,140,2|8,0:0|0:0,0:0:0:0:
332,131,68704,1,0,0:0:0:0:
261,85,68858,2,0,P|207:85|170:101,1,70,2|2,0:0|0:0,0:0:0:0:
120,133,69167,2,0,P|85:135|51:128,1,70,8|2,0:0|0:0,0:0:0:0:
194,173,69477,6,0,P|209:218|177:316,1,140,0|8,0:0|0:0,0:0:0:0:
244,365,69941,1,0,0:0:0:0:
316,323,70095,2,0,P|352:314|394:322,1,70,2|0,0:0|0:0,0:0:0:0:
490,357,70405,6,0,P|466:292|482:224,1,140,8|2,0:0|0:0,0:0:0:0:
435,155,70868,1,0,0:0:0:0:
361,195,71023,2,0,P|314:209|278:205,1,70,8|0,0:0|0:0,0:0:0:0:
233,149,71332,2,0,P|167:125|97:125,1,140,2|8,0:0|0:0,0:0:0:0:
22,164,71796,1,2,0:0:0:0:
14,247,71951,2,0,P|23:289|46:324,1,70,0|2,0:0|0:0,0:0:0:0:
102,364,72260,6,0,P|171:364|237:340,1,140,8|8,0:0|0:0,0:0:0:0:
293,278,72724,1,8,0:0:0:0:
375,262,72879,2,0,P|417:278|445:303,1,70,2|2,0:0|0:0,0:0:0:0:
472,217,73188,6,0,P|483:170|441:70,1,140,6|8,0:0|0:0,0:0:0:0:
378,49,73652,1,0,0:0:0:0:
306,93,73807,2,0,P|236:92|170:68,1,140,2|8,0:0|0:0,0:0:0:0:
111,129,74271,1,2,0:0:0:0:
29,147,74425,6,0,P|11:196|12:237,1,70,0|2,0:0|0:0,0:0:0:0:
93,211,74734,2,0,P|114:258|144:286,1,70,8|0,0:0|0:0,0:0:0:0:
235,337,75044,2,0,P|282:315|310:285,1,70,2|2,0:0|0:0,0:0:0:0:
235,247,75353,2,0,P|253:198|252:157,1,70,8|2,0:0|0:0,0:0:0:0:
248,96,75662,6,0,P|278:66|374:113,1,140,2|12,0:0|0:0,0:0:0:0:
353,172,76126,1,0,0:0:0:0:
381,251,76281,2,0,P|408:271|441:284,1,70,2|2,0:0|0:0,0:0:0:0:
295,303,76590,2,0,P|267:323|234:336,1,70,12|0,0:0|0:0,0:0:0:0:
159,374,76899,2,0,P|107:351|57:259,1,140,0|12,0:0|0:0,0:0:0:0:
94,118,77518,6,0,P|140:139|180:143,1,70,2|2,0:0|0:0,0:0:0:0:
228,95,77827,2,0,P|261:86|292:70,1,70,8|2,0:0|0:0,0:0:0:0:
377,74,78137,2,0,P|401:105|350:197,1,140,6|0,0:0|0:0,0:0:0:0:
293,228,78600,1,8,0:0:0:0:
240,294,78755,2,0,P|194:315|154:319,1,70,2|2,0:0|0:0,0:0:0:0:
106,271,79064,2,0,P|72:262|41:246,1,70,12|0,0:0|0:0,0:0:0:0:
8,168,79374,5,2,0:0:0:0:
43,92,79528,2,0,P|73:75|107:67,1,70,8|2,0:0|0:0,0:0:0:0:
191,75,79838,1,2,0:0:0:0:
251,132,79992,2,0,P|254:166|246:200,1,70,2|8,0:0|0:0,0:0:0:0:
274,53,80301,2,0,L|361:47,1,70,8|8,0:0|0:0,0:0:0:0:
170,156,80611,5,6,0:0:0:0:
337,169,84786,6,0,L|372:169,2,35,8|8|8,0:0|0:0|0:0,0:0:0:0:
261,205,85095,1,2,0:0:0:0:
177,119,85250,2,0,P|170:83|179:35,1,70,2|2,0:0|0:0,0:0:0:0:
233,209,85559,6,0,L|65:220,1,140,6|0,0:0|0:0,0:0:0:0:
39,282,86023,1,0,0:0:0:0:
136,373,86178,2,0,P|143:337|134:289,1,70,8|0,0:0|0:0,0:0:0:0:
233,209,86487,2,0,P|229:243|236:277,1,70,0|8,0:0|0:0,0:0:0:0:
304,338,86796,6,0,P|358:353|439:287,1,140
399,233,87260,1,2,0:0:0:0:
471,110,87415,2,0,P|472:144|462:178,1,70,8|0,0:0|0:0,0:0:0:0:
322,197,87724,2,0,P|311:163|313:128,1,70,2|0,0:0|0:0,0:0:0:0:
377,30,88033,6,0,P|310:43|253:5,1,140,2|0,0:0|0:0,0:0:0:0:
187,57,88497,1,0,0:0:0:0:
81,18,88652,2,0,L|86:104,1,70,8|0,0:0|0:0,0:0:0:0:
29,150,88961,1,0,0:0:0:0:
77,271,89116,1,8,0:0:0:0:
106,192,89271,5,2,0:0:0:0:
0,272,89425,2,0,P|17:318|52:344,1,70,8|4,0:0|0:0,0:0:0:0:
119,356,89734,1,2,0:0:0:0:
187,295,89889,2,0,L|280:288,1,70,8|2,0:0|0:0,0:0:0:0:
321,343,90198,2,0,L|390:348,1,70,8|2,0:0|0:0,0:0:0:0:
502,361,90508,5,8,0:0:0:0:
455,281,90662,1,2,0:0:0:0:
490,195,90817,2,0,P|500:154|494:107,1,77.0000023498536,2|2,0:0|0:0,0:0:0:0:
409,148,91126,2,0,P|387:111|349:82,1,77.0000023498536,2|2,0:0|0:0,0:0:0:0:
312,168,91436,2,0,P|271:158|224:164,1,77.0000023498536,10|2,0:0|0:0,0:0:0:0:
158,211,91745,6,0,P|100:223|27:155,1,154.000004699707,2|10,0:0|0:0,0:0:0:0:
115,130,92209,1,2,0:0:0:0:
189,76,92363,2,0,P|217:33|221:-4,1,77.0000023498536,2|2,0:0|0:0,0:0:0:0:
279,100,92673,2,0,P|288:137|311:167,1,77.0000023498536,10|2,0:0|0:0,0:0:0:0:
394,209,92982,6,0,P|427:247|380:338,1,154.000004699707,2|8,0:0|0:0,0:0:0:0:
302,359,93446,1,2,0:0:0:0:
210,350,93600,2,0,L|124:340,1,77.0000023498536,2|2,0:0|0:0,0:0:0:0:
182,261,93910,2,0,L|128:193,1,77.0000023498536,10|2,0:0|0:0,0:0:0:0:
82,123,94219,6,0,P|71:83|162:51,1,154.000004699707,2|10,0:0|0:0,0:0:0:0:
211,120,94683,1,8,0:0:0:0:
297,153,94838,2,0,P|349:151|386:138,1,77.0000023498536,8|2,0:0|0:0,0:0:0:0:
323,65,95147,2,0,P|358:26|375:-8,1,77.0000023498536,10|2,0:0|0:0,0:0:0:0:
456,102,95456,6,0,P|466:149|452:200,1,77.0000023498536,12|2,0:0|0:0,0:0:0:0:
391,237,95765,2,0,P|381:284|395:335,1,77.0000023498536,8|2,0:0|0:0,0:0:0:0:
305,360,96075,1,8,0:0:0:0:
305,360,96229,1,2,0:0:0:0:
221,320,96384,1,8,0:0:0:0:
221,320,96539,1,2,0:0:0:0:
219,227,96693,6,0,P|194:191|101:224,1,154.000004699707,8|8,0:0|0:0,0:0:0:0:
39,286,97157,1,2,0:0:0:0:
8,198,97312,2,0,L|24:107,1,77.0000023498536,8|2,0:0|0:0,0:0:0:0:
53,35,97621,2,0,P|101:22|160:31,1,77.0000023498536,8|0,0:0|0:0,0:0:0:0:
210,65,97930,6,0,P|266:72|309:61,1,77.0000023498536,12|2,0:0|0:0,0:0:0:0:
377,47,98240,2,0,L|381:134,1,77.0000023498536,8|0,0:0|0:0,0:0:0:0:
318,192,98549,2,0,L|314:279,1,77.0000023498536,8|8,0:0|0:0,0:0:0:0:
366,345,98858,1,2,0:0:0:0:
366,345,99013,1,2,0:0:0:0:
469,294,99167,6,0,P|480:238|458:119,1,154.000004699707,12|12,0:0|0:0,0:0:0:0:
394,87,99631,1,2,0:0:0:0:
335,158,99786,2,0,P|298:168|259:168,1,77.0000023498536,12|12,0:0|0:0,0:0:0:0:
168,154,100095,2,0,P|129:153|92:164,1,77.0000023498536,12|2,0:0|0:0,0:0:0:0:
256,192,100405,12,2,101255,0:0:0:0:
0,222,101642,6,0,P|59:211|157:232,1,140,6|8,0:0|0:0,0:0:0:0:
206,282,102106,2,0,P|253:287|300:273,1,70
345,224,102415,1,2,0:0:0:0:
378,308,102570,2,0,P|383:355|369:402,1,70,8|0,0:0|0:0,0:0:0:0:
479,333,102879,6,0,P|470:289|486:176,1,140,0|8,0:0|0:0,0:0:0:0:
423,122,103343,1,0,0:0:0:0:
334,140,103497,2,0,P|279:142|239:131,1,70,2|2,0:0|0:0,0:0:0:0:
182,179,103807,2,0,P|141:141|121:105,1,70,8|2,0:0|0:0,0:0:0:0:
40,65,104116,6,0,P|50:133|40:202,1,140,2|8,0:0|0:0,0:0:0:0:
89,279,104580,1,2,0:0:0:0:
65,366,104734,2,0,P|120:364|160:375,1,70,0|2,0:0|0:0,0:0:0:0:
218,330,105044,2,0,P|273:332|313:321,1,70,8|0,0:0|0:0,0:0:0:0:
360,274,105353,5,0,0:0:0:0:
360,274,105508,1,2,0:0:0:0:
308,199,105662,2,0,P|298:159|300:105,1,70,8|0,0:0|0:0,0:0:0:0:
397,81,105972,2,0,P|395:116|386:150,1,70,2|2,0:0|0:0,0:0:0:0:
263,109,106281,2,0,P|228:104|193:108,1,70,8|2,0:0|0:0,0:0:0:0:
122,165,106590,6,0,P|74:174|35:94,1,140,2|8,0:0|0:0,0:0:0:0:
93,37,107054,1,0,0:0:0:0:
152,106,107209,2,0,P|155:152|139:194,1,70,0|2,0:0|0:0,0:0:0:0:
110,257,107518,2,0,P|107:303|123:345,1,70,8|0,0:0|0:0,0:0:0:0:
193,368,107827,6,0,P|243:369|320:313,1,140,0|8,0:0|0:0,0:0:0:0:
358,239,108291,1,0,0:0:0:0:
316,158,108446,2,0,P|313:112|329:70,1,70,2|2,0:0|0:0,0:0:0:0:
402,127,108755,2,0,P|432:92|473:73,1,70,8|0,0:0|0:0,0:0:0:0:
486,165,109064,6,0,P|501:219|479:329,1,140,2|8,0:0|0:0,0:0:0:0:
420,358,109528,1,2,0:0:0:0:
333,328,109683,2,0,P|279:321|250:321,1,70,0|2,0:0|0:0,0:0:0:0:
109,363,109992,2,0,P|144:361|179:356,1,70,8|0,0:0|0:0,0:0:0:0:
245,293,110301,6,0,P|252:248|212:153,1,140,0|8,0:0|0:0,0:0:0:0:
138,119,110765,1,0,0:0:0:0:
56,159,110920,1,8,0:0:0:0:
64,68,111075,2,0,P|103:37|152:27,1,70,8|8,0:0|0:0,0:0:0:0:
212,35,111384,1,2,0:0:0:0:
219,161,111539,6,0,P|255:172|349:112,1,140,6|8,0:0|0:0,0:0:0:0:
428,153,112003,1,0,0:0:0:0:
372,224,112157,2,0,P|361:267|359:309,1,70,0|2,0:0|0:0,0:0:0:0:
273,323,112466,2,0,P|234:345|203:373,1,70,8|0,0:0|0:0,0:0:0:0:
161,288,112776,6,0,P|106:295|21:254,2,140,0|8|2,0:0|0:0|0:0,0:0:0:0:
217,216,113549,1,2,0:0:0:0:
161,143,113704,2,0,P|150:106|152:49,1,70,8|0,0:0|0:0,0:0:0:0:
237,95,114013,6,0,B|343:85|343:85|396:110,1,140,2|8,0:0|0:0,0:0:0:0:
442,158,114477,2,0,P|485:144|486:49,1,140,0|2,0:0|0:0,0:0:0:0:
373,99,114941,2,0,B|352:146|352:146|360:264,1,140,12|0,0:0|0:0,0:0:0:0:
291,297,115405,1,2,0:0:0:0:
211,253,115559,6,0,P|157:241|128:247,1,70,8|0,0:0|0:0,0:0:0:0:
165,331,115868,2,0,P|118:360|102:385,1,70,2|2,0:0|0:0,0:0:0:0:
27,331,116178,1,8,0:0:0:0:
43,241,116332,1,2,0:0:0:0:
58,151,116487,6,0,P|14:137|13:42,1,140,6|8,0:0|0:0,0:0:0:0:
83,8,116951,1,0,0:0:0:0:
155,63,117106,2,0,P|201:73|245:70,1,70,0|2,0:0|0:0,0:0:0:0:
306,111,117415,2,0,P|345:85|374:52,1,70,8|0,0:0|0:0,0:0:0:0:
234,161,117724,6,0,P|190:174|189:269,1,140,0|8,0:0|0:0,0:0:0:0:
231,331,118188,1,0,0:0:0:0:
320,314,118343,2,0,P|360:306|414:309,1,70,2|2,0:0|0:0,0:0:0:0:
442,231,118652,2,0,P|476:238|511:239,1,70,8|0,0:0|0:0,0:0:0:0:
367,178,118961,6,0,P|354:142|382:42,1,140,6|8,0:0|0:0,0:0:0:0:
291,19,119425,2,0,B|259:55|259:55|152:78,1,140,2|2,0:0|0:0,0:0:0:0:
79,93,119889,6,0,P|63:132|109:239,1,140,8|2,0:0|0:0,0:0:0:0:
170,263,120353,1,2,0:0:0:0:
239,204,120508,2,0,L|330:198,2,70,8|8|8,0:0|0:0|0:0,0:0:0:0:
170,263,120972,5,0,0:0:0:0:
130,243,121049,1,8,0:0:0:0:
89,222,121126,2,0,L|19:226,2,70,0|2|2,0:0|0:0|0:0,0:0:0:0:
20,279,128858,6,0,B|75:285|123:270|123:270|103:301|103:301|138:285|206:293,1,224,2|2,0:0|0:0,0:0:0:0:
264,332,129631,1,0,0:0:0:0:
340,285,129786,6,0,P|352:242|341:165,1,112,2|0,0:0|0:0,0:0:0:0:
252,89,130250,2,0,P|244:144|257:198,1,112,2|0,0:0|0:0,0:0:0:0:
368,138,130714,6,0,L|499:132,2,112,2|0|2,0:0|0:0|0:0,0:0:0:0:
285,103,131487,1,0,0:0:0:0:
253,225,131642,6,0,P|208:235|133:220,1,112,2|0,0:0|0:0,0:0:0:0:
65,140,132106,2,0,P|120:129|175:140,1,112,2|0,0:0|0:0,0:0:0:0:
261,255,132570,6,0,B|316:261|364:246|364:246|344:277|344:277|379:261|447:269,1,224,2|2,0:0|0:0,0:0:0:0:
474,191,133343,1,0,0:0:0:0:
431,112,133497,6,0,P|395:119|298:104,1,112,2|0,0:0|0:0,0:0:0:0:
247,60,133961,2,0,P|211:53|114:68,1,112,2|0,0:0|0:0,0:0:0:0:
59,105,134425,5,2,0:0:0:0:
59,105,134580,1,0,0:0:0:0:
133,154,134734,2,0,P|152:194|153:221,1,56,2|0,0:0|0:0,0:0:0:0:
145,295,135044,2,0,P|139:322|124:345,1,56,2|0,0:0|0:0,0:0:0:0:
228,259,135353,6,0,L|302:256,1,56,2|0,0:0|0:0,0:0:0:0:
368,225,135662,2,0,L|423:227,1,56,2|0,0:0|0:0,0:0:0:0:
391,311,135972,2,0,L|446:313,1,56,2|0,0:0|0:0,0:0:0:0:
354,187,136281,6,0,B|319:143|274:120|274:120|310:112|310:112|274:98|232:45,1,224,2|2,0:0|0:0,0:0:0:0:
161,30,137054,1,0,0:0:0:0:
76,60,137209,6,0,P|64:92|76:171,1,112
113,248,137673,2,0,P|127:301|114:355,1,112,2|0,0:0|0:0,0:0:0:0:
162,172,138137,6,0,P|217:164|272:172,1,112,2|0,0:0|0:0,0:0:0:0:
343,226,138600,1,0,0:0:0:0:
424,187,138755,2,0,P|433:161|438:134,1,56,2|0,0:0|0:0,0:0:0:0:
417,277,139064,2,0,P|421:304|431:330,2,56,2|0|2,0:0|0:0|0:0,0:0:0:0:
343,226,139528,1,0,0:0:0:0:
268,275,139683,1,2,0:0:0:0:
111,188,139992,6,0,P|93:234|92:263,1,56,2|0,0:0|0:0,0:0:0:0:
172,279,140301,2,0,P|191:324|211:345,1,56
268,275,140611,2,0,P|256:231|271:171,1,84,2|0,0:0|0:0,0:0:0:0:
275,169,140920,6,0,P|287:125|263:42,1,112,2|0,0:0|0:0,0:0:0:0:
202,114,141384,2,0,P|179:74|103:32,1,112,2|0,0:0|0:0,0:0:0:0:
37,20,141848,5,2,0:0:0:0:
37,20,142003,1,2,0:0:0:0:
47,108,142157,1,0,0:0:0:0:
47,108,142312,1,2,0:0:0:0:
102,177,142466,2,0,P|114:224|109:260,1,62.9999980773926,0|8,0:0|0:0,0:0:0:0:
77,326,142776,5,8,0:0:0:0:
77,326,142930,1,2,0:3:0:0:
167,353,143085,2,0,P|206:360|249:348,1,62.9999980773926,0|2,0:0|0:0,0:0:0:0:
305,301,143394,2,0,P|344:294|387:306,1,62.9999980773926,2|10,0:0|0:0,0:0:0:0:
460,316,143704,6,0,P|449:260|461:165,1,125.999996154785,4|0,0:0|0:0,0:0:0:0:
395,117,144167,1,0,0:0:0:0:
309,157,144322,2,0,P|270:166|226:159,1,62.9999980773926,10|0,0:0|0:0,0:0:0:0:
163,121,144631,2,0,P|126:110|74:189,1,125.999996154785,8|0,0:0|0:0,0:0:0:0:
164,330,145250,2,0,P|177:290|177:244,1,62.9999980773926,8|0,0:0|0:0,0:0:0:0:
266,232,145559,6,0,P|246:172|247:109,1,125.999996154785,2|0,0:0|0:0,0:0:0:0:
305,48,146023,1,8,0:0:0:0:
385,97,146178,2,0,P|436:97|464:92,1,62.9999980773926,10|2,0:0|0:0,0:0:0:0:
414,183,146487,2,0,P|450:219|473:235,1,62.9999980773926,8|0,0:0|0:0,0:0:0:0:
377,273,146796,2,0,P|377:324|382:351,1,62.9999980773926,2|0,0:0|0:0,0:0:0:0:
288,366,147106,1,2,0:0:0:0:
288,366,147260,1,2,0:0:0:0:
204,321,147415,6,0,P|155:309|55:331,1,125.999996154785,2|8,0:0|0:0,0:0:0:0:
15,250,147879,1,0,0:0:0:0:
77,179,148033,2,0,P|88:146|90:103,1,62.9999980773926,2|0,0:0|0:0,0:0:0:0:
178,80,148343,2,0,P|239:92|301:82,1,125.999996154785,8|0,0:0|0:0,0:0:0:0:
382,131,148807,1,2,0:0:0:0:
466,89,148961,2,0,P|479:54|481:8,1,62.9999980773926,2|0,0:0|0:0,0:0:0:0:
382,131,149271,6,0,P|389:175|369:275,1,125.999996154785,2|2,0:0|0:0,0:0:0:0:
300,309,149734,1,2,0:0:0:0:
215,265,149889,2,0,P|168:255|139:258,1,62.9999980773926,2|2,0:0|0:0,0:0:0:0:
71,304,150198,2,0,P|30:277|12:255,1,62.9999980773926,8|2,0:0|0:0,0:0:0:0:
53,177,150508,2,0,P|43:129|46:101,1,62.9999980773926,2|2,0:0|0:0,0:0:0:0:
130,74,150817,2,0,P|156:33|178:15,1,62.9999980773926,2|2,0:0|0:0,0:0:0:0:
260,10,151126,5,4,0:0:0:0:
260,10,151436,2,0,P|271:55|259:146,1,125.999996154785,8|2,0:0|0:0,0:0:0:0:
220,217,151899,1,0,0:0:0:0:
280,290,152054,2,0,L|366:303,1,62.9999980773926,8|2,0:0|0:0,0:0:0:0:
404,370,152363,2,0,L|474:318,1,62.9999980773926,0|2,0:0|0:0,0:0:0:0:
494,245,152673,1,8,0:0:0:0:
494,245,152982,6,0,B|465:211|465:211|450:109,1,125.999996154785,2|2,0:0|0:0,0:0:0:0:
381,68,153446,1,4,0:0:0:0:
381,68,153600,2,0,B|339:96|339:96|235:91,1,125.999996154785,0|4,0:0|0:3,0:0:0:0:
177,133,154064,1,4,0:3:0:0:
103,73,154219,1,4,0:3:0:0:
87,166,154374,2,0,L|72:258,2,62.9999980773926,8|8|8,0:0|0:0|0:0,0:0:0:0:
37,291,154838,6,0,B|79:263|79:263|168:267,1,140,4|8,0:0|0:0,0:0:0:0:
243,318,155301,2,0,P|292:337|378:286,1,140,4|0,0:0|0:0,0:0:0:0:
348,213,155765,1,2,0:0:0:0:
348,213,155920,1,2,0:0:0:0:
414,150,156075,6,0,P|459:146|493:153,1,70,2|8,0:0|0:0,0:0:0:0:
378,70,156384,2,0,P|350:91|329:119,1,70,8|2,0:0|0:0,0:0:0:0:
259,177,156693,2,0,B|219:197|219:197|117:182,1,140,8|2,0:0|0:0,0:0:0:0:
124,183,157157,1,2,0:0:0:0:
62,116,157312,6,0,P|48:73|52:33,1,70,4|0,0:0|0:0,0:0:0:0:
37,203,157621,1,8,0:0:0:0:
83,281,157776,2,0,L|161:297,1,70,8|2,0:0|0:0,0:0:0:0:
221,353,158085,2,0,L|289:338,1,70,0|2,0:0|0:0,0:0:0:0:
358,280,158394,1,2,0:2:0:0:
444,311,158549,6,0,L|512:325,1,70,8|0,0:0|0:0,0:0:0:0:
430,217,158858,2,0,P|419:172|423:122,1,70,8|8,0:0|0:0,0:0:0:0:
470,73,159167,2,0,P|430:48|397:10,1,70,8|8,0:0|0:0,0:0:0:0:
347,95,159477,2,0,P|321:118|290:135,1,70,8|8,0:0|0:0,0:0:0:0:
200,152,159786,6,0,P|169:179|188:291,1,140,12|2,0:0|0:0,0:0:0:0:
241,327,160250,2,0,B|251:368|251:368|128:354,1,140,12|2,0:0|0:0,0:0:0:0:
63,346,160714,2,0,L|-19:338,1,70,12|2,0:0|0:0,0:0:0:0:
43,263,161023,6,0,B|54:208|54:208|51:98,1,140,12|2,0:0|0:0,0:0:0:0:
0,48,161487,2,0,B|-10:7|-10:7|113:21,1,140,12|2,0:0|0:0,0:0:0:0:
135,95,161951,2,0,P|171:109|226:105,1,70,12|2,0:0|0:0,0:0:0:0:
290,134,162260,6,0,B|301:189|301:189|298:299,1,140,12|2,0:0|0:0,0:0:0:0:
364,335,162724,2,0,P|407:345|387:267,1,140,12|2,0:0|0:0,0:0:0:0:
464,196,163188,2,0,P|455:151|457:112,1,70,12|2,0:0|0:0,0:0:0:0:
507,52,163497,6,0,B|517:11|517:11|394:25,1,140,12|2,0:0|0:0,0:0:0:0:
365,95,163961,2,0,B|323:116|323:116|207:96,1,140,12|2,0:0|0:0,0:0:0:0:
143,124,164425,2,0,P|115:172|112:207,1,70,8|2,0:0|0:0,0:0:0:0:
203,193,164734,6,0,P|225:278|261:321,1,140,12|2,0:0|0:0,0:0:0:0:
344,341,165198,1,12,0:0:0:0:
424,299,165353,2,0,P|435:265|437:230,1,70,2|2,0:0|0:0,0:0:0:0:
377,163,165662,2,0,P|365:123|366:80,1,70,8|0,0:0|0:0,0:0:0:0:
308,21,165972,6,0,B|266:0|266:0|150:20,1,140,12|2,0:0|0:0,0:0:0:0:
111,82,166436,1,12,0:0:0:0:
36,30,166590,2,0,P|21:81|27:127,1,70,2|2,0:0|0:0,0:0:0:0:
82,165,166899,2,0,P|107:211|144:239,1,70,8|2,0:0|0:0,0:0:0:0:
209,227,167209,6,0,B|234:252|234:252|168:255|145:324,1,140,2|2,0:0|0:0,0:0:0:0:
237,338,167673,2,0,P|269:355|379:315,1,140,2|2,0:0|0:0,0:0:0:0:
454,346,168137,2,0,P|476:319|491:287,1,70,2|2,0:0|0:0,0:0:0:0:
450,206,168446,6,0,B|435:155|435:155|441:42,1,140,6|8,0:0|0:0,0:0:0:0:
371,7,168910,1,8,0:0:0:0:
299,63,169064,2,0,P|260:85|222:92,1,70,2|2,0:0|0:0,0:0:0:0:
107,130,169374,2,0,P|138:147|172:156,1,70,2|2,0:0|0:0,0:0:0:0:
172,156,169992,1,0,0:0:0:0:
231,224,170147,6,0,P|240:273|150:335,1,140,12|2,0:0|0:0,0:0:0:0:
92,348,170611,2,0,L|82:261,1,70,8|2,0:0|0:0,0:0:0:0:
20,212,170920,6,0,L|36:72,1,140,12|2,0:0|0:0,0:0:0:0:
108,17,171384,1,12,0:0:0:0:
190,56,171539,2,0,P|225:64|266:58,1,70,0|2,0:0|0:0,0:0:0:0:
293,144,171848,2,0,P|323:124|348:91,1,70,12|2,0:0|0:0,0:0:0:0:
407,32,172157,6,0,P|442:24|483:30,2,70,12|2|2,0:0|0:0|0:0,0:0:0:0:
447,113,172621,2,0,P|477:132|502:165,2,70,12|2|2,0:0|0:0|0:0,0:0:0:0:
418,199,173085,2,0,P|426:234|420:275,1,70,12|2,0:0|0:0,0:0:0:0:
352,326,173394,5,8,0:0:0:0:
352,326,173549,1,2,0:0:0:0:
273,291,173704,1,8,0:0:0:0:
273,291,173858,1,8,0:0:0:0:
183,309,174013,2,0,L|100:321,1,70,2|2,0:0|0:0,0:0:0:0:
112,227,174322,2,0,L|44:176,1,70,2|0,0:0|0:0,0:0:0:0:
119,118,174631,6,0,L|107:34,1,70,12|2,0:0|0:0,0:0:0:0:
197,71,174941,1,2,0:0:0:0:
287,62,175095,1,12,0:0:0:0:
377,53,175250,1,2,0:0:0:0:
467,44,175405,6,0,L|455:127,1,70,2|12,0:0|0:0,0:0:0:0:
438,202,175714,1,2,0:0:0:0:
369,143,175868,2,0,P|328:140|279:151,1,70,8|2,0:0|0:0,0:0:0:0:
268,230,176178,1,2,0:0:0:0:
180,252,176332,2,0,P|153:220|110:194,2,70,8|2|2,0:0|0:0|0:0,0:0:0:0:
268,230,176796,2,0,P|302:226|337:231,1,70,8|2,0:0|0:0,0:0:0:0:
316,320,177106,6,0,P|281:324|246:321,1,70,12|0,0:0|0:0,0:0:0:0:
157,339,177415,2,0,P|122:334|87:337,1,70,2|2,0:0|0:0,0:0:0:0:
48,255,177724,2,0,P|26:227|0:204,1,70,0|2,0:0|0:0,0:0:0:0:
30,118,178033,2,0,P|34:83|31:48,1,70,2|2,0:0|0:0,0:0:0:0:
112,6,178343,5,8,0:0:0:0:
196,37,178497,1,8,0:0:0:0:
130,100,178652,2,0,P|125:134|128:169,1,70,8|2,0:0|0:0,0:0:0:0:
219,179,178961,2,0,P|240:206|267:229,1,70,2|2,0:0|0:0,0:0:0:0:
336,170,179271,2,0,P|371:175|406:171,1,70,8|8,0:0|0:0,0:0:0:0:
471,108,179580,6,0,P|496:155|457:251,1,140,6|8,0:0|0:0,0:0:0:0:
485,325,180044,1,0,0:0:0:0:
403,364,180198,2,0,P|369:368|334:365,1,70,2|2,0:0|0:0,0:0:0:0:
257,313,180508,1,8,0:0:0:0:
257,313,180662,1,0,0:0:0:0:
168,289,180817,6,0,P|134:285|99:288,1,70,2|2,0:0|0:0,0:0:0:0:
42,217,181126,2,0,P|30:170|40:120,1,70,8|0,0:0|0:0,0:0:0:0:
130,100,181436,2,0,P|130:134|119:168,1,70,2|2,0:0|0:0,0:0:0:0:
39,44,181745,2,0,P|73:8|109:-3,1,70,8|0,0:0|0:0,0:0:0:0:
180,19,182054,6,0,B|218:29|218:29|322:14,1,140,2|8,0:0|0:0,0:0:0:0:
396,60,182518,1,0,0:0:0:0:
350,139,182673,2,0,P|335:183|331:233,1,70,2|2,0:0|0:0,0:0:0:0:
405,260,182982,2,0,P|420:304|424:354,1,70,8|0,0:0|0:0,0:0:0:0:
332,318,183291,6,0,P|311:359|278:397,1,70,0|2,0:0|0:0,0:0:0:0:
239,307,183600,2,0,P|195:322|145:325,1,70,8|0,0:0|0:0,0:0:0:0:
89,285,183910,1,2,0:0:0:0:
89,285,184064,1,0,0:0:0:0:
127,202,184219,2,0,P|137:138|133:109,1,70,8|2,0:0|0:0,0:0:0:0:
68,72,184528,6,0,P|104:49|211:79,1,140,2|8,0:0|0:0,0:0:0:0:
265,123,184992,1,0,0:0:0:0:
350,92,185147,2,0,P|365:57|368:18,1,70,2|2,0:0|0:0,0:0:0:0:
453,57,185456,2,0,P|457:91|471:123,1,70,8|0,0:0|0:0,0:0:0:0:
394,171,185765,6,0,B|396:227|396:227|374:336,1,140,2|8,0:0|0:0,0:0:0:0:
296,347,186229,1,0,0:0:0:0:
220,295,186384,2,0,P|170:288|134:297,1,70,2|0,0:0|0:0,0:0:0:0:
68,253,186693,2,0,P|18:260|-18:251,1,70,8|2,0:0|0:0,0:0:0:0:
30,170,187003,6,0,B|28:114|28:114|50:5,2,140,6|8|2,0:0|0:0|0:0,0:0:0:0:
68,253,187776,1,2,0:0:0:0:
138,196,187930,1,0,0:0:0:0:
211,250,188085,6,0,P|258:279|294:282,1,70,8|0,0:0|0:0,0:0:0:0:
362,287,188394,1,2,0:0:0:0:
323,204,188549,2,0,P|327:169|343:138,1,70,8|8,0:0|0:0,0:0:0:0:
403,70,188858,5,8,0:0:0:0:
313,54,189013,1,2,0:0:0:0:
232,13,189167,1,8,0:0:0:0:
142,29,189322,1,2,0:0:0:0:
52,45,189477,6,0,P|61:88|45:195,1,140,4|8,0:0|0:0,0:0:0:0:
115,246,189941,2,0,B|130:273|130:273|120:205|148:148,1,140,2|2,0:0|0:0,0:0:0:0:
218,117,190405,2,0,B|254:135|254:135|366:119,1,140,12|0,0:0|0:0,0:0:0:0:
428,170,190868,1,2,0:0:0:0:
347,213,191023,6,0,P|331:258|335:294,1,70,8|0,0:0|0:0,0:0:0:0:
422,268,191332,2,0,P|442:311|470:333,1,70,2|0,0:0|0:0,0:0:0:0:
371,354,191642,2,0,P|334:364|286:351,1,70,8|0,0:0|0:0,0:0:0:0:
229,305,191951,6,0,B|182:291|182:291|75:303,1,140,6|8,0:0|0:0,0:0:0:0:
23,240,192415,2,0,B|1:257|1:257|16:219|18:178|-8:134,1,140,2|2,0:0|0:0,0:0:0:0:
57,78,192879,2,0,B|104:92|104:92|194:81,1,140,8|0,0:0|0:0,0:0:0:0:
270,132,193343,1,2,0:0:0:0:
336,70,193497,6,0,P|356:117|355:148,1,70,8|8,0:0|0:0,0:0:0:0:
413,207,193807,2,0,P|393:254|371:275,1,70,2|2,0:0|0:0,0:0:0:0:
370,358,194116,2,0,P|322:378|292:377,1,70,2|2,0:0|0:0,0:0:0:0:
218,347,194425,6,0,B|195:308|195:308|205:186,2,140,12|8|8,0:0|0:0|0:0,0:0:0:0:
284,285,195198,1,2,0:0:0:0:
293,194,195353,2,0,L|301:111,1,70,8|2,0:0|0:0,0:0:0:0:
382,161,195662,6,0,L|446:107,1,70,8|2,0:0|0:0,0:0:0:0:
465,203,195972,2,0,P|479:251|452:349,2,140,8|8|8,0:0|0:0|0:0,0:0:0:0:
436,116,196745,1,2,0:0:0:0:
451,26,196899,6,0,L|533:22,2,70,12|0|8,0:0|0:0|0:0,0:0:0:0:
364,56,197363,2,0,L|282:52,2,70,2|0|2,0:0|0:0|0:0,0:0:0:0:
436,116,197827,1,8,0:0:0:0:
337,269,198137,1,2,0:0:0:0:
256,192,198214,12,0,201693,0:0:0:0:
33,41,204322,6,0,B|59:86|59:86|42:198,1,154.000004699707,6|8,0:0|0:0,0:0:0:0:
114,246,204786,1,0,0:0:0:0:
192,196,204941,2,0,P|233:189|284:197,1,77.0000023498536,2|2,0:0|0:0,0:0:0:0:
350,232,205250,2,0,P|382:254|407:284,1,77.0000023498536,8|2,0:0|0:0,0:0:0:0:
342,140,205559,6,0,P|328:84|410:42,1,154.000004699707,0|8,0:0|0:0,0:0:0:0:
444,120,206023,1,0,0:0:0:0:
416,208,206178,2,0,P|405:255|411:304,1,77.0000023498536,2|2,0:0|0:0,0:0:0:0:
320,318,206487,2,0,P|278:343|248:382,1,77.0000023498536,8|2,0:0|0:0,0:0:0:0:
173,326,206796,6,0,P|126:315|20:355,2,154.000004699707,2|8|2,0:0|0:0|0:0,0:0:0:0:
231,253,207570,1,2,0:0:0:0:
188,171,207724,2,0,P|175:120|177:80,1,77.0000023498536,8|2,0:0|0:0,0:0:0:0:
277,42,208033,6,0,P|275:81|264:118,1,77.0000023498536,0|2,0:0|0:0,0:0:0:0:
309,199,208343,2,0,P|334:170|352:136,1,77.0000023498536,8|0,0:0|0:0,0:0:0:0:
415,68,208652,2,0,P|461:60|513:69,1,77.0000023498536,2|2,0:0|0:0,0:0:0:0:
460,150,208961,1,8,0:0:0:0:
460,150,209116,1,2,0:0:0:0:
428,237,209271,6,0,B|443:287|443:287|397:282|357:291|327:320,1,154.000004699707,2|8,0:0|0:0,0:0:0:0:
263,348,209734,1,0,0:0:0:0:
182,303,209889,2,0,P|138:278|116:241,1,77.0000023498536,2|0,0:0|0:0,0:0:0:0:
39,217,210198,2,0,P|25:168|36:126,1,77.0000023498536,8|2,0:0|0:0,0:0:0:0:
95,77,210508,6,0,P|139:102|161:139,1,77.0000023498536,0|2,0:0|0:0,0:0:0:0:
238,163,210817,2,0,P|250:199|247:237,1,77.0000023498536,8|0,0:0|0:0,0:0:0:0:
228,70,211126,2,0,P|278:60|319:61,1,77.0000023498536,2|2,0:0|0:0,0:0:0:0:
398,160,211436,2,0,P|360:158|323:150,1,77.0000023498536,8|2,0:0|0:0,0:0:0:0:
463,98,211745,6,0,P|484:137|427:245,1,154.000004699707,2|8,0:0|0:0,0:0:0:0:
393,307,212209,1,0,0:0:0:0:
311,264,212363,2,0,P|273:266|236:274,1,77.0000023498536,2|2,0:0|0:0,0:0:0:0:
153,319,212673,2,0,P|115:317|78:309,1,77.0000023498536,8|2,0:0|0:0,0:0:0:0:
28,229,212982,5,0,0:0:0:0:
86,157,213137,1,2,0:0:0:0:
37,78,213291,2,0,P|92:63|138:79,1,77.0000023498536,8|0,0:0|0:0,0:0:0:0:
176,131,213600,2,0,P|231:146|277:130,1,77.0000023498536,2|8,0:0|0:0,0:0:0:0:
300,40,213910,2,0,P|262:37|227:52,1,77.0000023498536,12|8,0:0|0:0,0:0:0:0:
353,133,214219,6,0,B|361:177|361:177|348:289,1,154.000004699707,6|8,0:0|0:0,0:0:0:0:
418,345,214683,1,0,0:0:0:0:
466,266,214838,2,0,B|458:222|458:222|471:110,1,154.000004699707,0|8,0:0|0:0,0:0:0:0:
401,54,215301,1,0,0:0:0:0:
318,101,215456,6,0,P|258:131|178:62,1,154.000004699707,0|8,0:0|0:0,0:0:0:0:
111,39,215919,1,0,0:0:0:0:
55,113,216074,2,0,L|55:203,1,77.0000023498536,2|2,0:0|0:0,0:0:0:0:
141,257,216383,2,0,L|141:167,1,77.0000023498536,8|2,0:0|0:0,0:0:0:0:
219,129,216693,6,0,B|259:154|259:154|400:155,1,154.000004699707,2|8,0:0|0:0,0:0:0:0:
418,78,217157,1,0,0:0:0:0:
476,148,217311,2,0,L|471:240,1,77.0000023498536,2|2,0:0|0:0,0:0:0:0:
380,240,217620,2,0,L|385:332,1,77.0000023498536,8|2,0:0|0:0,0:0:0:0:
281,252,217930,6,0,P|276:176|288:143,1,77.0000023498536,0|2,0:0|0:0,0:0:0:0:
189,108,218239,2,0,P|194:184|182:217,1,77.0000023498536,8|0,0:0|0:0,0:0:0:0:
138,258,218548,1,2,0:0:0:0:
63,203,218703,2,0,L|21:218,2,38.5000011749268,8|8|8,0:0|0:0|0:0,0:0:0:0:
98,117,219012,1,0,0:0:0:0:
192,64,219167,6,0,L|367:67,1,154.000004699707,6|0,0:0|0:0,0:0:0:0:
425,114,219631,2,0,P|451:162|442:278,1,154.000004699707,8|0,0:0|0:0,0:0:0:0:
379,198,220095,2,0,P|307:197|282:215,1,77.0000023498536,8|0,0:0|0:0,0:0:0:0:
341,282,220404,6,0,L|339:111,1,154.000004699707,2|0,0:0|0:0,0:0:0:0:
308,40,220868,2,0,P|258:82|257:176,1,154.000004699707,2|0,0:0|0:0,0:0:0:0:
214,250,221332,2,0,P|192:212|141:189,1,77.0000023498536,8|0,0:0|0:0,0:0:0:0:
72,203,221641,6,0,P|35:149|78:48,1,154.000004699707,2|2,0:0|0:0,0:0:0:0:
122,130,222105,1,2,0:0:0:0:
178,56,222260,1,2,0:0:0:0:
251,111,222414,1,2,0:0:0:0:
342,53,222569,1,2,0:0:0:0:
396,127,222724,1,2,0:0:0:0:
331,192,222878,6,0,L|331:362,1,154.000004699707,6|8,0:0|0:0,0:0:0:0:
241,368,223342,2,0,P|164:364|110:291,1,154.000004699707,6|8,0:0|0:0,0:0:0:0:
120,217,223806,2,0,P|70:226|35:266,1,77.0000023498536,8|8,0:0|0:0,0:0:0:0:
202,286,224115,6,0,P|252:278|373:241,1,154.000004699707,6|8,0:0|0:0,0:0:0:0:
413,181,224579,1,0,0:0:0:0:
496,139,224734,2,0,P|503:84|502:53,1,77.0000023498536,2|2,0:0|0:0,0:0:0:0:
411,76,225043,2,0,P|404:21|405:-10,1,77.0000023498536,8|2,0:0|0:0,0:0:0:0:
330,56,225352,6,0,P|233:98|160:78,1,154.000004699707,0|8,0:0|0:0,0:0:0:0:
104,51,225816,1,0,0:0:0:0:
69,137,225971,2,0,P|76:191|73:222,1,77.0000023498536,2|2,0:0|0:0,0:0:0:0:
146,271,226280,1,8,0:0:0:0:
146,271,226435,1,2,0:0:0:0:
234,244,226590,6,0,P|292:197|289:123,1,154.000004699707,2|8,0:0|0:0,0:0:0:0:
213,73,227053,1,0,0:0:0:0:
220,165,227208,2,0,L|320:188,1,77.0000023498536,2|2,0:0|0:0,0:0:0:0:
377,224,227517,2,0,P|380:279|375:336,1,77.0000023498536,8|2,0:0|0:0,0:0:0:0:
460,244,227827,6,0,P|455:166|462:86,2,154.000004699707,0|8|2,0:0|0:0|0:0,0:0:0:0:
497,328,228600,1,2,0:0:0:0:
420,378,228754,2,0,L|327:376,1,77.0000023498536,8|2,0:0|0:0,0:0:0:0:
262,328,229064,6,0,P|257:272|267:224,1,77.0000023498536,2|0,0:0|0:0,0:0:0:0:
167,257,229373,2,0,P|172:201|162:153,1,77.0000023498536,8|0,0:0|0:0,0:0:0:0:
137,93,229682,2,0,P|83:147|95:243,1,154.000004699707,2|8,0:0|0:0,0:0:0:0:
117,306,230146,1,2,0:0:0:0:
212,255,230301,6,0,P|258:279|278:303,1,77.0000023498536,0|2,0:0|0:0,0:0:0:0:
370,302,230610,2,0,P|339:260|331:229,1,77.0000023498536,8|0,0:0|0:0,0:0:0:0:
424,226,230919,2,0,P|424:182|409:123,1,77.0000023498536,2|2,0:0|0:0,0:0:0:0:
352,83,231229,2,0,P|310:67|265:70,1,77.0000023498536,8|0,0:0|0:0,0:0:0:0:
213,133,231538,6,0,P|173:146|132:139,1,77.0000023498536,2|0,0:0|0:0,0:0:0:0:
48,161,231847,2,0,B|37:221|37:221|50:321,1,154.000004699707,8|2,0:0|0:0,0:0:0:0:
136,347,232311,1,2,0:0:0:0:
198,278,232466,1,8,0:0:0:0:
268,336,232620,6,0,B|313:362|371:356|371:356|409:308,1,154.000004699707,2|2,0:0|0:0,0:0:0:0:
466,254,233084,1,8,0:0:0:0:
433,167,233239,1,8,0:0:0:0:
339,172,233394,2,0,P|279:176|250:167,1,77.0000023498536,8|8,0:0|0:0,0:0:0:0:
171,187,233703,2,0,P|203:215|217:260,1,77.0000023498536,8|8,0:0|0:0,0:0:0:0:
179,331,234012,6,0,P|101:349|32:312,1,154.000004699707,6|8,0:0|0:0,0:0:0:0:
6,230,234476,1,0,0:0:0:0:
91,194,234631,2,0,P|105:104|51:43,1,154.000004699707,2|8,0:0|0:0,0:0:0:0:
19,132,235095,1,2,0:0:0:0:
91,194,235249,6,0,L|254:205,1,154.000004699707,0|8,0:0|0:0,0:0:0:0:
293,125,235713,1,8,0:0:0:0:
357,191,235868,2,0,P|361:256|361:284,1,77.0000023498536,8|2,0:0|0:0,0:0:0:0:
442,223,236177,2,0,P|438:158|438:130,1,77.0000023498536,8|0,0:0|0:0,0:0:0:0:
408,58,236486,6,0,P|362:20|263:31,1,154.000004699707,2|12,0:0|0:0,0:3:0:0:
233,109,236950,1,0,0:0:0:0:
150,66,237105,1,2,0:0:0:0:
74,120,237260,1,2,0:0:0:0:
145,178,237414,2,0,P|177:234|180:276,1,77.0000023498536,12|2,0:0|0:0,0:0:0:0:
258,332,237724,6,0,P|268:190|286:153,1,154.000004699707,2|12,0:0|0:0,0:0:0:0:
336,116,238187,1,2,0:0:0:0:
425,139,238342,2,0,L|437:85,2,38.5000011749268,2|0|2,0:0|0:0|0:0,0:0:0:0:
434,231,238651,1,8,0:0:0:0:
375,303,238806,1,2,0:0:0:0:
304,242,238961,6,0,P|242:231|126:251,1,154.000004699707,6|8,0:0|0:0,0:0:0:0:
83,303,239425,1,2,0:0:0:0:
83,303,239579,1,2,0:0:0:0:
8,247,239734,1,2,0:0:0:0:
74,183,239889,6,0,P|93:125|51:29,1,154.000004699707,12|2,0:0|0:0,0:0:0:0:
148,8,240352,1,0,0:0:0:0:
196,86,240507,2,0,P|250:86|281:94,1,77.0000023498536,8|2,0:0|0:0,0:0:0:0:
335,23,240816,2,0,P|369:54|407:61,1,77.0000023498536,2|2,0:0|0:0,0:0:0:0:
473,116,241126,2,0,P|496:157|496:214,1,77.0000023498536,8|2,0:0|0:0,0:0:0:0:
443,259,241435,6,0,P|376:246|300:298,1,154.000004699707,6|8,0:0|0:0,0:0:0:0:
213,284,241899,2,0,P|252:225|232:139,1,154.000004699707,8|2,0:0|0:0,0:0:0:0:
167,86,242363,1,2,0:0:0:0:
167,86,243909,5,6,0:0:0:0:
332,59,244218,1,8,0:0:0:0:
167,86,244528,1,2,0:0:0:0:
88,58,244682,1,2,0:0:0:0:
34,123,244837,1,8,0:0:0:0:
100,174,244992,6,0,L|97:334,1,140,2|2,0:0|0:0,0:0:0:0:
169,356,245456,2,0,P|236:345|255:351,1,70,8|0,0:0|0:0,0:0:0:0:
290,280,245765,2,0,P|247:268|197:241,1,70,2|2,0:0|0:0,0:0:0:0:
169,193,246074,2,0,P|229:175|261:153,1,70,8|2,0:0|0:0,0:0:0:0:
281,101,246383,6,0,P|341:47|415:51,1,140,2|8,0:0|0:0,0:0:0:0:
467,91,246847,1,0,0:0:0:0:
434,168,247002,2,0,P|448:218|443:253,1,70,2|2,0:0|0:0,0:0:0:0:
362,231,247311,1,8,0:0:0:0:
305,293,247466,6,0,P|231:263|148:285,1,140,2|2,0:0|0:0,0:0:0:0:
94,300,247930,2,0,P|101:345|93:377,1,70,8|0,0:0|0:0,0:0:0:0:
9,308,248239,2,0,P|2:263|10:231,1,70,2|2,0:0|0:0,0:0:0:0:
40,162,248548,1,8,0:0:0:0:
40,162,248703,1,0,0:0:0:0:
108,210,248858,6,0,L|269:213,1,140,2|8,0:0|0:0,0:0:0:0:
312,266,249322,1,0,0:0:0:0:
363,199,249476,2,0,L|366:111,1,70,2|2,0:0|0:0,0:0:0:0:
402,53,249785,1,8,0:0:0:0:
365,129,249940,6,0,P|321:155|215:142,1,140,2|2,0:0|0:0,0:0:0:0:
159,114,250404,2,0,L|150:41,1,70,8|0,0:0|0:0,0:0:0:0:
76,85,250713,2,0,L|88:179,1,70,2|2,0:0|0:0,0:0:0:0:
99,237,251023,2,0,P|130:262|176:270,1,70,8|2,0:0|0:0,0:0:0:0:
241,248,251332,6,0,B|255:174|255:174|230:100,1,140,2|8,0:0|0:0,0:0:0:0:
197,37,251796,1,0,0:0:0:0:
278,54,251950,2,0,P|356:67|374:57,1,70,2|2,0:0|0:0,0:0:0:0:
421,103,252260,2,0,P|390:152|383:189,1,70,8|2,0:0|0:0,0:0:0:0:
332,227,252569,6,0,P|328:299|380:352,1,140,6|8,0:0|0:0,0:0:0:0:
406,270,253033,2,0,L|236:284,1,140,2|2,0:0|0:0,0:0:0:0:
183,292,253497,2,0,L|167:215,1,70,8|8,0:0|0:0,0:0:0:0:
88,248,253806,6,0,L|96:97,1,140,6|8,0:0|0:0,0:0:0:0:
135,34,254270,1,0,0:0:0:0:
168,111,254425,2,0,P|225:128|253:120,1,70,2|2,0:0|0:0,0:0:0:0:
296,69,254734,1,8,0:0:0:0:
358,125,254889,6,0,L|352:298,1,140,2|2,0:0|0:0,0:0:0:0:
388,340,255352,2,0,P|355:345|304:332,1,70,8|0,0:0|0:0,0:0:0:0:
240,308,255662,2,0,P|207:275|158:246,1,70,2|2,0:0|0:0,0:0:0:0:
104,265,255971,2,0,P|78:199|80:176,1,70,8|2,0:0|0:0,0:0:0:0:
59,119,256280,6,0,P|52:57|119:12,1,140,2|8,0:0|0:0,0:0:0:0:
156,81,256744,1,0,0:0:0:0:
220,26,256899,2,0,L|311:25,1,70,2|2,0:0|0:0,0:0:0:0:
371,44,257208,1,8,0:0:0:0:
289,25,257363,6,0,L|296:197,1,140,2|2,0:0|0:0,0:0:0:0:
255,239,257827,1,8,0:0:0:0:
189,291,257981,2,0,P|121:324|51:279,1,140,0|2,0:0|0:0,0:0:0:0:
13,234,258445,1,8,0:0:0:0:
51,158,258600,1,0,0:0:0:0:
113,102,258754,6,0,L|281:101,1,140,6|8,0:0|0:0,0:0:0:0:
314,43,259218,1,2,0:0:0:0:
387,86,259373,2,0,P|401:144|391:181,1,70,2|2,0:0|0:0,0:0:0:0:
342,214,259682,1,8,0:0:0:0:
268,172,259837,6,0,P|246:263|261:321,1,140,2|2,0:0|0:0,0:0:0:0:
334,335,260301,2,0,L|412:352,1,70,8|2,0:0|0:0,0:0:0:0:
441,275,260610,2,0,L|363:258,1,70,0|2,0:0|0:0,0:0:0:0:
299,218,260919,2,0,P|294:158|302:128,1,70,8|2,0:0|0:0,0:0:0:0:
262,70,261229,5,12,0:0:0:0:
262,70,261383,1,2,0:0:0:0:
190,114,261538,1,8,0:0:0:0:
190,114,261693,1,2,0:0:0:0:
130,55,261847,1,8,0:0:0:0:
130,55,262002,1,2,0:0:0:0:
68,112,262157,2,0,L|63:195,1,70,8|2,0:0|0:0,0:0:0:0:
98,258,262466,5,2,0:0:0:0:
163,206,262620,1,8,0:0:0:0:
208,276,262775,2,0,P|231:307|240:353,1,70,2|2,0:0|0:0,0:0:0:0:
323,345,263084,2,0,P|316:302|316:260,1,70,8|2,0:0|0:0,0:0:0:0:
373,213,263394,1,2,0:0:0:0:
373,213,263548,1,8,0:0:0:0:
441,164,263703,6,0,L|443:24,2,140,12|8|8,0:0|0:0|0:0,0:0:0:0:
363,132,264476,1,2,0:0:0:0:
288,170,264631,2,0,L|200:175,1,70,8|2,0:0|0:0,0:0:0:0:
143,135,264940,6,0,P|139:89|148:53,1,70,12|2,0:0|0:0,0:0:0:0:
64,18,265249,2,0,P|68:64|59:100,1,70,12|2,0:0|0:0,0:0:0:0:
25,162,265559,1,12,0:0:0:0:
25,162,265713,1,2,0:0:0:0:
70,232,265868,1,12,0:0:0:0:
70,232,266023,1,2,0:0:0:0:
147,263,266177,6,0,P|197:240|291:266,1,140,8|8,0:0|0:0,0:0:0:0:
342,202,266641,1,2,0:0:0:0:
361,113,266796,2,0,P|350:78|352:42,1,70,8|2,0:0|0:0,0:0:0:0:
431,71,267105,1,8,0:0:0:0:
431,71,267260,1,2,0:0:0:0:
471,144,267414,6,0,P|487:184|483:220,1,70,12|2,0:0|0:0,0:0:0:0:
437,278,267724,2,0,P|400:247|359:238,1,70,12|2,0:0|0:0,0:0:0:0:
302,273,268033,1,12,0:0:0:0:
302,273,268187,1,2,0:0:0:0:
256,202,268342,1,12,0:0:0:0:
256,202,268497,1,2,0:0:0:0:
198,262,268651,6,0,L|111:263,1,70,8|2,0:0|0:0,0:0:0:0:
46,241,268961,1,8,0:0:0:0:
46,241,269115,1,2,0:0:0:0:
91,169,269270,2,0,P|98:126|81:97,1,70,8|2,0:0|0:0,0:0:0:0:
168,83,269579,2,0,P|190:97|237:102,1,70,8|2,0:0|0:0,0:0:0:0:
304,56,269889,5,12,0:0:0:0:
304,56,270043,1,2,0:0:0:0:
351,125,270198,1,12,0:0:0:0:
351,125,270352,1,2,0:0:0:0:
431,99,270507,2,0,L|434:179,1,70,12|2,0:0|0:0,0:0:0:0:
503,215,270816,2,0,L|506:295,1,70,12|2,0:0|0:0,0:0:0:0:
437,334,271126,6,0,P|311:323|290:324,1,140,8|8,0:0|0:0,0:0:0:0:
224,364,271590,1,2,0:0:0:0:
156,314,271744,2,0,P|113:307|83:313,1,70,8|2,0:0|0:0,0:0:0:0:
48,236,272053,2,0,P|116:233|148:224,1,70,8|2,0:0|0:0,0:0:0:0:
187,184,272363,6,0,L|190:98,1,70,12|2,0:0|0:0,0:0:0:0:
224,37,272672,1,2,0:0:0:0:
292,85,272827,2,0,L|295:171,1,70,12|2,0:0|0:0,0:0:0:0:
322,234,273136,1,2,0:0:0:0:
404,252,273291,2,0,P|435:259|488:255,1,70,12|8,0:0|0:0,0:0:0:0:
471,173,273600,6,0,L|479:82,1,70,8|2,0:0|0:0,0:0:0:0:
434,37,273909,1,8,0:0:0:0:
434,37,274064,1,2,0:0:0:0:
365,84,274218,2,0,P|308:91|272:85,1,70,8|2,0:0|0:0,0:0:0:0:
234,31,274528,2,0,P|177:24|141:30,1,70,8|2,0:0|0:0,0:0:0:0:
109,88,274837,5,12,0:0:0:0:
109,88,274992,1,2,0:0:0:0:
33,123,275146,1,12,0:0:0:0:
33,123,275300,1,2,0:0:0:0:
36,207,275456,2,0,P|39:270|64:297,1,70,12|2,0:0|0:0,0:0:0:0:
114,233,275765,2,0,L|210:233,1,70,12|2,0:0|0:0,0:0:0:0:
250,284,276074,6,0,P|262:206|220:157,1,140,8|8,0:0|0:0,0:0:0:0:
159,111,276538,1,2,0:0:0:0:
228,60,276693,2,0,P|270:73|321:65,1,70,8|2,0:0|0:0,0:0:0:0:
376,49,277002,2,0,P|435:52|470:76,1,70,8|2,0:0|0:0,0:0:0:0:
442,140,277311,5,12,0:0:0:0:
442,140,277466,1,2,0:0:0:0:
432,223,277620,1,12,0:0:0:0:
432,223,277775,1,2,0:0:0:0:
422,306,277930,2,0,L|332:307,1,70,12|2,0:0|0:0,0:0:0:0:
292,247,278239,2,0,L|202:248,1,70,12|2,0:0|0:0,0:0:0:0:
138,238,278548,6,0,P|121:297|144:382,1,140,8|8,0:0|0:0,0:0:0:0:
216,342,279012,1,2,0:0:0:0:
296,316,279167,2,0,L|378:314,1,70,8|2,0:0|0:0,0:0:0:0:
434,265,279476,1,8,0:0:0:0:
434,265,279631,1,2,0:0:0:0:
386,196,279785,6,0,L|386:114,1,70,12|2,0:0|0:0,0:0:0:0:
308,91,280095,2,0,L|308:173,1,70,12|2,0:0|0:0,0:0:0:0:
250,222,280404,1,12,0:0:0:0:
250,222,280559,1,10,0:0:0:0:
177,180,280713,1,8,0:0:0:0:
177,180,280868,1,2,0:0:0:0:
102,218,281023,6,0,P|51:223|5:144,1,140,6|8,0:0|0:0,0:0:0:0:
12,73,281486,1,8,0:0:0:0:
86,33,281641,2,0,L|169:34,1,70,8|8,0:0|0:0,0:0:0:0:
214,93,281950,2,0,L|297:92,1,70,8|8,0:0|0:0,0:0:0:0:
354,45,282260,5,6,0:0:0:0:
354,45,282414,1,0,0:0:0:0:
416,101,282569,1,8,0:0:0:0:
416,101,282724,1,8,0:0:0:0:
362,165,282878,2,0,P|366:210|359:244,1,70,8|2,0:0|0:0,0:0:0:0:
284,268,283187,2,0,P|280:223|287:189,1,70,2|2,0:0|0:0,0:0:0:0:
241,125,283497,5,4,0:0:0:0:
256,192,283574,12,0,298342,0:0:0:0:
