osu file format v14

[General]
AudioFilename: audio.mp3
AudioLeadIn: 0
PreviewTime: 81204
Countdown: 0
SampleSet: Soft
StackLeniency: 0.7
Mode: 0
LetterboxInBreaks: 0
WidescreenStoryboard: 1

[Editor]
Bookmarks: 12022,23658,32567,35295,38204,41113,44022,46931,57113,57840,58567,60386,70204,78931,81840,93476,104386,110931,132749
DistanceSpacing: 1.2
BeatDivisor: 4
GridSize: 16
TimelineZoom: 2.3

[Metadata]
Title:fake me (samfree's Science Adventure Dance Remix) (Cut Ver.)
TitleUnicode:fake me (samfree's Science Adventure Dance Remix) (Cut Ver.)
Artist:Ito Kanako
ArtistUnicode:いとうかなこ
Creator:perchance
Version:Extra
Source:ChäoS;HEAd NoAH
Tags:sstari
BeatmapID:4534424
BeatmapSetID:2152115

[Difficulty]
HPDrainRate:5
CircleSize:4
OverallDifficulty:8
ApproachRate:9
SliderMultiplier:1.6
SliderTickRate:1

[Events]
//Background and Video events
0,0,"fakemebg2x.jpg",0,0
//Break Periods
//Storyboard Layer 0 (Background)
//Storyboard Layer 1 (Fail)
//Storyboard Layer 2 (Pass)
//Storyboard Layer 3 (Foreground)
//Storyboard Layer 4 (Overlay)
//Storyboard Sound Samples

[TimingPoints]
386,363.636363636364,4,2,1,60,1,0
386,-125,4,2,1,60,0,0
12022,-111.111111111111,4,2,1,60,0,0
23113,-111.111111111111,4,2,1,5,0,0
23658,-90.9090909090909,4,2,1,60,0,0
35295,-111.111111111111,4,2,1,60,0,0
58567,-99.9999999999999,4,2,1,60,0,0
80386,-200,4,2,1,60,0,0
81840,-76.9230769230769,4,2,1,60,0,1
110931,-90.9090909090909,4,2,1,60,0,0

[Colours]
Combo1 : 85,69,175
Combo2 : 255,128,255
Combo3 : 218,163,101

[HitObjects]
88,190,12022,6,0,B|40:194|1:204,1,71.9999978027344
178,137,12386,2,0,B|188:88|196:67,1,71.9999978027344
239,291,12749,1,0,0:0:0:0:
239,291,12840,1,0,0:0:0:0:
239,291,12931,1,0,0:0:0:0:
148,353,13113,1,0,0:0:0:0:
241,182,13295,1,0,0:0:0:0:
413,331,13476,6,0,B|330:302|282:367,1,143.999995605469
435,209,14022,1,0,0:0:0:0:
435,209,14113,1,0,0:0:0:0:
435,209,14204,2,0,B|456:216|481:218,1,35.9999989013672
359,141,14386,1,0,0:0:0:0:
450,32,14567,2,0,B|458:76|434:103,1,71.9999978027344
216,117,14931,6,0,L|365:142,1,143.999995605469
168,204,15476,1,0,0:0:0:0:
97,51,15658,1,0,0:0:0:0:
97,51,15749,1,0,0:0:0:0:
97,51,15840,1,0,0:0:0:0:
30,140,16022,1,0,0:0:0:0:
204,34,16204,1,0,0:0:0:0:
168,204,16386,6,0,B|174:244|189:278,1,71.9999978027344
15,295,16749,2,0,B|44:282|84:276,1,71.9999978027344
205,357,17113,1,0,0:0:0:0:
205,357,17204,1,0,0:0:0:0:
205,357,17295,1,0,0:0:0:0:
341,264,17476,1,0,0:0:0:0:
209,140,17658,1,0,0:0:0:0:
332,291,17840,6,0,B|368:302|418:309,1,71.9999978027344
503,228,18204,2,0,P|474:235|454:242,1,35.9999989013672
368,158,18386,2,0,P|392:166|416:169,1,35.9999989013672
489,92,18567,1,0,0:0:0:0:
498,64,18658,1,0,0:0:0:0:
488,36,18749,1,0,0:0:0:0:
463,21,18840,1,0,0:0:0:0:
427,22,18931,2,0,B|390:41|354:44,1,71.9999978027344
243,4,19295,5,0,0:0:0:0:
264,32,19386,1,0,0:0:0:0:
270,66,19476,1,0,0:0:0:0:
264,101,19567,1,0,0:0:0:0:
243,130,19658,1,0,0:0:0:0:
210,145,19749,1,0,0:0:0:0:
174,148,19840,1,0,0:0:0:0:
139,136,19931,1,0,0:0:0:0:
114,109,20022,2,0,P|122:81|125:68,1,35.9999989013672
8,157,20204,1,0,0:0:0:0:
8,157,20295,1,0,0:0:0:0:
8,157,20386,1,0,0:0:0:0:
166,262,20567,1,0,0:0:0:0:
77,320,20749,5,0,0:0:0:0:
111,310,20840,1,0,0:0:0:0:
146,305,20931,1,0,0:0:0:0:
182,305,21022,1,0,0:0:0:0:
216,314,21113,1,0,0:0:0:0:
248,329,21204,1,0,0:0:0:0:
279,346,21295,1,0,0:0:0:0:
314,353,21386,1,0,0:0:0:0:
349,347,21476,2,0,P|378:340|401:336,1,35.9999989013672
465,290,21658,2,0,P|482:293|500:298,1,35.9999989013672
370,212,21840,1,0,0:0:0:0:
370,212,21931,1,0,0:0:0:0:
370,212,22022,1,0,0:0:0:0:
449,58,22204,5,0,0:0:0:0:
443,60,23658,6,0,B|366:68|332:129|350:192,1,176.000005371094
402,247,24204,1,0,0:0:0:0:
235,159,24386,1,0,0:0:0:0:
102,249,24567,2,0,P|152:262|192:279,1,88.000002685547
171,35,24931,6,0,B|142:118|58:103|58:103|28:78,1,176.000005371094
8,7,25476,1,0,0:0:0:0:
153,179,25658,1,0,0:0:0:0:
153,179,26022,5,0,0:0:0:0:
179,218,26113,1,0,0:0:0:0:
163,263,26204,1,0,0:0:0:0:
188,303,26295,1,0,0:0:0:0:
177,353,26386,1,0,0:0:0:0:
319,253,26567,6,0,B|363:268|417:272,1,88.000002685547
188,303,26931,2,0,B|109:231|23:280,1,176.000005371094
8,361,27476,1,0,0:0:0:0:
155,188,27658,1,0,0:0:0:0:
0,66,27840,6,0,B|14:112|84:149|156:101,1,176.000005371094
208,33,28386,1,0,0:0:0:0:
373,135,28567,1,0,0:0:0:0:
373,135,28658,1,0,0:0:0:0:
373,135,28749,2,0,B|322:140|269:154,1,88.000002685547
420,28,29113,1,0,0:0:0:0:
464,28,29204,1,0,0:0:0:0:
499,54,29295,1,0,0:0:0:0:
508,96,29386,1,0,0:0:0:0:
487,134,29476,6,0,B|468:178|466:222,1,88.000002685547
253,144,29840,2,0,B|229:115|229:115|217:35|296:10,1,176.000005371094
159,254,30386,2,0,B|246:249|299:347,1,176.000005371094
364,384,30840,1,0,0:0:0:0:
431,355,30931,6,0,B|481:336|506:298,1,88.000002685547
332,132,31295,2,0,L|148:161,1,176.000005371094
191,43,31840,2,0,B|240:36|281:55,1,88.000002685547
353,241,32204,2,0,B|309:247|263:230,1,88.000002685547
466,31,32567,6,0,B|537:96|472:191,1,176.000005371094
383,161,33113,1,0,0:0:0:0:
305,347,33295,1,0,0:0:0:0:
181,252,33476,2,0,B|232:245|274:228,1,88.000002685547
75,338,33840,5,0,0:0:0:0:
75,338,33931,1,0,0:0:0:0:
75,338,34022,2,0,B|45:296|44:251,1,88.000002685547
143,104,34386,1,0,0:0:0:0:
143,104,34749,5,0,0:0:0:0:
192,87,34840,1,0,0:0:0:0:
240,106,34931,1,0,0:0:0:0:
290,94,35022,1,0,0:0:0:0:
339,111,35113,1,0,0:0:0:0:
389,97,35204,1,0,0:0:0:0:
431,117,35295,5,0,0:0:0:0:
431,117,35658,2,0,B|443:151|466:184,1,71.9999978027344
285,1,36022,2,0,B|283:50|249:99|179:84,1,143.999995605469
290,211,36567,6,0,L|141:237,1,143.999995605469
82,327,37113,1,0,0:0:0:0:
41,191,37295,2,0,B|32:150|19:111,1,71.9999978027344
12,345,37658,2,0,B|53:336|92:323,2,71.9999978027344
131,252,38204,1,0,0:0:0:0:
247,346,38386,5,0,0:0:0:0:
182,137,38567,1,0,0:0:0:0:
131,252,38749,2,0,B|169:266|213:263,1,71.9999978027344
317,142,39113,5,0,0:0:0:0:
338,100,39204,1,0,0:0:0:0:
320,56,39295,1,0,0:0:0:0:
467,229,39476,2,0,B|429:215|385:218,1,71.9999978027344
247,346,39840,5,0,0:0:0:0:
182,137,40021,1,0,0:0:0:0:
131,252,40204,1,0,0:0:0:0:
302,160,40386,5,0,0:0:0:0:
171,20,40567,1,0,0:0:0:0:
131,252,40749,2,0,B|163:249|201:263,1,71.9999978027344
24,112,41113,6,0,B|4:73|4:38,1,71.9999978027344
187,126,41476,2,0,B|148:146|113:146,1,71.9999978027344
267,230,41840,2,0,B|348:220|400:286,1,143.999995605469
512,126,42386,6,0,L|356:150,1,143.999995605469
227,75,42931,1,0,0:0:0:0:
351,0,43113,2,0,B|359:39|351:78,1,71.9999978027344
204,161,43476,2,0,B|196:122|204:83,1,71.9999978027344
149,28,43840,1,0,0:0:0:0:
278,101,44022,1,0,0:0:0:0:
188,256,44204,5,0,0:0:0:0:
22,138,44386,1,0,0:0:0:0:
40,337,44567,2,0,B|55:300|58:260,1,71.9999978027344
235,121,44931,5,0,0:0:0:0:
273,147,45022,1,0,0:0:0:0:
278,193,45113,1,0,0:0:0:0:
105,71,45295,2,0,B|137:68|174:53,1,71.9999978027344
172,198,45658,5,0,0:0:0:0:
365,100,45840,1,0,0:0:0:0:
202,14,46022,1,0,0:0:0:0:
326,211,46204,5,0,0:0:0:0:
146,95,46386,1,0,0:0:0:0:
37,253,46567,2,0,B|82:245|114:234,1,71.9999978027344
321,298,46931,6,0,B|284:291|245:280,1,71.9999978027344
451,373,47295,2,0,B|401:318|424:237,1,143.999995605469
498,184,47840,1,0,0:0:0:0:
334,107,48022,1,0,0:0:0:0:
512,26,48204,6,0,B|488:90|419:86|419:86|397:69,1,143.999995605469
306,5,48749,1,0,0:0:0:0:
243,184,48931,2,0,B|287:193|326:210,1,71.9999978027344
234,83,49295,1,0,0:0:0:0:
116,176,49476,1,0,0:0:0:0:
224,292,49658,1,0,0:0:0:0:
87,159,49840,6,0,B|53:164|13:181,1,71.9999978027344
5,201,50113,1,0,0:0:0:0:
5,201,50204,1,0,0:0:0:0:
51,63,50386,1,0,0:0:0:0:
188,217,50567,6,0,B|193:183|210:143,1,71.9999978027344
230,135,50840,1,0,0:0:0:0:
230,135,50931,1,0,0:0:0:0:
99,256,51113,1,0,0:0:0:0:
316,318,51295,6,0,B|262:310|262:310|227:325|227:325|166:318,1,143.999995605469
287,219,51840,1,0,0:0:0:0:
405,292,52022,2,0,B|426:330|433:364,1,71.9999978027344
287,219,52386,1,0,0:0:0:0:
379,116,52567,1,0,0:0:0:0:
216,26,52749,6,0,B|226:63|247:98,1,71.9999978027344
220,246,53113,2,0,B|250:229|287:219,1,71.9999978027344
74,121,53476,2,0,B|42:135|42:135|8:192|55:236,1,143.999995605469
183,140,54022,1,0,0:0:0:0:
183,140,54386,5,0,0:0:0:0:
236,308,54567,1,0,0:0:0:0:
387,253,54749,2,0,B|346:252|308:245,1,71.9999978027344
355,354,55113,1,0,0:0:0:0:
197,287,55295,1,0,0:0:0:0:
283,165,55476,1,0,0:0:0:0:
362,57,55658,6,0,B|415:126|497:91,1,143.999995605469
283,165,56204,1,0,0:0:0:0:
283,165,56567,1,0,0:0:0:0:
461,81,56749,1,0,0:0:0:0:
300,0,56931,1,0,0:0:0:0:
413,192,57113,5,0,0:0:0:0:
387,217,57204,1,0,0:0:0:0:
352,226,57295,1,0,0:0:0:0:
316,223,57386,1,0,0:0:0:0:
283,208,57476,1,0,0:0:0:0:
249,195,57567,1,0,0:0:0:0:
213,192,57658,1,0,0:0:0:0:
177,199,57749,1,0,0:0:0:0:
150,222,57840,5,0,0:0:0:0:
172,235,57931,2,0,B|179:260|184:281,1,35.9999989013672
56,178,58113,5,0,0:0:0:0:
26,185,58204,1,0,0:0:0:0:
33,143,58295,1,0,0:0:0:0:
41,102,58386,1,0,0:0:0:0:
49,62,58476,1,0,0:0:0:0:
63,19,58567,5,0,0:0:0:0:
149,130,58749,1,0,0:0:0:0:
311,60,58931,2,0,B|257:48|228:36,1,80
296,206,59295,1,0,0:0:0:0:
454,156,59476,2,0,B|525:88|493:2,1,160
296,206,60022,6,0,B|343:223|382:231,1,80
258,323,60386,1,0,0:0:0:0:
471,267,60567,1,0,0:0:0:0:
387,377,60749,1,0,0:0:0:0:
279,180,60931,2,0,B|249:156|249:156|181:154|149:218,1,160
100,333,61476,6,0,B|56:361|26:358,1,80
244,294,61840,2,0,B|282:293|318:319,1,80
99,145,62204,2,0,B|54:82|85:20,1,120
112,12,62567,2,0,L|208:27,1,80
253,179,62931,1,0,0:0:0:0:
286,156,63022,1,0,0:0:0:0:
324,143,63113,1,0,0:0:0:0:
364,142,63204,1,0,0:0:0:0:
403,151,63295,2,0,B|410:198|413:236,1,80
480,77,63658,1,0,0:0:0:0:
332,242,63840,6,0,B|394:256|394:256|417:280|417:280|483:295,1,160
333,363,64386,1,0,0:0:0:0:
182,231,64567,1,0,0:0:0:0:
333,363,64749,1,0,0:0:0:0:
297,162,64931,1,0,0:0:0:0:
199,340,65113,1,0,0:0:0:0:
391,251,65295,2,0,B|439:173|402:96,1,160
341,51,65749,1,0,0:0:0:0:
267,89,65840,6,0,L|185:100,1,80
70,41,66204,1,0,0:0:0:0:
165,223,66386,1,0,0:0:0:0:
339,132,66567,1,0,0:0:0:0:
165,223,66749,2,0,B|155:269|157:312,1,80
222,373,67113,1,0,0:0:0:0:
47,262,67295,5,0,0:0:0:0:
255,176,67476,1,0,0:0:0:0:
47,262,67658,1,0,0:0:0:0:
132,109,67840,2,0,B|222:111|205:139|291:142,1,160
418,251,68386,2,0,B|399:208|403:164,1,80
332,346,68749,5,0,0:0:0:0:
511,241,68931,1,0,0:0:0:0:
380,142,69113,1,0,0:0:0:0:
488,372,69295,2,0,B|430:305|342:330,1,160
186,201,69840,2,0,B|173:245|188:286,1,80
285,169,70204,5,0,0:0:0:0:
180,309,70386,1,0,0:0:0:0:
11,205,70567,1,0,0:0:0:0:
180,309,70749,1,0,0:0:0:0:
126,114,70931,1,0,0:0:0:0:
28,315,71113,2,0,B|70:316|117:337,1,80
265,228,71476,1,0,0:0:0:0:
126,114,71658,5,0,0:0:0:0:
230,50,71840,1,0,0:0:0:0:
148,230,72022,1,0,0:0:0:0:
148,230,72113,1,0,0:0:0:0:
148,230,72204,1,0,0:0:0:0:
4,72,72386,1,0,0:0:0:0:
148,230,72567,2,0,L|313:261,1,160
411,324,73113,6,0,B|376:349|338:352,1,80
439,194,73476,2,0,B|474:219|512:222,1,80
275,134,73840,2,0,B|254:69|295:14,1,120
329,9,74204,1,0,0:0:0:0:
327,220,74386,6,0,B|264:156|173:165,1,160
20,63,74931,1,0,0:0:0:0:
51,87,75022,1,0,0:0:0:0:
71,121,75113,1,0,0:0:0:0:
77,160,75204,1,0,0:0:0:0:
68,199,75295,1,0,0:0:0:0:
51,235,75386,1,0,0:0:0:0:
47,274,75476,1,0,0:0:0:0:
61,311,75567,1,0,0:0:0:0:
92,335,75658,2,0,B|137:327|171:346,1,80
275,242,76022,5,0,0:0:0:0:
356,324,76204,1,0,0:0:0:0:
173,249,76386,1,0,0:0:0:0:
356,324,76567,2,0,B|396:302|441:306,1,80
316,128,76931,1,0,0:0:0:0:
316,128,77295,5,0,0:0:0:0:
316,128,77386,1,0,0:0:0:0:
316,128,77477,1,0,0:0:0:0:
481,197,77658,1,0,0:0:0:0:
397,42,77840,1,0,0:0:0:0:
370,224,78022,2,0,B|356:267|358:309,1,80
142,160,78386,2,0,B|156:117|154:75,1,80
256,32,78749,1,0,0:0:0:0:
220,217,78931,5,0,0:0:0:0:
31,157,79113,1,0,0:0:0:0:
97,262,79295,1,0,0:0:0:0:
111,63,79476,1,0,0:0:0:0:
285,165,79658,5,0,0:0:0:0:
305,170,79749,2,0,P|313:193|317:214,1,40
255,364,79931,5,0,0:0:0:0:
210,383,80022,1,0,0:0:0:0:
162,379,80113,1,0,0:0:0:0:
120,354,80204,1,0,0:0:0:0:
98,311,80295,1,0,0:0:0:0:
99,263,80386,6,0,B|127:259|127:259|149:272|149:272|173:267|173:267|196:274|196:274|208:273|208:273|225:276,1,120
414,355,81295,6,0,B|443:350|458:346,2,40
502,133,81840,6,0,B|469:230|365:207|365:207|343:178,1,207.999990478516
352,290,82386,1,0,0:0:0:0:
138,171,82567,1,0,0:0:0:0:
265,38,82749,1,0,0:0:0:0:
265,38,82840,1,0,0:0:0:0:
265,38,82931,1,0,0:0:0:0:
138,171,83113,6,0,B|72:231|103:318,1,155.999992858887
86,348,83476,1,0,0:0:0:0:
259,227,83658,1,0,0:0:0:0:
378,341,83840,2,0,B|319:343|265:360,1,103.999995239258
340,91,84204,5,0,0:0:0:0:
306,123,84295,1,0,0:0:0:0:
262,141,84386,1,0,0:0:0:0:
215,145,84476,1,0,0:0:0:0:
170,131,84567,1,0,0:0:0:0:
135,99,84658,1,0,0:0:0:0:
113,57,84749,6,0,B|168:48|224:25,1,103.999995239258
68,192,85113,2,0,B|38:214|38:214|10:291|74:332,1,155.999992858887
67,361,85476,1,0,0:0:0:0:
264,286,85658,2,0,B|242:335|232:388,1,103.999995239258
398,140,86022,6,0,B|373:179|395:250|463:277|513:245,1,207.999990478516
396,347,86567,1,0,0:0:0:0:
141,230,86749,2,0,B|245:224|234:265|356:261,1,207.999990478516
465,72,87295,1,0,0:0:0:0:
418,65,87386,1,0,0:0:0:0:
372,59,87476,1,0,0:0:0:0:
325,53,87567,1,0,0:0:0:0:
278,46,87658,5,0,0:0:0:0:
322,169,87840,1,0,0:0:0:0:
390,326,88022,1,0,0:0:0:0:
428,99,88204,1,0,0:0:0:0:
248,206,88386,1,0,0:0:0:0:
248,206,88476,1,0,0:0:0:0:
248,206,88567,2,0,B|235:266|270:315,1,103.999995239258
73,57,88931,5,0,0:0:0:0:
118,44,89022,1,0,0:0:0:0:
161,64,89113,1,0,0:0:0:0:
134,198,89295,1,0,0:0:0:0:
93,384,89476,1,0,0:0:0:0:
44,135,89658,1,0,0:0:0:0:
238,225,89840,1,0,0:0:0:0:
0,283,90022,2,0,B|48:264|104:266,1,103.999995239258
180,347,90386,1,0,0:0:0:0:
329,240,90567,5,0,0:0:0:0:
198,111,90749,1,0,0:0:0:0:
54,210,90931,1,0,0:0:0:0:
167,18,91113,2,0,B|177:55|177:55|215:113|293:111|334:74,1,207.999990478516
466,6,91658,2,0,B|495:57|485:114,1,103.999995239258
510,273,92022,5,0,0:0:0:0:
334,162,92204,1,0,0:0:0:0:
287,334,92386,1,0,0:0:0:0:
457,136,92567,1,0,0:0:0:0:
457,136,92931,5,0,0:0:0:0:
407,120,93022,1,0,0:0:0:0:
360,143,93113,1,0,0:0:0:0:
309,130,93204,1,0,0:0:0:0:
261,151,93295,1,0,0:0:0:0:
211,135,93386,1,0,0:0:0:0:
164,158,93476,6,0,B|110:159|53:169,1,103.999995239258
307,7,93840,2,0,B|382:52|358:151,1,155.999992858887
332,170,94204,1,0,0:0:0:0:
239,301,94386,1,0,0:0:0:0:
462,205,94567,1,0,0:0:0:0:
239,301,94749,6,0,B|189:269|137:284,1,103.999995239258
349,364,95113,1,0,0:0:0:0:
260,164,95295,1,0,0:0:0:0:
69,245,95476,2,0,B|49:295|46:353,1,103.999995239258
0,52,95840,5,0,0:0:0:0:
44,38,95931,1,0,0:0:0:0:
90,38,96022,1,0,0:0:0:0:
134,52,96113,1,0,0:0:0:0:
169,83,96204,1,0,0:0:0:0:
191,124,96295,1,0,0:0:0:0:
195,170,96386,6,0,B|133:177|133:177|105:206|105:206|35:217,1,155.999992858887
177,256,96749,2,0,B|240:245|280:298|272:351,1,155.999992858887
243,375,97113,1,0,0:0:0:0:
483,286,97295,2,0,B|426:278|366:253,1,103.999995239258
274,59,97658,6,0,B|356:52|339:87|427:80,1,155.999992858887
452,51,98022,1,0,0:0:0:0:
289,219,98204,1,0,0:0:0:0:
170,102,98386,2,0,B|177:36|179:34|191:-17,1,103.999995239258
0,182,98749,1,0,0:0:0:0:
46,176,98840,1,0,0:0:0:0:
91,185,98931,1,0,0:0:0:0:
130,210,99022,1,0,0:0:0:0:
155,249,99113,1,0,0:0:0:0:
166,294,99204,1,0,0:0:0:0:
159,340,99295,5,0,0:0:0:0:
306,303,99476,1,0,0:0:0:0:
455,262,99658,1,0,0:0:0:0:
274,382,99840,1,0,0:0:0:0:
308,160,100022,1,0,0:0:0:0:
308,160,100113,1,0,0:0:0:0:
308,160,100204,2,0,B|355:186|413:178,1,103.999995239258
156,38,100567,5,0,0:0:0:0:
121,70,100658,1,0,0:0:0:0:
117,116,100749,1,0,0:0:0:0:
278,78,100931,1,0,0:0:0:0:
444,33,101113,1,0,0:0:0:0:
233,187,101295,1,0,0:0:0:0:
431,268,101476,1,0,0:0:0:0:
278,78,101658,2,0,B|254:131|266:187,1,103.999995239258
326,280,102022,1,0,0:0:0:0:
142,203,102204,5,0,0:0:0:0:
31,328,102386,1,0,0:0:0:0:
142,203,102567,1,0,0:0:0:0:
23,66,102749,6,0,B|12:98|12:98|27:162|101:184|159:148,1,207.999990478516
326,280,103295,2,0,B|346:225|340:174,1,103.999995239258
232,22,103658,5,0,0:0:0:0:
242,56,103749,1,0,0:0:0:0:
268,80,103840,1,0,0:0:0:0:
301,94,103931,1,0,0:0:0:0:
337,97,104022,1,0,0:0:0:0:
372,89,104113,1,0,0:0:0:0:
402,69,104204,1,0,0:0:0:0:
420,37,104295,1,0,0:0:0:0:
385,6,104386,5,0,0:0:0:0:
353,47,104476,1,0,0:0:0:0:
348,98,104567,1,0,0:0:0:0:
362,147,104658,1,0,0:0:0:0:
395,186,104749,1,0,0:0:0:0:
511,105,104931,1,0,0:0:0:0:
435,325,105113,1,0,0:0:0:0:
194,191,105295,5,0,0:0:0:0:
96,85,105476,1,0,0:0:0:0:
168,310,105658,2,0,B|100:324|60:272,1,103.999995239258
285,161,106022,5,0,0:0:0:0:
370,368,106204,1,0,0:0:0:0:
512,210,106386,2,0,B|455:201|417:246,1,103.999995239258
96,85,106749,6,0,B|188:111|236:38,1,155.999992858887
305,78,107113,2,0,B|396:52|442:122,1,155.999992858887
484,123,107476,1,0,0:0:0:0:
334,349,107658,2,0,L|97:301,1,207.999990478516
12,374,108204,2,0,B|-8:321|0:269,1,103.999995239258
179,135,108567,5,0,0:0:0:0:
216,170,108658,1,0,0:0:0:0:
210,221,108749,1,0,0:0:0:0:
63,136,108931,1,0,0:0:0:0:
240,32,109113,1,0,0:0:0:0:
63,136,109295,6,0,B|52:187|52:245,1,103.999995239258
180,342,109658,1,0,0:0:0:0:
332,237,109840,1,0,0:0:0:0:
180,342,110022,1,0,0:0:0:0:
241,131,110204,1,0,0:0:0:0:
455,193,110386,5,0,0:0:0:0:
483,229,110476,1,0,0:0:0:0:
492,274,110567,1,0,0:0:0:0:
482,319,110658,1,0,0:0:0:0:
452,355,110749,1,0,0:0:0:0:
408,372,110840,1,0,0:0:0:0:
360,370,110931,6,0,B|343:309|281:273|208:306,1,176.000005371094
167,371,111476,1,0,0:0:0:0:
280,166,111658,1,0,0:0:0:0:
109,189,111840,2,0,B|153:210|201:214,1,88.000002685547
338,12,112204,6,0,B|309:95|225:80|225:80|195:55,1,176.000005371094
346,202,112749,1,0,0:0:0:0:
482,125,112931,1,0,0:0:0:0:
482,125,113295,5,0,0:0:0:0:
500,164,113386,1,0,0:0:0:0:
480,203,113476,1,0,0:0:0:0:
487,246,113567,1,0,0:0:0:0:
464,283,113658,1,0,0:0:0:0:
259,219,113840,6,0,B|318:213|357:197,1,88.000002685547
168,30,114204,2,0,B|209:119|128:187,1,176.000005371094
209,314,114749,1,0,0:0:0:0:
283,126,114931,1,0,0:0:0:0:
0,223,115113,6,0,B|14:269|84:306|156:258,1,176.000005371094
285,350,115659,1,0,0:0:0:0:
420,242,115840,1,0,0:0:0:0:
420,242,115931,1,0,0:0:0:0:
420,242,116022,2,0,B|368:250|331:271,1,88.000002685547
211,75,116386,1,0,0:0:0:0:
238,47,116476,1,0,0:0:0:0:
274,32,116567,1,0,0:0:0:0:
313,29,116658,1,0,0:0:0:0:
348,47,116749,6,0,B|346:94|368:135,1,88.000002685547
128,184,117113,2,0,B|104:155|104:155|92:75|171:50,1,176.000005371094
26,273,117658,2,0,L|207:292,1,176.000005371094
257,344,118113,1,0,0:0:0:0:
322,299,118204,6,0,B|302:250|301:206,1,88.000002685547
493,105,118567,2,0,B|516:158|506:194|471:234|421:225,1,176.000005371094
253,53,119113,2,0,B|302:46|343:65,1,88.000002685547
218,193,119477,2,0,B|174:199|128:182,1,88.000002685547
400,338,119840,6,0,B|307:275|242:346,1,176.000005371094
336,206,120386,1,0,0:0:0:0:
186,106,120567,1,0,0:0:0:0:
336,206,120749,2,0,B|386:217|432:216,1,88.000002685547
120,176,121113,5,0,0:0:0:0:
120,176,121204,1,0,0:0:0:0:
120,176,121295,2,0,B|90:134|89:89,1,88.000002685547
18,296,121659,1,0,0:0:0:0:
18,296,122022,5,0,0:0:0:0:
65,279,122113,1,0,0:0:0:0:
111,297,122204,1,0,0:0:0:0:
159,286,122295,1,0,0:0:0:0:
206,302,122386,1,0,0:0:0:0:
254,289,122477,1,0,0:0:0:0:
294,308,122568,1,0,0:0:0:0:
294,308,122931,6,0,B|371:361|432:297|432:297|418:274,1,176.000005371094
512,147,123476,2,0,B|465:162|414:151,1,88.000002685547
227,26,123840,2,0,B|276:-3|350:23|362:98,1,176.000005371094
302,215,124386,1,0,0:0:0:0:
460,62,124567,1,0,0:0:0:0:
460,62,124931,5,0,0:0:0:0:
417,49,125022,1,0,0:0:0:0:
379,71,125113,1,0,0:0:0:0:
336,60,125204,1,0,0:0:0:0:
299,84,125295,1,0,0:0:0:0:
172,199,125476,6,0,B|210:223|258:225,1,88.000002685547
28,292,125840,2,0,B|110:215|41:125,1,176.000005371094
171,317,126386,1,0,0:0:0:0:
346,217,126567,1,0,0:0:0:0:
290,372,126749,6,0,B|268:319|276:273,1,88.000002685547
195,188,127113,1,0,0:0:0:0:
434,252,127295,2,0,B|394:263|347:244,1,88.000002685547
299,182,127567,1,0,0:0:0:0:
352,123,127658,2,0,B|362:74|366:24,1,88.000002685547
92,63,128022,1,0,0:0:0:0:
48,83,128113,1,0,0:0:0:0:
26,126,128204,1,0,0:0:0:0:
24,174,128295,1,0,0:0:0:0:
44,217,128386,6,0,B|97:222|142:249,1,88.000002685547
290,20,128749,2,0,B|294:53|294:53|259:126|158:100,1,176.000005371094
255,227,129295,1,0,0:0:0:0:
442,104,129476,1,0,0:0:0:0:
399,364,129658,5,0,0:0:0:0:
423,343,129749,1,0,0:0:0:0:
439,324,129840,2,0,B|448:274|437:226,1,88.000002685547
162,280,130204,2,0,B|210:358|290:333|290:333|312:305,1,176.000005371094
218,155,130749,1,0,0:0:0:0:
45,231,130931,1,0,0:0:0:0:
218,155,131113,1,0,0:0:0:0:
44,80,131295,5,0,0:0:0:0:
80,65,131386,1,0,0:0:0:0:
119,66,131477,1,0,0:0:0:0:
156,80,131568,1,0,0:0:0:0:
190,100,131659,1,0,0:0:0:0:
227,114,131750,1,0,0:0:0:0:
266,118,131841,1,0,0:0:0:0:
304,112,131931,1,0,0:0:0:0:
340,98,132022,1,0,0:0:0:0:
321,133,132113,1,0,0:0:0:0:
315,172,132204,1,0,0:0:0:0:
325,210,132295,1,0,0:0:0:0:
348,242,132386,5,0,0:0:0:0:
302,268,132476,5,0,0:0:0:0:
255,243,132567,5,0,0:0:0:0:
209,270,132658,5,0,0:0:0:0:
161,247,132749,5,0,0:0:0:0:
377,346,132931,2,0,B|418:330|478:328,1,88.000002685547
227,114,133295,5,0,0:0:0:0:
256,192,133386,12,0,134204,0:0:0:0:
