osu file format v14

[General]
AudioFilename: audio.mp3
AudioLeadIn: 0
PreviewTime: 81204
Countdown: 1
SampleSet: None
StackLeniency: 0.7
Mode: 0
LetterboxInBreaks: 1
WidescreenStoryboard: 0

[Editor]
DistanceSpacing: 1
BeatDivisor: 4
GridSize: 8
TimelineZoom: 1.6

[Metadata]
Title:fake me (samfree's Science Adventure Dance Remix) (Cut Ver.)
TitleUnicode:fake me (samfree's Science Adventure Dance Remix) (Cut Ver.)
Artist:Ito Kanako
ArtistUnicode:いとうかなこ
Creator:perchance
Version:-Ady's Insane Chaos
Source:ChäoS;HEAd NoAH
Tags:sstari
BeatmapID:4537647
BeatmapSetID:2152115

[Difficulty]
HPDrainRate:6
CircleSize:4
OverallDifficulty:8
ApproachRate:8
SliderMultiplier:2
SliderTickRate:1

[Events]
//Background and Video events
0,0,"fakemebg2x.jpg",0,0
//Break Periods
2,111131,121817
//Storyboard Layer 0 (Background)
//Storyboard Layer 1 (Fail)
//Storyboard Layer 2 (Pass)
//Storyboard Layer 3 (Foreground)
//Storyboard Layer 4 (Overlay)
//Storyboard Sound Samples

[TimingPoints]
386,363.636363636364,4,2,1,60,1,0
80204,-200,4,2,1,60,0,0
81840,-83.3333333333333,4,2,1,60,0,1
93113,-83.3333333333333,4,2,1,60,0,0
93476,-83.3333333333333,4,2,1,60,0,1
104749,-83.3333333333333,4,2,1,60,0,0
105113,-83.3333333333333,4,2,1,60,0,1
110931,-100,4,2,1,60,0,0

[Colours]
Combo1 : 85,69,175
Combo2 : 255,128,255
Combo3 : 218,163,101

[HitObjects]
344,336,23658,5,0,0:0:0:0:
344,336,24022,2,0,B|288:392|224:392|168:336,1,200,0|0,0:0|0:0,0:1:0:0:
88,280,24567,2,0,B|136:264|176:232,1,100,0|0,0:0|0:0,0:0:0:0:
424,280,24931,2,0,B|376:264|336:232,1,100,0|0,0:0|0:0,0:0:0:0:
152,152,25295,1,0,0:0:0:0:
256,104,25477,1,0,0:0:0:0:
360,152,25658,1,0,0:0:0:0:
168,48,26022,5,0,0:0:0:0:
207,18,26112,1,0,0:0:0:0:
255,6,26203,1,0,0:0:0:0:
303,18,26294,1,0,0:0:0:0:
343,47,26385,1,0,0:0:0:0:
440,104,26567,5,0,0:0:0:0:
72,104,26931,1,0,0:0:0:0:
207,365,27295,5,0,0:0:0:0:
207,365,27476,2,0,L|168:272,1,100,0|0,0:0|0:0,0:0:0:0:
304,365,27840,2,0,L|344:272,1,100,0|0,0:0|0:0,0:0:0:0:
328,176,28204,1,0,0:0:0:0:
256,112,28386,1,0,0:0:0:0:
184,176,28567,1,0,0:0:0:0:
184,176,28658,1,0,0:0:0:0:
184,176,28749,2,0,B|128:176|96:136,1,100,0|0,0:0|0:0,0:0:0:0:
328,176,29113,2,0,B|384:176|416:136,1,100,0|0,0:0|0:0,0:0:0:0:
415,136,29476,1,0,0:0:0:0:
328,344,29840,6,0,B|379:367|430:364|469:332|492:280,1,200
392,272,30386,2,0,B|320:256|320:256|296:248,1,100,0|0,0:0|0:0,0:0:0:0:
120,272,30749,1,0,0:0:0:0:
120,272,30840,1,0,0:0:0:0:
120,272,30931,2,0,B|192:256|192:256|216:248,1,100,0|0,0:0|0:0,0:0:0:0:
184,344,31295,2,0,B|132:367|81:364|42:332|19:280,1,200,0|0,0:0|0:0,0:0:0:0:
120,112,31840,6,0,B|192:128|192:128|216:136,1,100
392,112,32204,2,0,B|320:128|320:128|296:136,1,100,0|0,0:0|0:0,0:0:0:0:
256,16,32567,5,0,0:0:0:0:
24,192,32931,1,0,0:0:0:0:
256,368,33295,2,0,L|256:264,1,100,0|0,0:0|0:0,0:0:0:0:
256,368,33658,1,0,0:0:0:0:
488,192,34022,6,0,B|464:240|416:264,1,100
488,192,34386,2,0,B|464:144|416:120,1,100,0|0,0:0|0:0,0:0:0:0:
328,72,34749,1,0,0:0:0:0:
320,120,34840,1,0,0:0:0:0:
288,160,34931,1,0,0:0:0:0:
256,200,35022,1,0,0:0:0:0:
224,160,35113,1,0,0:0:0:0:
192,120,35204,1,0,0:0:0:0:
184,72,35295,6,0,B|128:64|128:64|88:88|80:160|24:152,1,200
328,72,36022,2,0,B|384:64|384:64|424:88|432:160|488:152,1,200,0|0,0:0|0:0,0:0:0:0:
487,152,36567,1,0,0:0:0:0:
408,312,36931,5,0,0:0:0:0:
336,256,37113,1,0,0:0:0:0:
304,168,37295,1,0,0:0:0:0:
256,376,37658,2,0,L|256:264,1,100
256,276,38022,1,0,0:0:0:0:
208,168,38204,5,0,0:0:0:0:
176,256,38386,1,0,0:0:0:0:
104,312,38567,2,0,L|72:216,1,100,0|0,0:0|0:0,0:0:0:0:
408,312,39113,1,0,0:0:0:0:
408,312,39204,1,0,0:0:0:0:
408,312,39295,2,0,L|440:216,1,100,0|0,0:0|0:0,0:0:0:0:
488,32,39840,5,0,0:0:0:0:
400,72,40022,2,0,B|368:128|368:128|336:152,1,100
112,72,40386,2,0,B|144:128|144:128|176:152,1,100
256,184,40749,2,0,L|256:72,1,100
256,84,41113,5,0,0:0:0:0:
24,32,41476,1,0,0:0:0:0:
256,300,41840,1,0,0:0:0:0:
88,240,42204,5,0,0:0:0:0:
88,240,42386,2,0,B|104:344|216:384,1,200
424,240,42931,1,0,0:0:0:0:
424,240,43113,2,0,B|408:344|296:384,1,200
184,240,43658,5,0,0:0:0:0:
256,300,43840,1,0,0:0:0:0:
328,240,44022,1,0,0:0:0:0:
206,144,44204,2,0,L|306:144,1,100
306,144,44567,1,0,0:0:0:0:
448,32,44931,5,0,0:0:0:0:
448,32,45022,1,0,0:0:0:0:
448,32,45113,1,0,0:0:0:0:
392,104,45295,1,0,0:0:0:0:
64,32,45658,1,0,0:0:0:0:
64,32,45749,1,0,0:0:0:0:
64,32,45840,1,0,0:0:0:0:
120,104,46022,1,0,0:0:0:0:
33,265,46204,6,0,L|56:168,1,100
119,280,46567,2,0,L|97:378,1,100
97,378,46931,1,0,0:0:0:0:
256,296,47295,5,0,0:0:0:0:
256,88,47658,1,0,0:0:0:0:
392,280,48022,2,0,L|415:378,1,100
320,224,48567,5,0,0:0:0:0:
256,160,48749,1,0,0:0:0:0:
192,224,48931,1,0,0:0:0:0:
478,265,49295,2,0,L|456:168,1,100
448,32,49658,1,0,0:0:0:0:
392,104,49840,6,0,B|320:80|320:80|296:0,2,150
392,280,50567,2,0,B|320:304|320:304|298:374,2,150
392,280,51295,1,0,0:0:0:0:
256,192,51386,12,0,52386,0:0:0:0:
472,144,52567,5,0,0:0:0:0:
392,104,52749,2,0,B|340:127|308:166|305:217|328:268,1,200
120,104,53476,2,0,B|172:127|204:166|207:217|184:268,1,200
183,268,54022,1,0,0:0:0:0:
40,144,54386,5,0,0:0:0:0:
64,56,54567,1,0,0:0:0:0:
144,16,54749,1,0,0:0:0:0:
472,144,55113,1,0,0:0:0:0:
448,56,55294,1,0,0:0:0:0:
368,16,55476,1,0,0:0:0:0:
344,104,55658,6,0,B|256:188|168:104,1,200
168,280,56204,2,0,B|256:196|344:280,1,200
344,280,56749,1,0,0:0:0:0:
256,356,56931,1,0,0:0:0:0:
167,280,57113,5,0,0:0:0:0:
120,264,57204,1,0,0:0:0:0:
88,240,57295,1,0,0:0:0:0:
48,224,57386,1,0,0:0:0:0:
16,192,57476,1,0,0:0:0:0:
48,160,57567,1,0,0:0:0:0:
88,144,57658,1,0,0:0:0:0:
120,120,57749,1,0,0:0:0:0:
167,104,57840,2,0,L|200:64,3,50
313,65,58204,2,0,L|345:104,3,50
256,128,58567,5,0,0:0:0:0:
344,184,58749,1,0,0:0:0:0:
376,280,58931,1,0,0:0:0:0:
136,280,59113,1,0,0:0:0:0:
168,184,59295,1,0,0:0:0:0:
256,256,59476,2,0,L|256:368,1,100
256,356,59840,1,0,0:0:0:0:
376,280,60022,6,0,L|473:302,1,100
473,81,60386,2,0,L|376:104,1,100
376,104,60749,1,0,0:0:0:0:
256,28,60931,1,0,0:0:0:0:
40,304,61295,5,0,0:0:0:0:
38,302,61476,2,0,L|136:280,1,100
136,104,61840,2,0,L|38:81,1,100
224,144,62204,2,0,B|200:96|256:72|312:96|288:144,2,150
288,240,62931,2,0,B|312:288|256:312|200:288|224:240,2,150
448,136,63840,5,0,0:0:0:0:
448,136,64204,1,0,0:0:0:0:
384,208,64385,1,0,0:0:0:0:
360,304,64567,1,0,0:0:0:0:
256,368,64749,2,0,L|256:256,1,100
256,168,65113,1,0,0:0:0:0:
256,64,65295,1,0,0:0:0:0:
152,304,65658,5,0,0:0:0:0:
152,304,65749,1,0,0:0:0:0:
152,304,65840,1,0,0:0:0:0:
128,208,66022,1,0,0:0:0:0:
64,136,66204,2,0,L|152:88,1,100
360,88,66567,2,0,L|448:136,1,100
447,135,67113,5,0,0:0:0:0:
424,232,67294,1,0,0:0:0:0:
472,320,67476,1,0,0:0:0:0:
356,360,67658,5,0,0:0:0:0:
356,360,67840,2,0,L|156:360,1,200
156,360,68386,1,0,0:0:0:0:
88,152,68749,5,0,0:0:0:0:
40,64,68931,1,0,0:0:0:0:
156,24,69113,1,0,0:0:0:0:
156,24,69295,2,0,L|356:24,2,200
152,214,70204,6,0,L|184:120,1,100
328,120,70567,2,0,L|359:214,1,100
256,256,70931,1,0,0:0:0:0:
256,152,71113,1,0,0:0:0:0:
72,344,71476,5,0,0:0:0:0:
72,344,71567,1,0,0:0:0:0:
72,344,71658,2,0,L|184:344,1,100
440,344,72022,2,0,L|328:344,1,100
172,344,72386,1,0,0:0:0:0:
340,344,72567,1,0,0:0:0:0:
72,168,72931,5,0,0:0:0:0:
144,96,73113,1,0,0:0:0:0:
200,16,73295,1,0,0:0:0:0:
312,16,73476,1,0,0:0:0:0:
368,96,73658,1,0,0:0:0:0:
440,168,73840,6,0,B|416:240|344:280,2,150
167,279,74567,2,0,B|96:240|72:168,2,150
256,232,75295,2,0,L|256:72,2,150
256,368,76022,5,0,0:0:0:0:
256,368,76204,1,0,0:0:0:0:
344,312,76386,1,0,0:0:0:0:
440,280,76567,2,0,B|524:192|440:104,2,200
440,280,77386,1,0,0:0:0:0:
440,280,77476,1,0,0:0:0:0:
344,312,77658,5,0,0:0:0:0:
256,368,77840,1,0,0:0:0:0:
72,280,78021,2,0,B|-12:192|72:104,2,200
168,312,78931,1,0,0:0:0:0:
344,72,79295,5,0,0:0:0:0:
344,72,79476,2,0,B|376:160|296:256,1,200
168,72,80022,1,0,0:0:0:0:
168,72,80204,2,0,B|136:160|216:256,1,200
256,368,81295,5,0,0:0:0:0:
256,360,81476,1,0,0:0:0:0:
256,352,81658,1,0,0:0:0:0:
256,344,81840,6,0,B|320:344|320:344|368:312,1,119.999996337891,0|0,0:0|0:0,0:0:0:0:
472,248,82204,2,0,B|496:208|496:176|472:136,1,119.999996337891,0|0,0:0|0:0,0:0:0:0:
366,71,82567,1,0,0:0:0:0:
256,16,82749,1,0,0:0:0:0:
145,71,82931,1,0,0:0:0:0:
39,247,83113,6,0,B|86:311|164:275|195:194|126:152,1,239.999992675781
256,104,83658,1,0,0:0:0:0:
386,152,83840,2,0,B|316:194|347:275|425:311|472:247,1,239.999992675781
471,247,84386,1,0,0:0:0:0:
424,360,84567,5,0,0:0:0:0:
424,360,84658,1,0,0:0:0:0:
424,360,84749,2,0,B|379:373|348:365|315:332,1,119.999996337891,0|0,0:0|0:0,0:0:0:0:
88,360,85113,2,0,B|132:373|163:365|196:332,1,119.999996337891,0|0,0:0|0:0,0:0:0:0:
256,224,85476,5,0,0:0:0:0:
376,264,85658,2,0,B|444:212|411:88|326:78,1,239.999992675781
256,8,86204,1,0,0:0:0:0:
176,168,86386,1,0,0:0:0:0:
336,168,86567,1,0,0:0:0:0:
185,78,86749,2,0,B|100:88|67:212|136:264,1,239.999992675781
135,263,87295,1,0,0:0:0:0:
48,344,87476,5,0,0:0:0:0:
48,344,87567,1,0,0:0:0:0:
48,344,87658,1,0,0:0:0:0:
168,376,87840,1,0,0:0:0:0:
256,296,88022,1,0,0:0:0:0:
344,376,88204,1,0,0:0:0:0:
464,344,88386,1,0,0:0:0:0:
377,263,88567,1,0,0:0:0:0:
48,40,88931,5,0,0:0:0:0:
48,40,89022,1,0,0:0:0:0:
48,40,89113,1,0,0:0:0:0:
168,8,89295,1,0,0:0:0:0:
256,88,89477,1,0,0:0:0:0:
344,8,89659,1,0,0:0:0:0:
464,40,89841,1,0,0:0:0:0:
377,121,90022,1,0,0:0:0:0:
256,384,90386,5,0,0:0:0:0:
256,384,90476,1,0,0:0:0:0:
256,384,90567,2,0,L|256:256,1,119.999996337891
256,144,90931,1,0,0:0:0:0:
344,288,91113,2,0,B|320:352|256:392|192:352|168:288,1,239.999992675781
168,288,91658,1,0,0:0:0:0:
56,248,91840,5,0,0:0:0:0:
56,248,91931,1,0,0:0:0:0:
56,248,92022,1,0,0:0:0:0:
160,192,92204,1,0,0:0:0:0:
56,136,92386,1,0,0:0:0:0:
168,96,92567,6,0,B|192:32|256:-8|320:32|344:96,1,239.999992675781
456,136,93113,1,0,0:0:0:0:
408,168,93204,1,0,0:0:0:0:
352,192,93295,1,0,0:0:0:0:
408,216,93386,1,0,0:0:0:0:
456,248,93476,6,0,L|400:360,1,119.999996337891,0|0,0:0|0:0,0:0:0:0:
109,355,93840,2,0,L|56:248,1,119.999996337891
152,168,94204,1,0,0:0:0:0:
256,104,94386,1,0,0:0:0:0:
360,168,94567,1,0,0:0:0:0:
480,128,94749,6,0,B|456:87|454:58|454:58|438:4|384:20|384:20|358:33|312:34,1,239.999992675781
256,200,95295,1,0,0:0:0:0:
199,34,95476,2,0,B|153:33|127:20|127:20|73:4|57:58|57:58|55:87|32:128,1,239.999992675781
32,127,96022,1,0,0:0:0:0:
96,224,96204,5,0,0:0:0:0:
96,224,96295,1,0,0:0:0:0:
96,224,96386,2,0,B|160:248|160:248|192:288,1,119.999996337891
416,224,96749,2,0,B|352:248|352:248|320:288,1,119.999996337891,0|0,0:0|0:0,0:0:0:0:
136,368,97113,5,0,0:0:0:0:
136,368,97295,2,0,L|376:368,1,239.999992675781
456,280,97840,1,0,0:0:0:0:
376,192,98022,1,0,0:0:0:0:
456,104,98204,1,0,0:0:0:0:
376,16,98386,2,0,L|136:16,1,239.999992675781
56,104,98931,5,0,0:0:0:0:
136,192,99113,1,0,0:0:0:0:
136,192,99204,1,0,0:0:0:0:
136,192,99295,1,0,0:0:0:0:
56,280,99476,1,0,0:0:0:0:
168,328,99658,1,0,0:0:0:0:
256,248,99840,1,0,0:0:0:0:
344,328,100022,1,0,0:0:0:0:
456,280,100204,1,0,0:0:0:0:
344,56,100567,5,0,0:0:0:0:
344,56,100658,1,0,0:0:0:0:
344,56,100749,1,0,0:0:0:0:
376,192,100930,1,0,0:0:0:0:
456,104,101112,1,0,0:0:0:0:
256,136,101294,1,0,0:0:0:0:
168,56,101476,1,0,0:0:0:0:
56,104,101658,1,0,0:0:0:0:
316,312,102022,5,0,0:0:0:0:
316,312,102113,1,0,0:0:0:0:
316,312,102204,2,0,L|196:312,1,119.999996337891
256,216,102567,1,0,0:0:0:0:
144,256,102749,6,0,B|105:186|23:212|-17:289|47:339,1,239.999992675781
46,339,103295,1,0,0:0:0:0:
368,256,103476,2,0,B|406:186|488:212|529:289|464:339,2,239.999992675781
312,152,104386,5,0,0:0:0:0:
312,152,104476,1,0,0:0:0:0:
312,152,104567,1,0,0:0:0:0:
256,48,104749,1,0,0:0:0:0:
200,152,104931,1,0,0:0:0:0:
200,152,105021,1,0,0:0:0:0:
200,152,105113,2,0,L|128:56,1,119.999996337891
128,56,105476,1,0,0:0:0:0:
64,160,105658,6,0,B|8:225|69:338|155:329,1,239.999992675781
256,264,106204,1,0,0:0:0:0:
356,329,106386,2,0,B|442:338|503:225|448:160,1,239.999992675781
448,160,106931,1,0,0:0:0:0:
512,56,107113,2,0,B|424:112|296:0,1,239.999992675781
0,56,107658,2,0,B|88:112|216:0,1,239.999992675781
256,112,108204,1,0,0:0:0:0:
32,352,108567,5,0,0:0:0:0:
32,352,108658,1,0,0:0:0:0:
32,352,108749,1,0,0:0:0:0:
144,304,108931,1,0,0:0:0:0:
256,256,109113,1,0,0:0:0:0:
368,304,109295,1,0,0:0:0:0:
480,352,109476,1,0,0:0:0:0:
256,192,109567,12,0,110931,0:0:0:0:
344,48,122567,5,0,0:0:0:0:
344,48,122931,2,0,B|288:-8|224:-8|168:48,1,200,0|0,0:0|0:0,0:1:0:0:
184,144,123476,2,0,L|72:112,1,100
328,144,123840,2,0,L|440:112,1,100
424,116,124204,1,0,0:0:0:0:
424,268,124386,1,0,0:0:0:0:
496,192,124567,1,0,0:0:0:0:
168,336,124931,5,0,0:0:0:0:
207,365,125021,1,0,0:0:0:0:
255,377,125112,1,0,0:0:0:0:
303,365,125203,1,0,0:0:0:0:
343,336,125294,1,0,0:0:0:0:
424,268,125476,5,0,0:0:0:0:
88,268,125840,1,0,0:0:0:0:
207,19,126204,1,0,0:0:0:0:
207,19,126385,2,0,L|168:112,1,100,0|0,0:0|0:0,0:0:0:0:
304,19,126749,2,0,L|344:112,1,100,0|0,0:0|0:0,0:0:0:0:
360,208,127113,5,0,0:0:0:0:
304,296,127295,1,0,0:0:0:0:
208,296,127476,1,0,0:0:0:0:
208,296,127567,1,0,0:0:0:0:
208,296,127658,1,0,0:0:0:0:
152,208,127840,1,0,0:0:0:0:
256,144,128022,6,0,L|256:176,8,25
492,104,128749,6,0,B|469:52|430:20|379:17|328:40,1,200
321,182,129295,2,0,B|360:144|392:112,1,100
190,182,129658,1,0,0:0:0:0:
190,182,129749,1,0,0:0:0:0:
190,182,129840,2,0,B|152:144|120:112,1,100
184,40,130204,2,0,B|132:17|81:20|42:52|19:104,1,200,0|0,0:0|0:0,0:0:0:0:
19,103,130749,5,0,0:0:0:0:
255,377,131113,1,0,0:0:0:0:
316,296,131295,5,0,0:0:0:0:
309,296,131386,1,0,0:0:0:0:
301,296,131477,1,0,0:0:0:0:
294,296,131568,1,0,0:0:0:0:
286,296,131659,1,0,0:0:0:0:
279,296,131750,1,0,0:0:0:0:
271,296,131840,1,0,0:0:0:0:
264,296,131931,1,0,0:0:0:0:
256,296,132022,1,0,0:0:0:0:
248,296,132113,1,0,0:0:0:0:
241,296,132204,1,0,0:0:0:0:
233,296,132294,1,0,0:0:0:0:
226,296,132385,1,0,0:0:0:0:
218,296,132476,1,0,0:0:0:0:
211,296,132567,1,0,0:0:0:0:
203,296,132658,1,0,0:0:0:0:
196,296,132749,1,0,0:0:0:0:
256,168,132931,5,0,0:0:0:0:
493,281,133295,1,0,0:0:0:0:
