osu file format v14

[General]
AudioFilename: audio.mp3
AudioLeadIn: 0
PreviewTime: 57623
Countdown: 0
SampleSet: Normal
StackLeniency: 0.7
Mode: 2
LetterboxInBreaks: 0
WidescreenStoryboard: 0

[Editor]
Bookmarks: 838,9980,19123,28266,37409,46552,57980,67123,76266
DistanceSpacing: 1.3
BeatDivisor: 4
GridSize: 16
TimelineZoom: 2.2

[Metadata]
Title:Uncontrollable
TitleUnicode:Uncontrollable
Artist:Ito Kanako
ArtistUnicode:いとうかなこ
Creator:Yumeno Himiko
Version:Rain
Source:CHAOS;CHILD
Tags:ChäoS;Child opening op tv size 5pb. 科学アドベンチャーシリーズ SCIENCE ADVENTURE SERIES 妄想科学ADV Mousou Kagaku ADV 伊藤香奈子 examination exam
BeatmapID:1183490
BeatmapSetID:559539

[Difficulty]
HPDrainRate:6
CircleSize:4
OverallDifficulty:9
ApproachRate:9
SliderMultiplier:1.59
SliderTickRate:2

[Events]
//Background and Video events
0,0,"BG.jpg",0,0
//Break Periods
//Storyboard Layer 0 (Background)
//Storyboard Layer 1 (Fail)
//Storyboard Layer 2 (Pass)
//Storyboard Layer 3 (Foreground)
//Storyboard Sound Samples

[TimingPoints]
838,285.714285714286,4,2,1,50,1,0
9980,-100,4,1,1,40,0,0
18695,-100,4,1,1,5,0,0
19123,-100,4,2,1,40,0,0
25980,-100,4,2,1,50,0,0
28266,-100,4,1,1,40,0,0
37409,-100,4,1,1,30,0,0
46552,-100,4,1,1,40,0,0
57552,-100,4,1,1,10,0,0
57980,-100,4,1,1,50,0,1
65980,-100,4,1,1,30,0,1
66123,-100,4,1,1,35,0,1
66266,-100,4,1,1,40,0,1
66409,-100,4,1,1,45,0,1
66552,-100,4,1,1,50,0,1
75695,-100,4,1,1,30,0,1
75838,-100,4,1,1,35,0,1
75980,-100,4,1,1,40,0,1
76123,-100,4,1,1,45,0,1
76266,-100,4,1,1,40,0,0

[Colours]
Combo1 : 217,187,163
Combo2 : 244,205,164
Combo3 : 190,112,136
Combo4 : 174,177,229
Combo5 : 238,229,186
Combo6 : 86,80,104

[HitObjects]
96,96,838,6,0,L|176:96,1,79.5,4|0,0:0|0:0,0:0:0:0:
416,96,1266,2,0,L|336:96,1,79.5,0|0,0:0|0:0,0:0:0:0:
112,160,1695,2,0,L|80:272,1,79.5,0|0,0:0|0:0,0:0:0:0:
320,240,1980,5,4,0:0:0:0:
394,220,2122,1,0,0:0:0:0:
424,149,2265,1,0,0:0:0:0:
387,82,2408,1,0,0:0:0:0:
256,80,2552,1,0,0:0:0:0:
176,96,2694,1,0,0:0:0:0:
128,160,2837,1,0,0:0:0:0:
128,240,2980,1,0,0:0:0:0:
336,80,3123,5,4,0:0:0:0:
224,80,3266,2,0,L|128:80,2,79.5,0|0|0,0:0|0:0|0:0,0:0:0:0:
336,80,3695,2,0,L|432:80,1,79.5,0|0,0:0|0:0,0:0:0:0:
464,192,3980,1,0,0:0:0:0:
400,304,4123,1,0,0:0:0:0:
128,272,4266,6,0,P|80:224|80:128,1,159,4|0,0:0|0:0,0:0:0:0:
144,64,4695,1,0,0:0:0:0:
384,272,4838,2,0,P|432:224|432:128,1,159,4|0,0:0|0:0,0:0:0:0:
368,64,5266,1,0,0:0:0:0:
144,64,5409,6,0,L|112:176,1,79.5,4|0,0:0|0:0,0:0:0:0:
240,144,5695,1,2,0:0:0:0:
272,224,5838,1,0,0:0:0:0:
160,256,5980,1,2,0:0:0:0:
48,288,6123,1,0,0:0:0:0:
144,320,6266,1,2,0:0:0:0:
48,288,6409,1,0,0:0:0:0:
368,64,6552,6,0,L|400:176,1,79.5,4|0,0:0|0:0,0:0:0:0:
272,144,6838,1,2,0:0:0:0:
240,224,6981,1,0,0:0:0:0:
352,256,7123,1,2,0:0:0:0:
464,288,7266,1,0,0:0:0:0:
368,320,7409,1,2,0:0:0:0:
464,288,7552,1,0,0:0:0:0:
128,128,7695,6,0,P|80:176|144:256,1,159,4|0,0:0|0:0,0:0:0:0:
384,128,8123,2,0,P|432:176|368:256,1,159,4|0,0:0|0:0,0:0:0:0:
128,128,8552,1,4,0:0:0:0:
336,128,8838,6,0,L|144:128,1,159,4|0,0:0|0:0,0:0:0:0:
416,128,9266,1,4,0:0:0:0:
96,128,9695,1,8,0:0:0:0:
304,128,9980,6,0,L|336:208,1,79.5,4|0,0:0|0:0,0:0:0:0:
208,224,10266,1,8,0:0:0:0:
96,240,10409,1,0,0:0:0:0:
208,288,10552,2,0,L|304:288,1,79.5,0|0,0:0|0:0,0:0:0:0:
160,144,10838,2,0,L|64:144,1,79.5,8|0,0:0|0:0,0:0:0:0:
416,144,11123,6,0,L|512:144,1,79.5,0|0,0:0|0:0,0:0:0:0:
368,144,11409,2,0,L|352:240,1,79.5,8|0,0:0|0:0,0:0:0:0:
480,224,11695,1,0,0:0:0:0:
352,224,11838,2,0,L|256:224,2,79.5,0|8|0,0:0|0:0|0:0,0:0:0:0:
128,224,12266,6,0,L|96:128,1,79.5,0|0,0:0|0:0,0:0:0:0:
224,144,12552,2,0,L|256:48,1,79.5,8|0,0:0|0:0,0:0:0:0:
128,64,12838,1,0,0:0:0:0:
256,64,12980,2,0,L|352:64,1,79.5,0|8,0:0|0:0,0:0:0:0:
208,144,13266,1,0,0:0:0:0:
448,144,13409,6,0,L|464:224,1,79.5,0|0,0:0|0:0,0:0:0:0:
368,240,13695,1,8,0:0:0:0:
272,256,13838,1,0,0:0:0:0:
368,240,13980,1,0,0:0:0:0:
208,208,14123,1,2,0:0:0:0:
80,176,14266,1,10,0:0:0:0:
208,208,14409,1,10,0:0:0:0:
448,256,14552,6,0,L|480:352,1,79.5,0|0,0:0|0:0,0:0:0:0:
352,320,14838,2,0,L|240:304,1,79.5,8|0,0:0|0:0,0:0:0:0:
400,224,15123,1,0,0:0:0:0:
272,208,15266,1,0,0:0:0:0:
144,192,15409,1,8,0:0:0:0:
272,208,15552,1,0,0:0:0:0:
48,192,15695,6,0,L|144:192,1,79.5,0|0,0:0|0:0,0:0:0:0:
256,192,15980,2,0,L|336:192,1,79.5,8|0,0:0|0:0,0:0:0:0:
208,112,16266,1,0,0:0:0:0:
336,112,16409,2,0,L|416:112,2,79.5,0|8|0,0:0|0:0|0:0,0:0:0:0:
80,112,16980,5,2,0:0:0:0:
320,112,17123,1,2,0:0:0:0:
320,192,17409,5,2,0:0:0:0:
96,192,17552,1,2,0:0:0:0:
96,272,17838,5,2,0:0:0:0:
272,272,17980,1,2,0:0:0:0:
272,352,18266,5,2,0:0:0:0:
160,352,18409,1,2,0:0:0:0:
160,192,18695,1,0,0:0:0:0:
272,192,18838,2,0,L|352:192,1,79.5
128,128,19123,6,0,L|32:128,1,79.5,4|4,3:0|3:0,0:0:0:0:
96,224,19409,1,0,0:0:0:0:
192,224,19552,1,0,0:0:0:0:
352,128,19695,2,0,P|432:144|416:224,1,159,0|4,0:0|3:0,0:0:0:0:
208,288,20123,6,0,P|128:288|80:224,1,159,4|0,3:0|0:0,0:0:0:0:
176,144,20552,1,0,0:0:0:0:
304,112,20695,1,0,0:0:0:0:
144,96,20838,2,0,P|96:128|144:208,1,159,0|0,0:0|0:0,0:0:0:0:
400,96,21409,6,0,L|480:96,1,79.5,4|4,3:0|3:0,0:0:0:0:
352,176,21695,1,0,0:0:0:0:
144,176,21838,2,0,L|304:176,1,159,0|0,0:0|0:0,0:0:0:0:
208,96,22266,1,4,3:0:0:0:
368,96,22409,6,0,P|432:128|416:208,1,159,4|0,3:0|0:0,0:0:0:0:
288,224,22838,1,0,0:0:0:0:
416,256,22980,1,0,0:0:0:0:
288,288,23123,2,0,P|208:304|128:272,1,159,0|0,0:0|0:0,0:0:0:0:
352,128,23695,6,0,L|272:128,2,79.5,4|4|0,3:0|3:0|0:0,0:0:0:0:
192,128,24123,2,0,P|128:160|176:224,1,159,0|0,0:0|0:0,0:0:0:0:
256,240,24552,1,4,3:0:0:0:
464,240,24695,6,0,P|512:272|464:352,1,159,4|0,3:0|0:0,0:0:0:0:
352,336,25123,1,0,0:0:0:0:
224,320,25266,1,0,0:0:0:0:
336,256,25409,2,0,L|416:208,1,79.5,0|0,0:0|0:0,0:0:0:0:
240,208,25695,2,0,L|160:144,1,79.5,0|0,0:0|0:0,0:0:0:0:
416,112,25980,6,0,P|464:144|416:240,1,159,4|0,3:0|0:0,0:0:0:0:
320,224,26409,2,0,L|144:208,1,159,0|0,0:0|0:0,0:0:0:0:
224,176,26766,1,0,0:0:0:0:
288,144,26838,2,0,L|384:128,1,79.5,0|0,0:0|0:0,0:0:0:0:
96,112,27123,6,0,P|48:144|96:240,1,159,4|0,0:0|0:0,0:0:0:0:
288,240,27552,2,0,L|464:224,1,159,4|0,0:0|0:0,0:0:0:0:
224,144,27981,2,0,L|128:128,1,79.5,4|0,0:0|0:0,0:0:0:0:
416,128,28266,6,0,L|448:208,1,79.5,0|0,0:0|0:0,0:0:0:0:
320,224,28552,1,8,0:0:0:0:
432,272,28695,1,0,0:0:0:0:
304,288,28838,2,0,L|112:288,1,159,0|8,0:0|0:0,0:0:0:0:
272,192,29266,6,0,L|448:192,1,159,0|0,0:0|0:0,0:0:0:0:
368,80,29695,1,8,0:0:0:0:
240,80,29838,1,0,0:0:0:0:
80,80,29980,1,0,0:0:0:0:
272,144,30266,2,0,L|304:240,1,79.5,8|0,0:0|0:0,0:0:0:0:
64,272,30552,5,0,0:0:0:0:
192,272,30695,2,0,L|240:176,1,79.5,0|8,0:0|0:0,0:0:0:0:
96,192,30980,2,0,P|48:160|96:64,1,159,0|0,0:0|0:0,0:0:0:0:
192,64,31409,1,8,0:0:0:0:
352,64,31552,6,0,P|416:80|448:160,1,159,0|0,0:0|0:0,0:0:0:0:
320,176,31980,2,0,L|416:176,1,79.5,8|0,0:0|0:0,0:0:0:0:
272,112,32266,1,0,0:0:0:0:
352,224,32552,1,8,0:0:0:0:
224,224,32695,1,0,0:0:0:0:
432,224,32838,5,0,0:0:0:0:
512,224,32980,2,0,L|432:224,1,79.5,0|8,0:0|0:0,0:0:0:0:
288,144,33266,2,0,P|224:192|288:224,1,159,0|0,0:0|0:0,0:0:0:0:
384,272,33695,1,8,0:0:0:0:
240,272,33838,6,0,P|160:272|48:256,1,159,0|0,0:0|0:0,0:0:0:0:
192,192,34266,1,8,0:0:0:0:
304,128,34409,1,0,0:0:0:0:
144,112,34552,2,0,L|48:96,1,79.5
368,112,34838,2,0,L|464:96,1,79.5,8|0,0:0|0:0,0:0:0:0:
128,192,35123,6,0,L|48:192,2,79.5,0|0|8,0:0|0:0|0:0,0:0:0:0:
384,192,35552,2,0,L|464:192,2,79.5,0|0|0,0:0|0:0|0:0,0:0:0:0:
128,192,35980,2,0,L|64:240,1,79.5,8|0,0:0|0:0,0:0:0:0:
112,288,36195,1,0,0:0:0:0:
384,288,36266,6,0,L|416:192,1,79.5,2|2,0:0|0:0,0:0:0:0:
144,128,36838,1,2,0:0:0:0:
368,128,36980,2,0,P|448:160|464:240,1,159,2|0,0:0|0:0,0:0:0:0:
224,224,37409,5,12,0:0:0:0:
128,224,37552,2,0,P|64:256|96:352,1,159,8|0,0:0|0:0,0:0:0:0:
288,336,37980,1,8,0:0:0:0:
64,208,38266,2,0,L|160:208,1,79.5,8|8,0:0|0:0,0:0:0:0:
448,208,38838,1,0,0:0:0:0:
192,208,39123,2,0,L|368:208,1,159,2|0,0:0|0:0,0:0:0:0:
256,112,39552,1,0,0:0:0:0:
464,112,39695,5,8,0:0:0:0:
464,208,39838,2,0,P|448:256|336:320,1,159,8|0,0:0|0:0,0:0:0:0:
144,320,40266,1,8,0:0:0:0:
368,192,40552,2,0,L|464:192,1,79.5,8|8,0:0|0:0,0:0:0:0:
64,192,41123,1,0,0:0:0:0:
320,192,41409,1,8,0:0:0:0:
400,192,41552,2,0,P|432:224|384:320,1,159,8|0,0:0|0:0,0:0:0:0:
112,304,41980,5,8,0:0:0:0:
32,272,42123,2,0,P|16:208|96:144,1,159,8|0,0:0|0:0,0:0:0:0:
288,144,42552,1,8,0:0:0:0:
75,146,42838,2,0,L|107:226,1,79.5,8|8,0:0|0:0,0:0:0:0:
448,208,43409,2,0,L|272:208,1,159,0|8,0:0|0:0,0:0:0:0:
480,112,43980,1,0,0:0:0:0:
352,112,44123,1,0,0:0:0:0:
128,112,44266,5,8,0:0:0:0:
208,144,44409,2,0,P|240:176|160:256,1,159,8|0,0:0|0:0,0:0:0:0:
400,240,44838,1,8,0:0:0:0:
144,240,45123,1,8,0:0:0:0:
64,208,45266,6,0,P|32:160|96:80,1,159,8|0,0:0|0:0,0:0:0:0:
208,80,45695,1,0,0:0:0:0:
336,80,45838,1,0,0:0:0:0:
112,192,45980,1,8,0:0:0:0:
368,192,46123,2,0,P|448:224|416:288,1,159,8|0,0:0|0:0,0:0:0:0:
192,288,46552,6,0,L|80:288,1,79.5,0|0,0:0|0:0,0:0:0:0:
208,208,46838,1,8,0:0:0:0:
336,208,46980,1,0,0:0:0:0:
176,112,47123,1,0,0:0:0:0:
64,176,47266,1,0,0:0:0:0:
112,288,47409,1,8,0:0:0:0:
240,320,47552,1,0,0:0:0:0:
464,272,47695,6,0,L|368:272,1,79.5,0|0,0:0|0:0,0:0:0:0:
256,272,47980,1,8,0:0:0:0:
368,208,48123,1,0,0:0:0:0:
240,112,48266,1,0,0:0:0:0:
160,192,48409,1,0,0:0:0:0:
272,192,48552,1,8,0:0:0:0:
400,192,48695,1,0,0:0:0:0:
160,288,48838,6,0,L|80:288,3,79.5,0|0|8|0,0:0|0:0|0:0|0:0,0:0:0:0:
288,192,49409,2,0,L|192:192,3,79.5,0|0|8|0,0:0|0:0|0:0|0:0,0:0:0:0:
352,112,49980,5,0,0:0:0:0:
464,176,50123,1,0,0:0:0:0:
384,272,50266,1,8,0:0:0:0:
256,272,50409,1,0,0:0:0:0:
384,272,50552,2,0,L|480:272,1,79.5,0|0,0:0|0:0,0:0:0:0:
336,224,50838,1,8,0:0:0:0:
240,144,50980,1,0,0:0:0:0:
464,144,51123,5,0,0:0:0:0:
336,144,51266,1,0,0:0:0:0:
448,192,51409,2,0,L|464:304,1,79.5,8|0,0:0|0:0,0:0:0:0:
304,192,51695,2,0,L|288:288,1,79.5,0|0,0:0|0:0,0:0:0:0:
432,320,51980,1,8,0:0:0:0:
320,320,52123,1,0,0:0:0:0:
112,320,52266,6,0,L|16:320,1,79.5,0|0,0:0|0:0,0:0:0:0:
192,272,52552,2,0,L|208:192,1,79.5,8|0,0:0|0:0,0:0:0:0:
64,192,52838,2,0,L|48:96,1,79.5,0|0,0:0|0:0,0:0:0:0:
192,96,53123,1,8,0:0:0:0:
96,96,53266,1,0,0:0:0:0:
400,96,53409,6,0,L|432:192,1,79.5,0|0,0:0|0:0,0:0:0:0:
304,176,53695,1,8,0:0:0:0:
416,240,53838,1,0,0:0:0:0:
112,96,53980,2,0,L|80:192,1,79.5,0|0,0:0|0:0,0:0:0:0:
208,176,54266,1,8,0:0:0:0:
96,240,54409,1,0,0:0:0:0:
368,272,54552,6,0,L|480:288,1,79.5,8|0,0:0|0:0,0:0:0:0:
144,272,54838,2,0,L|32:288,1,79.5,8|0,0:0|0:0,0:0:0:0:
384,192,55123,2,0,L|480:192,1,79.5,8|0,0:0|0:0,0:0:0:0:
128,192,55409,2,0,L|32:192,1,79.5,8|0,0:0|0:0,0:0:0:0:
368,96,55695,5,2,0:0:0:0:
480,144,55838,1,2,0:0:0:0:
400,240,55980,1,2,0:0:0:0:
144,96,56123,2,0,P|80:128|112:224,1,159,6|6,0:0|0:0,0:0:0:0:
368,96,56695,2,0,P|432:128|400:224,1,159,6|2,0:0|0:0,0:0:0:0:
86,205,57123,5,2,0:0:0:0:
384,288,57623,2,0,P|416:224|352:128,1,159,0|0,2:0|2:0,2:0:0:0:
128,128,57980,5,4,0:0:0:0:
32,192,58123,2,0,L|0:288,1,79.5,0|8,0:0|0:0,0:0:0:0:
256,192,58409,1,0,0:0:0:0:
352,256,58552,2,0,L|384:336,1,79.5,0|0,0:0|0:0,0:0:0:0:
224,336,58838,2,0,L|144:336,1,79.5,8|0,0:0|0:0,0:0:0:0:
384,192,59123,6,0,L|496:192,1,79.5
368,112,59409,1,8,0:0:0:0:
464,112,59552,1,0,0:0:0:0:
192,112,59695,1,0,0:0:0:0:
80,160,59838,1,0,0:0:0:0:
112,272,59980,1,8,0:0:0:0:
240,288,60123,1,0,0:0:0:0:
128,320,60266,5,0,0:0:0:0:
384,320,60409,2,0,L|464:320,2,79.5,0|8|0,0:0|0:0|0:0,0:0:0:0:
272,272,60838,1,0,0:0:0:0:
320,160,60980,1,0,0:0:0:0:
416,112,61123,1,8,0:0:0:0:
176,112,61266,6,0,P|112:160|176:224,1,159,0|0,0:0|0:0,0:0:0:0:
272,208,61695,1,8,0:0:0:0:
480,208,61838,2,0,P|480:272|400:304,1,159,0|0,0:0|0:0,0:0:0:0:
272,256,62266,2,0,L|384:256,1,79.5,8|0,0:0|0:0,0:0:0:0:
128,256,62552,6,0,L|32:256,1,79.5,0|0,0:0|0:0,0:0:0:0:
160,192,62838,1,8,0:0:0:0:
272,144,62980,1,0,0:0:0:0:
144,144,63123,2,0,P|112:176|192:256,1,159,0|8,0:0|0:0,0:0:0:0:
288,256,63552,6,0,L|448:256,1,159,0|0,0:0|0:0,0:0:0:0:
336,176,63980,1,8,0:0:0:0:
224,112,64123,1,0,0:0:0:0:
352,112,64266,2,0,L|432:112,1,79.5,0|0,0:0|0:0,0:0:0:0:
288,176,64552,2,0,L|192:176,1,79.5,8|0,0:0|0:0,0:0:0:0:
448,176,64838,6,0,P|480:224|400:288,1,159,4|0,0:0|0:0,0:0:0:0:
64,176,65266,2,0,P|32:224|112:288,1,159,4|0,0:0|0:0,0:0:0:0:
224,288,65695,2,0,L|336:288,1,79.5,4|0,0:0|0:0,0:0:0:0:
64,176,65980,6,0,P|32:224|112:288,1,159,8|8,0:0|0:0,0:0:0:0:
448,176,66409,1,8,0:0:0:0:
320,176,66552,1,8,0:0:0:0:
432,176,66695,1,8,0:0:0:0:
304,176,66838,1,8,0:0:0:0:
416,176,66980,1,8,0:0:0:0:
176,176,67123,5,4,0:0:0:0:
272,176,67266,2,0,L|336:240,1,79.5,0|8,0:0|0:0,0:0:0:0:
112,240,67552,1,0,0:0:0:0:
64,304,67695,2,0,L|160:304,1,79.5,0|0,0:0|0:0,0:0:0:0:
272,304,67980,1,8,0:0:0:0:
176,304,68123,1,0,0:0:0:0:
416,304,68266,6,0,L|432:208,1,79.5,0|0,0:0|0:0,0:0:0:0:
304,224,68552,2,0,L|208:224,1,79.5,8|0,0:0|0:0,0:0:0:0:
352,96,68838,1,0,0:0:0:0:
448,176,68980,1,0,0:0:0:0:
384,288,69123,1,8,0:0:0:0:
256,304,69266,1,0,0:0:0:0:
128,272,69409,5,0,0:0:0:0:
336,272,69552,2,0,L|384:208,1,79.5,0|8,0:0|0:0,0:0:0:0:
272,144,69838,1,0,0:0:0:0:
144,144,69980,2,0,L|224:144,2,79.5,0|0|8,0:0|0:0|0:0,0:0:0:0:
352,272,70409,6,0,P|400:224|352:128,1,159,0|0,0:0|0:0,0:0:0:0:
256,144,70838,1,8,0:0:0:0:
48,144,70980,2,0,P|120:146|176:224,1,159,0|0,0:0|0:0,0:0:0:0:
48,224,71409,2,0,L|32:304,1,79.5,8|0,0:0|0:0,0:0:0:0:
336,304,71695,5,0,0:0:0:0:
448,256,71838,1,0,0:0:0:0:
480,128,71980,1,8,0:0:0:0:
384,48,72123,1,0,0:0:0:0:
256,48,72266,2,0,L|160:48,1,79.5,0|0,0:0|0:0,0:0:0:0:
320,128,72552,2,0,L|416:128,1,79.5,8|0,0:0|0:0,0:0:0:0:
128,128,72838,5,0,0:0:0:0:
32,208,72980,1,0,0:0:0:0:
80,320,73123,1,8,0:0:0:0:
208,336,73266,1,0,0:0:0:0:
336,304,73409,1,0,0:0:0:0:
416,208,73552,1,0,0:0:0:0:
336,112,73695,1,8,0:0:0:0:
208,144,73838,1,0,0:0:0:0:
336,176,73980,5,0,0:0:0:0:
128,176,74123,2,0,L|48:176,2,79.5,0|8|0,0:0|0:0|0:0,0:0:0:0:
256,176,74552,1,0,0:0:0:0:
128,176,74695,1,0,0:0:0:0:
384,176,74838,1,8,0:0:0:0:
256,176,74980,6,0,P|208:224|256:288,1,159,0|0,0:0|0:0,0:0:0:0:
464,288,75409,1,8,0:0:0:0:
416,160,75695,1,8,0:0:0:0:
288,160,75838,1,8,0:0:0:0:
416,160,75980,1,8,0:0:0:0:
160,160,76123,1,8,0:0:0:0:
384,272,76266,6,0,P|448:208|432:128,1,159,4|0,0:0|0:0,0:0:0:0:
384,80,76695,1,0,0:0:0:0:
224,80,76838,2,0,P|160:128|160:208,1,159,8|0,0:0|0:0,0:0:0:0:
224,272,77266,1,0,0:0:0:0:
384,240,77409,6,0,P|272:224|240:160,1,159
320,128,77838,1,0,0:0:0:0:
160,144,77980,2,0,P|96:176|112:256,1,159,8|0,0:0|0:0,0:0:0:0:
192,304,78409,1,0,0:0:0:0:
400,304,78552,6,0,P|416:240|400:144,1,159,4|0,0:0|0:0,0:0:0:0:
112,304,79123,2,0,P|96:240|112:144,1,159,8|0,0:0|0:0,0:0:0:0:
224,112,79552,1,0,0:0:0:0:
368,112,79695,6,0,P|416:144|352:224,1,159,0|0,0:0|0:0,0:0:0:0:
144,112,80266,2,0,P|96:144|160:224,1,159,8|0,0:0|0:0,0:0:0:0:
256,224,80695,1,0,0:0:0:0:
48,224,80838,6,0,L|128:224,1,79.5,8|0,0:0|0:0,0:0:0:0:
256,224,81123,2,0,L|368:224,1,79.5,8|0,0:0|0:0,0:0:0:0:
192,112,81409,2,0,L|272:112,1,79.5,8|0,0:0|0:0,0:0:0:0:
400,112,81695,2,0,L|512:112,1,79.5,8|0,0:0|0:0,0:0:0:0:
256,304,81980,6,0,L|160:304,1,79.5,8|0,0:0|0:0,0:0:0:0:
336,224,82266,2,0,L|240:224,1,79.5,8|0,0:0|0:0,0:0:0:0:
400,144,82552,2,0,L|304:144,1,79.5,8|0,0:0|0:0,0:0:0:0:
192,144,82838,2,0,L|80:144,1,79.5,8|0,0:0|0:0,0:0:0:0:
384,144,83123,6,0,L|416:256,1,79.5,10|10,0:0|0:0,0:0:0:0:
128,144,83552,2,0,L|96:256,1,79.5,10|10,0:0|0:0,0:0:0:0:
368,144,83980,1,10,0:0:0:0:
144,144,84123,1,10,0:0:0:0:
256,192,85409,12,0,89123,0:0:0:0:
144,144,89409,5,8,0:0:0:0:
368,144,89552,1,8,0:0:0:0:
