osu file format v14

[General]
AudioFilename: audio.mp3
AudioLeadIn: 0
PreviewTime: 57623
Countdown: 0
SampleSet: Normal
StackLeniency: 0.7
Mode: 2
LetterboxInBreaks: 0
WidescreenStoryboard: 0

[Editor]
Bookmarks: 838,9980,19123,28266,37409,46552,57980,67123,76266
DistanceSpacing: 1
BeatDivisor: 4
GridSize: 16
TimelineZoom: 2.2

[Metadata]
Title:Uncontrollable
TitleUnicode:Uncontrollable
Artist:Ito Kanako
ArtistUnicode:いとうかなこ
Creator:Yumeno Himiko
Version:Salad
Source:CHAOS;CHILD
Tags:ChäoS;Child opening op tv size 5pb. 科学アドベンチャーシリーズ SCIENCE ADVENTURE SERIES 妄想科学ADV Mousou Kagaku ADV 伊藤香奈子 examination exam
BeatmapID:1183984
BeatmapSetID:559539

[Difficulty]
HPDrainRate:4
CircleSize:3
OverallDifficulty:7
ApproachRate:7
SliderMultiplier:1.3
SliderTickRate:2

[Events]
//Background and Video events
0,0,"BG.jpg",0,0
//Break Periods
//Storyboard Layer 0 (Background)
//Storyboard Layer 1 (Fail)
//Storyboard Layer 2 (Pass)
//Storyboard Layer 3 (Foreground)
//Storyboard Sound Samples

[TimingPoints]
838,285.714285714286,4,2,1,50,1,0
9980,-100,4,1,1,40,0,0
18695,-100,4,1,1,5,0,0
19123,-100,4,2,1,40,0,0
25980,-100,4,2,1,50,0,0
28266,-100,4,1,1,40,0,0
37409,-100,4,1,1,30,0,0
46552,-100,4,1,1,40,0,0
57552,-100,4,1,1,10,0,0
57980,-100,4,1,1,50,0,1
65980,-100,4,1,1,30,0,1
66266,-100,4,1,1,40,0,1
66409,-100,4,1,1,45,0,1
66552,-100,4,1,1,50,0,1
75695,-100,4,1,1,30,0,1
75838,-100,4,1,1,35,0,1
75980,-100,4,1,1,40,0,1
76123,-100,4,1,1,45,0,1
76266,-100,4,1,1,40,0,0

[Colours]
Combo1 : 217,187,163
Combo2 : 244,205,164
Combo3 : 190,112,136
Combo4 : 174,177,229
Combo5 : 238,229,186
Combo6 : 86,80,104

[HitObjects]
160,112,838,6,0,P|128:160|176:224,1,130,4|0,0:0|0:0,0:0:0:0:
288,240,1409,1,0,0:0:0:0:
160,304,1695,1,0,0:0:0:0:
352,112,1980,6,0,P|384:160|336:224,1,130,4|0,0:0|0:0,0:0:0:0:
224,240,2551,1,0,0:0:0:0:
352,304,2837,1,0,0:0:0:0:
208,128,3123,6,0,P|133:128|96:192,1,130,4|0,0:0|0:0,0:0:0:0:
208,240,3695,1,0,0:0:0:0:
336,240,3980,1,0,0:0:0:0:
128,192,4266,6,0,P|96:224|128:304,1,130,4|0,0:0|0:0,0:0:0:0:
352,192,4838,2,0,P|384:224|352:304,1,130,4|0,0:0|0:0,0:0:0:0:
128,304,5409,5,4,0:0:0:0:
32,304,5695,1,2,0:0:0:0:
32,240,5980,1,2,0:0:0:0:
96,240,6266,1,2,0:0:0:0:
304,192,6552,5,4,0:0:0:0:
416,192,6838,1,2,0:0:0:0:
480,128,7123,1,2,0:0:0:0:
400,128,7409,1,2,0:0:0:0:
192,128,7695,6,0,P|176:192|176:208,1,65,4|0,0:0|0:0,0:0:0:0:
320,128,8123,2,0,P|336:192|336:208,1,65,4|0,0:0|0:0,0:0:0:0:
192,224,8552,1,4,0:0:0:0:
400,224,8838,6,0,P|432:192|368:128,1,130,4|0,0:0|0:0,0:0:0:0:
288,128,9266,1,4,0:0:0:0:
416,128,9695,1,8,0:0:0:0:
176,128,9980,6,0,P|114:153|96:224,1,130,4|8,0:0|0:0,0:0:0:0:
240,192,10552,2,0,L|256:336,1,130,0|8,0:0|0:0,0:0:0:0:
80,192,11123,6,0,L|96:336,1,130,0|8,0:0|0:0,0:0:0:0:
240,320,11695,1,0,0:0:0:0:
384,320,11980,1,8,0:0:0:0:
240,320,12266,6,0,P|176:288|176:224,1,130,0|8,0:0|0:0,0:0:0:0:
336,240,12838,2,0,P|384:160|368:112,1,130,0|8,0:0|0:0,0:0:0:0:
192,128,13409,5,0,0:0:0:0:
80,128,13695,1,8,0:0:0:0:
192,128,13980,1,0,0:0:0:0:
288,128,14123,2,0,L|336:176,2,65,2|10|10,0:0|0:0|0:0,0:0:0:0:
144,128,14552,6,0,P|80:192|96:240,1,130,0|8,0:0|0:0,0:0:0:0:
224,208,15123,1,0,0:0:0:0:
112,272,15409,1,8,0:0:0:0:
320,272,15695,6,0,P|384:240|400:176,1,130,0|8,0:0|0:0,0:0:0:0:
272,160,16266,1,0,0:0:0:0:
400,128,16552,1,8,0:0:0:0:
176,128,16980,5,2,0:0:0:0:
176,128,17123,1,2,0:0:0:0:
448,224,17409,5,2,0:0:0:0:
448,224,17552,1,2,0:0:0:0:
208,256,17838,5,2,0:0:0:0:
208,256,17980,1,2,0:0:0:0:
416,320,18266,5,2,0:0:0:0:
416,320,18409,1,2,0:0:0:0:
256,320,18695,6,0,P|224:272|240:192,1,130,0|0,0:0|0:0,0:0:0:0:
304,192,19123,6,0,L|384:192,1,65,4|4,3:0|3:0,0:0:0:0:
432,112,19409,2,0,P|464:160|464:256,1,130,0|0,0:0|0:0,0:0:0:0:
304,224,19980,1,4,3:0:0:0:
240,224,20123,6,0,P|192:256|240:384,1,195,4|0,3:0|0:0,0:0:0:0:
352,336,20838,1,0,0:0:0:0:
208,336,21123,1,0,0:0:0:0:
352,256,21409,5,4,3:0:0:0:
400,208,21552,2,0,P|432:160|336:96,1,195,4|0,3:0|0:0,0:0:0:0:
176,96,22266,1,4,3:0:0:0:
128,112,22409,6,0,P|80:176|144:272,1,195,4|0,3:0|0:0,0:0:0:0:
272,224,23123,1,0,0:0:0:0:
128,240,23409,1,0,0:0:0:0:
304,224,23695,6,0,L|368:224,2,65,4|4|0,3:0|3:0|0:0,0:0:0:0:
240,224,24123,2,0,P|192:192|208:112,1,130,0|0,0:0|0:0,0:0:0:0:
272,128,24552,1,4,3:0:0:0:
352,128,24695,6,0,P|416:160|368:272,1,195,4|0,3:0|0:0,0:0:0:0:
240,256,25409,1,0,0:0:0:0:
232,288,25552,1,0,0:0:0:0:
224,320,25695,1,0,0:0:0:0:
384,320,25980,6,0,P|400:272|320:144,1,195,4|0,3:0|0:0,0:0:0:0:
176,160,26838,1,0,0:0:0:0:
400,96,27123,6,0,P|464:112|400:192,1,195,4|4,0:0|0:0,0:0:0:0:
80,192,27980,1,4,0:0:0:0:
256,192,28266,6,0,L|400:192,1,130,0|8,0:0|0:0,0:0:0:0:
288,112,28838,1,0,0:0:0:0:
160,112,29123,1,8,0:0:0:0:
288,112,29409,5,0,0:0:0:0:
416,112,29695,1,8,0:0:0:0:
288,160,29980,2,0,L|240:304,1,130,0|8,0:0|0:0,0:0:0:0:
448,288,30552,5,0,0:0:0:0:
336,288,30838,1,8,0:0:0:0:
208,288,31123,2,0,L|176:160,1,130,0|8,0:0|0:0,0:0:0:0:
352,160,31695,5,0,0:0:0:0:
224,160,31980,1,8,0:0:0:0:
336,240,32266,1,0,0:0:0:0:
208,240,32552,1,8,0:0:0:0:
416,240,32838,6,0,P|448:288|384:320,1,130,0|8,0:0|0:0,0:0:0:0:
272,320,33409,2,0,P|240:304|224:208,1,130,0|8,0:0|0:0,0:0:0:0:
336,208,33980,6,0,P|368:160|320:112,1,130,0|8,0:0|0:0,0:0:0:0:
160,112,34552,1,0,0:0:0:0:
288,112,34838,1,8,0:0:0:0:
80,112,35123,6,0,P|48:144|64:240,1,130,0|8,0:0|0:0,0:0:0:0:
192,208,35695,1,0,0:0:0:0:
336,192,35980,1,8,0:0:0:0:
144,288,36266,5,2,0:0:0:0:
144,288,36409,1,2,0:0:0:0:
464,288,36838,5,2,0:0:0:0:
464,288,36980,1,2,0:0:0:0:
176,288,37409,5,12,0:0:0:0:
128,256,37552,2,0,P|96:208|192:112,1,195,8|8,0:0|0:0,0:0:0:0:
304,112,38266,2,0,L|320:176,1,65,8|8,0:0|0:0,0:0:0:0:
128,176,38838,5,0,0:0:0:0:
256,176,39123,2,0,L|416:176,1,130,2|0,0:0|0:0,0:0:0:0:
256,288,39695,6,0,L|176:288,1,65,8|8,0:0|0:0,0:0:0:0:
384,288,40266,1,8,0:0:0:0:
256,288,40552,2,0,L|176:288,1,65,8|8,0:0|0:0,0:0:0:0:
384,288,41123,5,0,0:0:0:0:
272,272,41409,2,0,P|240:224|288:144,1,130,8|0,0:0|0:0,0:0:0:0:
432,160,41980,6,0,L|400:240,1,65,8|8,0:0|0:0,0:0:0:0:
208,160,42552,1,8,0:0:0:0:
334,160,42838,2,0,L|414:160,1,65,8|8,0:0|0:0,0:0:0:0:
176,160,43409,6,0,P|128:176|96:256,2,130,0|8|0,0:0|0:0|0:0,0:0:0:0:
336,320,44266,6,0,L|416:320,1,65,8|8,0:0|0:0,0:0:0:0:
208,320,44838,1,8,0:0:0:0:
336,320,45123,1,8,0:0:0:0:
384,320,45266,6,0,P|432:288|384:176,1,195,8|0,0:0|0:0,0:0:0:0:
240,176,45980,1,8,0:0:0:0:
176,176,46123,2,0,P|118:217|125:274,1,130,8|0,0:0|0:0,0:0:0:0:
256,320,46552,6,0,L|416:320,1,130,0|8,0:0|0:0,0:0:0:0:
208,240,47123,2,0,P|160:192|192:144,1,130,0|8,0:0|0:0,0:0:0:0:
384,144,47695,5,0,0:0:0:0:
256,144,47980,1,8,0:0:0:0:
416,144,48266,2,0,P|432:192|416:272,1,130,0|8,0:0|0:0,0:0:0:0:
256,272,48838,5,0,0:0:0:0:
128,272,49123,1,8,0:0:0:0:
256,272,49409,1,0,0:0:0:0:
384,272,49695,1,8,0:0:0:0:
224,272,49980,6,0,P|192:208|208:144,1,130,0|8,0:0|0:0,0:0:0:0:
320,272,50552,2,0,P|352:208|336:144,1,130,0|8,0:0|0:0,0:0:0:0:
192,128,51123,6,0,P|128:144|80:192,1,130,0|8,0:0|0:0,0:0:0:0:
224,256,51695,1,0,0:0:0:0:
96,288,51980,1,8,0:0:0:0:
320,128,52266,6,0,P|384:144|432:192,1,130,0|8,0:0|0:0,0:0:0:0:
288,256,52838,1,0,0:0:0:0:
448,288,53123,1,8,0:0:0:0:
192,288,53409,6,0,P|160:256|160:176,1,130,0|8,0:0|0:0,0:0:0:0:
304,160,53980,2,0,L|448:160,1,130,0|8,0:0|0:0,0:0:0:0:
176,96,54552,6,0,P|112:144|112:192,1,130,8|8,0:0|0:0,0:0:0:0:
256,96,55123,2,0,L|400:96,1,130,8|8,0:0|0:0,0:0:0:0:
128,192,55695,5,2,0:0:0:0:
96,224,55838,1,2,0:0:0:0:
80,256,55980,1,2,0:0:0:0:
80,288,56123,2,0,P|96:336|176:352,1,130,6|6,0:0|0:0,0:0:0:0:
400,288,56695,6,0,P|384:336|304:352,1,130,6|2,0:0|0:0,0:0:0:0:
224,352,57123,1,2,0:0:0:0:
432,192,57695,1,0,2:0:0:0:
176,192,57980,6,0,P|96:240|96:288,1,130,4|8,0:0|0:0,0:0:0:0:
176,224,58552,2,0,P|192:256|272:304,1,130,0|8,0:0|0:0,0:0:0:0:
416,304,59123,5,0,0:0:0:0:
480,160,59409,1,8,0:0:0:0:
352,144,59695,1,0,0:0:0:0:
480,192,59980,1,8,0:0:0:0:
240,192,60266,6,0,P|208:224|256:288,1,130,0|8,0:0|0:0,0:0:0:0:
384,288,60838,2,0,L|240:288,1,130,0|8,0:0|0:0,0:0:0:0:
128,288,61409,5,0,0:0:0:0:
144,176,61695,1,8,0:0:0:0:
288,240,61980,1,0,0:0:0:0:
304,112,62266,1,8,0:0:0:0:
32,112,62552,6,0,P|32:176|80:240,1,130,0|8,0:0|0:0,0:0:0:0:
176,240,63123,2,0,L|320:240,1,130,0|8,0:0|0:0,0:0:0:0:
192,208,63695,6,0,P|144:256|192:304,1,130,0|8,0:0|0:0,0:0:0:0:
320,208,64266,2,0,P|368:256|320:304,1,130,0|8,0:0|0:0,0:0:0:0:
144,304,64838,6,0,L|160:240,1,65,4|0,0:0|0:0,0:0:0:0:
368,304,65266,2,0,L|352:240,1,65,4|0,0:0|0:0,0:0:0:0:
192,192,65695,1,4,0:0:0:0:
320,192,65980,6,0,P|352:224|304:304,1,130,8|8,0:0|0:0,0:0:0:0:
240,304,66409,1,8,0:0:0:0:
160,192,66552,2,0,P|112:224|128:288,1,130,0|8,0:0|0:0,0:0:0:0:
176,320,66981,1,8,0:0:0:0:
336,304,67123,6,0,P|384:256|384:192,1,130,4|8,0:0|0:0,0:0:0:0:
240,192,67695,1,0,0:0:0:0:
368,128,67980,1,8,0:0:0:0:
208,128,68266,6,0,P|160:144|112:208,1,130,0|8,0:0|0:0,0:0:0:0:
240,240,68838,1,0,0:0:0:0:
384,272,69123,1,8,0:0:0:0:
144,304,69409,6,0,P|76:285|64:224,1,130,0|8,0:0|0:0,0:0:0:0:
224,176,69980,1,0,0:0:0:0:
112,176,70266,1,8,0:0:0:0:
272,112,70552,6,0,P|336:128|336:208,1,130,0|8,0:0|0:0,0:0:0:0:
192,112,71123,2,0,P|128:128|128:192,1,130,0|8,0:0|0:0,0:0:0:0:
368,176,71695,5,0,0:0:0:0:
304,240,71980,1,8,0:0:0:0:
432,240,72266,1,0,0:0:0:0:
416,176,72552,1,8,0:0:0:0:
256,176,72838,6,0,P|176:208|160:256,1,130,0|8,0:0|0:0,0:0:0:0:
320,240,73409,2,0,P|384:256|384:320,1,130,0|8,0:0|0:0,0:0:0:0:
144,304,73980,5,0,0:0:0:0:
272,224,74266,1,8,0:0:0:0:
112,224,74552,2,0,P|96:144|144:112,1,130,0|8,0:0|0:0,0:0:0:0:
288,144,75123,6,0,P|320:176|272:240,1,130,0|8,0:0|0:0,0:0:0:0:
144,144,75695,1,8,0:0:0:0:
96,176,75838,1,8,0:0:0:0:
144,240,75980,1,8,0:0:0:0:
224,272,76123,1,8,0:0:0:0:
384,272,76266,6,0,P|432:240|336:112,1,260,4|8,0:0|0:0,0:0:0:0:
224,112,77123,1,0,0:0:0:0:
352,112,77409,6,0,P|432:112|448:272,1,260,0|8,0:0|0:0,0:0:0:0:
368,304,78266,1,0,0:0:0:0:
128,304,78552,6,0,P|64:272|144:128,1,260,4|8,0:0|0:0,0:0:0:0:
256,128,79409,1,0,0:0:0:0:
128,128,79695,6,0,P|128:176|288:288,1,260,0|8,0:0|0:0,0:0:0:0:
400,288,80552,1,0,0:0:0:0:
160,144,80838,6,0,P|160:176|208:272,1,130,8|8,0:0|0:0,0:0:0:0:
352,144,81409,2,0,P|352:176|304:272,1,130,8|8,0:0|0:0,0:0:0:0:
176,144,81980,6,0,P|160:192|192:272,1,130,8|8,0:0|0:0,0:0:0:0:
336,144,82552,2,0,P|352:192|320:272,1,130,8|8,0:0|0:0,0:0:0:0:
128,144,83123,6,0,L|160:224,1,65,10|10,0:0|0:0,0:0:0:0:
384,144,83552,2,0,L|352:224,1,65,10|10,0:0|0:0,0:0:0:0:
112,144,83980,2,0,L|80:224,1,65,10|10,0:0|0:0,0:0:0:0:
256,192,85409,12,0,89123,0:0:0:0:
256,144,89409,6,0,L|256:224,1,65,8|8,0:0|0:0,0:0:0:0:
