osu file format v14

[General]
AudioFilename: audio.mp3
AudioLeadIn: 0
PreviewTime: 57623
Countdown: 0
SampleSet: Normal
StackLeniency: 0.7
Mode: 2
LetterboxInBreaks: 0
WidescreenStoryboard: 0

[Editor]
Bookmarks: 838,9980,19123,28266,37409,46552,57980,67123,76266
DistanceSpacing: 1
BeatDivisor: 4
GridSize: 16
TimelineZoom: 2.2

[Metadata]
Title:Uncontrollable
TitleUnicode:Uncontrollable
Artist:Ito Kanako
ArtistUnicode:いとうかなこ
Creator:Yumeno Himiko
Version:Platter
Source:CHAOS;CHILD
Tags:ChäoS;Child opening op tv size 5pb. 科学アドベンチャーシリーズ SCIENCE ADVENTURE SERIES 妄想科学ADV Mousou Kagaku ADV 伊藤香奈子 examination exam
BeatmapID:1183877
BeatmapSetID:559539

[Difficulty]
HPDrainRate:5
CircleSize:3.5
OverallDifficulty:8
ApproachRate:8
SliderMultiplier:1.59
SliderTickRate:2

[Events]
//Background and Video events
0,0,"BG.jpg",0,0
//Break Periods
//Storyboard Layer 0 (Background)
//Storyboard Layer 1 (Fail)
//Storyboard Layer 2 (Pass)
//Storyboard Layer 3 (Foreground)
//Storyboard Sound Samples

[TimingPoints]
838,285.714285714286,4,2,1,50,1,0
9980,-100,4,1,1,40,0,0
18695,-100,4,1,1,5,0,0
19123,-100,4,2,1,40,0,0
25980,-100,4,2,1,50,0,0
28266,-100,4,1,1,40,0,0
37409,-100,4,1,1,30,0,0
46552,-100,4,1,1,40,0,0
57552,-100,4,1,1,10,0,0
57980,-100,4,1,1,50,0,1
65980,-100,4,1,1,30,0,1
66123,-100,4,1,1,35,0,1
66266,-100,4,1,1,40,0,1
66409,-100,4,1,1,45,0,1
66552,-100,4,1,1,50,0,1
75695,-100,4,1,1,30,0,1
75838,-100,4,1,1,35,0,1
75980,-100,4,1,1,40,0,1
76123,-100,4,1,1,45,0,1
76266,-100,4,1,1,40,0,0

[Colours]
Combo1 : 217,187,163
Combo2 : 244,205,164
Combo3 : 190,112,136
Combo4 : 174,177,229
Combo5 : 238,229,186
Combo6 : 86,80,104

[HitObjects]
192,112,838,6,0,L|160:192,1,79.5,4|0,0:0|0:0,0:0:0:0:
320,112,1266,2,0,L|352:192,1,79.5,0|0,0:0|0:0,0:0:0:0:
160,112,1695,2,0,L|112:176,1,79.5
272,112,1980,5,4,0:0:0:0:
336,144,2122,1,0,0:0:0:0:
352,208,2265,1,0,0:0:0:0:
192,112,2552,1,0,0:0:0:0:
112,144,2694,1,0,0:0:0:0:
80,224,2837,1,0,0:0:0:0:
112,304,2980,1,0,0:0:0:0:
272,320,3123,6,0,L|352:320,1,79.5,4|0,0:0|0:0,0:0:0:0:
176,192,3552,2,0,L|80:192,2,79.5
272,192,3980,1,0,0:0:0:0:
192,240,4123,1,0,0:0:0:0:
352,240,4266,6,0,P|416:224|464:128,1,159,4|0,0:0|0:0,0:0:0:0:
144,240,4838,2,0,P|80:224|32:128,1,159,4|0,0:0|0:0,0:0:0:0:
288,144,5409,5,4,0:0:0:0:
416,144,5695,1,2,0:0:0:0:
288,144,5980,1,2,0:0:0:0:
128,144,6266,1,2,0:0:0:0:
368,144,6552,5,4,0:0:0:0:
224,144,6838,1,2,0:0:0:0:
96,144,7123,1,2,0:0:0:0:
224,144,7409,1,2,0:0:0:0:
448,144,7695,6,0,L|480:224,1,79.5,4|0,0:0|0:0,0:0:0:0:
288,304,8123,2,0,L|256:224,1,79.5,4|0,0:0|0:0,0:0:0:0:
64,320,8552,1,4,0:0:0:0:
288,304,8838,6,0,P|352:288|368:192,1,159,4|0,0:0|0:0,0:0:0:0:
208,192,9266,1,4,0:0:0:0:
480,192,9695,1,8,0:0:0:0:
208,192,9980,5,4,0:0:0:0:
128,192,10123,2,0,L|64:256,2,79.5,0|8|0,0:0|0:0|0:0,0:0:0:0:
288,192,10552,1,0,0:0:0:0:
320,256,10695,1,0,0:0:0:0:
272,320,10838,1,8,0:0:0:0:
192,320,10980,1,0,0:0:0:0:
352,336,11123,5,0,0:0:0:0:
432,336,11266,2,0,L|464:256,2,79.5,0|8|0,0:0|0:0|0:0,0:0:0:0:
272,336,11695,1,0,0:0:0:0:
224,256,11838,1,0,0:0:0:0:
272,176,11980,1,8,0:0:0:0:
368,160,12123,1,0,0:0:0:0:
208,160,12266,6,0,L|112:160,1,79.5
208,96,12552,1,8,0:0:0:0:
288,144,12695,1,0,0:0:0:0:
128,112,12838,1,0,0:0:0:0:
48,144,12980,1,0,0:0:0:0:
16,224,13123,1,8,0:0:0:0:
64,288,13266,1,0,0:0:0:0:
224,288,13409,5,0,0:0:0:0:
304,240,13552,1,0,0:0:0:0:
304,160,13695,1,8,0:0:0:0:
272,80,13838,1,0,0:0:0:0:
192,48,13980,1,0,0:0:0:0:
352,48,14123,2,0,L|432:48,2,79.5,2|10|10,0:0|0:0|0:0,0:0:0:0:
96,48,14552,6,0,L|48:128,1,79.5,0|0,0:0|0:0,0:0:0:0:
96,192,14838,1,8,0:0:0:0:
176,208,14980,1,0,0:0:0:0:
336,192,15123,1,0,0:0:0:0:
256,192,15266,1,0,0:0:0:0:
192,240,15409,1,8,0:0:0:0:
176,320,15552,1,0,0:0:0:0:
336,352,15695,6,0,L|416:352,1,79.5
480,304,15980,1,8,0:0:0:0:
496,224,16123,1,0,0:0:0:0:
336,224,16266,1,0,0:0:0:0:
256,192,16409,1,0,0:0:0:0:
240,112,16552,1,8,0:0:0:0:
304,48,16695,1,0,0:0:0:0:
416,64,16980,6,0,L|320:64,1,79.5,2|2,0:0|0:0,0:0:0:0:
128,64,17409,2,0,L|224:64,1,79.5,2|2,0:0|0:0,0:0:0:0:
432,192,17838,2,0,L|336:192,1,79.5,2|2,0:0|0:0,0:0:0:0:
96,192,18266,2,0,L|192:192,1,79.5,2|2,0:0|0:0,0:0:0:0:
320,304,18695,6,0,P|252:254|256:176,1,159,0|0,0:0|0:0,0:0:0:0:
416,192,19123,6,0,L|448:112,1,79.5,4|4,3:0|3:0,0:0:0:0:
368,96,19409,1,0,0:0:0:0:
288,112,19552,1,0,0:0:0:0:
224,160,19695,2,0,P|208:224|288:304,1,159,0|4,0:0|3:0,0:0:0:0:
416,288,20123,1,0,3:0:0:0:
208,176,20409,5,0,0:0:0:0:
160,256,20552,2,0,L|256:256,1,79.5,0|0,0:0|0:0,0:0:0:0:
288,176,20838,2,0,L|112:176,1,159
304,96,21409,6,0,L|400:96,2,79.5,4|4|0,3:0|3:0|0:0,0:0:0:0:
208,96,21838,2,0,P|160:112|192:192,1,159,0|0,0:0|0:0,0:0:0:0:
288,192,22266,1,4,3:0:0:0:
128,192,22409,1,0,3:0:0:0:
80,304,22695,5,0,0:0:0:0:
144,240,22838,2,0,L|240:240,1,79.5
320,192,23123,2,0,P|384:224|464:288,1,159
256,304,23695,6,0,L|176:304,2,79.5,4|4|0,3:0|3:0|0:0,0:0:0:0:
352,304,24123,2,0,P|400:256|352:192,1,159,0|0,0:0|0:0,0:0:0:0:
288,192,24552,1,4,3:0:0:0:
128,192,24695,1,0,3:0:0:0:
304,192,24980,6,0,P|400:208|448:272,1,159
384,320,25409,1,0,0:0:0:0:
304,368,25552,1,0,0:0:0:0:
208,368,25695,2,0,L|224:288,1,79.5,0|0,0:0|0:0,0:0:0:0:
384,112,25980,6,0,P|464:144|400:272,1,238.5,4|0,3:0|0:0,0:0:0:0:
240,272,26695,1,0,0:0:0:0:
176,272,26766,1,0,0:0:0:0:
128,272,26838,2,0,L|144:176,1,79.5
352,112,27123,6,0,P|400:176|368:256,1,159,4|0,0:0|0:0,0:0:0:0:
288,112,27552,2,0,P|240:160|272:256,1,159,4|0,0:0|0:0,0:0:0:0:
400,304,27980,1,4,0:0:0:0:
48,304,28266,6,0,L|16:224,1,79.5
144,224,28552,1,8,0:0:0:0:
192,160,28695,1,0,0:0:0:0:
80,112,28838,2,0,P|64:160|144:224,1,159,0|8,0:0|0:0,0:0:0:0:
240,224,29266,1,0,0:0:0:0:
416,144,29552,5,0,0:0:0:0:
320,144,29695,2,0,L|240:64,1,79.5,8|0,0:0|0:0,0:0:0:0:
384,96,29980,1,0,0:0:0:0:
464,128,30123,1,0,0:0:0:0:
496,208,30266,1,8,0:0:0:0:
448,288,30409,1,0,0:0:0:0:
288,288,30552,6,0,L|208:288,1,79.5
160,224,30838,1,8,0:0:0:0:
320,288,30980,2,0,P|368:240|304:176,1,159,0|0,0:0|0:0,0:0:0:0:
224,176,31409,1,8,0:0:0:0:
112,176,31552,1,0,0:0:0:0:
240,256,31838,5,0,0:0:0:0:
144,288,31980,2,0,L|64:320,1,79.5,8|0,0:0|0:0,0:0:0:0:
224,336,32266,2,0,L|400:336,1,159,0|8,0:0|0:0,0:0:0:0:
160,192,32838,5,0,0:0:0:0:
64,192,32980,1,0,0:0:0:0:
160,192,33123,1,8,0:0:0:0:
256,192,33266,2,0,P|304:224|240:288,1,159
160,288,33695,1,8,0:0:0:0:
320,288,33838,1,0,0:0:0:0:
432,224,34123,5,0,0:0:0:0:
336,176,34266,1,8,0:0:0:0:
432,128,34409,1,0,0:0:0:0:
272,96,34552,2,0,P|208:128|160:224,1,159,0|8,0:0|0:0,0:0:0:0:
224,304,34980,1,0,0:0:0:0:
384,304,35123,6,0,P|416:272|384:176,1,159,0|8,0:0|0:0,0:0:0:0:
288,176,35552,1,0,0:0:0:0:
192,176,35695,2,0,L|96:176,1,79.5,0|0,0:0|0:0,0:0:0:0:
240,272,35980,2,0,L|320:272,1,79.5,8|0,0:0|0:0,0:0:0:0:
112,272,36266,6,0,L|96:192,1,79.5,2|2,0:0|0:0,0:0:0:0:
400,272,36838,2,0,L|416:192,1,79.5,2|2,0:0|0:0,0:0:0:0:
128,160,37409,5,12,0:0:0:0:
224,160,37552,1,8,0:0:0:0:
48,272,37980,1,8,0:0:0:0:
240,272,38266,1,8,0:0:0:0:
144,272,38409,1,8,0:0:0:0:
384,272,38838,5,0,0:0:0:0:
240,272,39123,2,0,P|208:176|256:144,1,159,2|0,0:0|0:0,0:0:0:0:
336,144,39552,1,0,0:0:0:0:
448,112,39695,5,8,0:0:0:0:
352,112,39838,1,8,0:0:0:0:
64,112,40266,1,8,0:0:0:0:
256,224,40552,1,8,0:0:0:0:
352,224,40695,1,8,0:0:0:0:
64,224,41123,5,0,0:0:0:0:
256,224,41409,1,8,0:0:0:0:
160,224,41552,2,0,P|112:176|160:112,1,159,8|0,0:0|0:0,0:0:0:0:
368,112,41980,5,8,0:0:0:0:
464,112,42123,1,8,0:0:0:0:
176,112,42552,1,8,0:0:0:0:
320,240,42838,1,8,0:0:0:0:
224,240,42980,1,8,0:0:0:0:
496,304,43409,6,0,L|336:304,1,159,0|8,0:0|0:0,0:0:0:0:
256,192,43980,2,0,L|336:192,1,79.5
112,96,44266,5,8,0:0:0:0:
96,144,44409,1,8,0:0:0:0:
416,96,44838,1,8,0:1:0:0:
304,224,45123,1,8,0:0:0:0:
208,224,45266,6,0,P|144:192|192:144,1,159,8|0,0:0|0:0,0:0:0:0:
272,144,45695,1,0,0:0:0:0:
352,144,45838,1,0,0:0:0:0:
272,144,45980,1,8,0:0:0:0:
112,144,46123,2,0,P|64:176|80:272,1,159,8|0,0:0|0:0,0:0:0:0:
320,144,46552,6,0,L|480:144,1,159,0|8,0:0|0:0,0:0:0:0:
400,208,46980,1,0,0:0:0:0:
304,208,47123,2,0,L|208:208,1,79.5,0|0,0:0|0:0,0:0:0:0:
320,240,47409,1,8,0:0:0:0:
384,304,47552,1,0,0:0:0:0:
224,304,47695,6,0,P|160:256|160:160,1,159,0|8,0:0|0:0,0:0:0:0:
336,144,48266,1,0,0:0:0:0:
256,160,48409,1,0,0:0:0:0:
192,208,48552,1,8,0:0:0:0:
192,288,48695,1,0,0:0:0:0:
352,336,48838,6,0,P|416:320|448:224,1,159,0|8,0:0|0:0,0:0:0:0:
256,192,49409,2,0,L|160:192,1,79.5,0|0,0:0|0:0,0:0:0:0:
96,144,49695,1,8,0:0:0:0:
112,48,49838,1,0,0:0:0:0:
272,48,49980,6,0,L|432:48,1,159,0|8,0:0|0:0,0:0:0:0:
272,288,50552,1,0,0:0:0:0:
368,288,50695,1,0,0:0:0:0:
304,208,50839,2,0,L|224:208,1,79.5,8|0,0:0|0:0,0:0:0:0:
432,208,51123,6,0,P|480:240|448:336,1,159,0|8,0:0|0:0,0:0:0:0:
384,336,51552,1,0,0:0:0:0:
288,336,51695,2,0,L|224:288,1,79.5
320,256,51980,2,0,L|384:192,1,79.5,8|0,0:0|0:0,0:0:0:0:
207,128,52266,6,0,P|159:160|191:256,1,159,0|8,0:0|0:0,0:0:0:0:
256,256,52695,1,0,0:0:0:0:
352,256,52838,2,0,L|416:208,1,79.5
320,176,53123,2,0,L|240:128,1,79.5,8|0,0:0|0:0,0:0:0:0:
464,176,53409,6,0,L|496:272,1,79.5,8|0,0:0|0:0,0:0:0:0:
432,256,53695,1,8,0:0:0:0:
320,256,53838,1,0,0:0:0:0:
192,176,53980,2,0,L|80:176,1,79.5,8|0,0:0|0:0,0:0:0:0:
80,256,54266,1,8,0:0:0:0:
192,256,54409,1,0,0:0:0:0:
319,174,54552,6,0,L|416:176,1,79.5,8|0,0:0|0:0,0:0:0:0:
432,256,54838,1,8,0:0:0:0:
304,256,54980,1,0,0:0:0:0:
160,176,55123,2,0,P|112:192|96:240,1,79.5,8|0,0:0|0:0,0:0:0:0:
96,288,55338,1,0,0:0:0:0:
128,320,55409,1,8,0:0:0:0:
224,320,55552,1,0,0:0:0:0:
368,320,55695,5,2,0:0:0:0:
480,272,55838,1,2,0:0:0:0:
400,240,55980,1,2,0:0:0:0:
192,240,56123,1,6,0:0:0:0:
64,256,56409,1,6,0:0:0:0:
256,256,56695,2,0,P|178:256|128:176,1,159,6|2,0:0|0:0,0:0:0:0:
288,192,57123,5,2,0:0:0:0:
96,128,57695,2,0,L|160:208,1,79.5,0|0,2:0|2:0,2:0:0:0:
368,128,57980,6,0,L|464:128,1,79.5,4|0,0:0|0:0,0:0:0:0:
368,192,58266,1,8,0:0:0:0:
224,176,58409,2,0,L|144:176,1,79.5,0|0,0:0|0:0,0:0:0:0:
224,240,58695,1,0,0:0:0:0:
368,256,58838,2,0,L|336:160,1,79.5,8|0,0:0|0:0,0:0:0:0:
192,256,59123,6,0,P|128:224|128:128,1,159,0|8,0:0|0:0,0:0:0:0:
336,48,59695,2,0,P|400:64|352:128,1,159,0|8,0:0|0:0,0:0:0:0:
272,160,60123,1,0,0:0:0:0:
176,144,60266,5,0,0:0:0:0:
240,192,60409,1,0,0:0:0:0:
224,304,60552,1,8,0:0:0:0:
144,320,60695,1,0,0:0:0:0:
16,320,60838,2,0,L|80:256,1,79.5
160,256,61123,1,8,0:0:0:0:
400,320,61266,6,0,P|432:256|368:192,1,159,0|0,0:0|0:0,0:0:0:0:
320,192,61695,1,8,0:0:0:0:
112,320,61838,2,0,P|80:256|144:192,1,159,0|0,0:0|0:0,0:0:0:0:
192,192,62267,1,8,0:0:0:0:
288,192,62409,1,0,0:0:0:0:
80,192,62552,6,0,L|48:112,1,79.5,0|0,0:0|0:0,0:0:0:0:
144,96,62838,1,8,0:0:0:0:
240,96,62980,1,0,0:0:0:0:
400,96,63123,2,0,P|448:128|400:208,1,159,0|8,0:0|0:0,0:0:0:0:
208,192,63695,6,0,P|224:256|320:272,1,159,0|8,0:0|0:0,0:0:0:0:
400,320,64123,1,0,0:0:0:0:
304,320,64266,1,0,0:0:0:0:
224,320,64409,1,0,0:0:0:0:
160,320,64552,1,8,0:0:0:0:
224,320,64695,1,0,0:0:0:0:
384,256,64838,6,0,P|400:208|336:128,1,159,4|0,0:0|0:0,0:0:0:0:
176,256,65266,2,0,P|160:208|224:128,1,159,4|0,0:0|0:0,0:0:0:0:
384,128,65695,1,4,0:0:0:0:
448,192,65838,1,0,0:0:0:0:
176,128,65980,6,0,P|80:160|80:240,1,159,8|8,0:0|0:0,0:0:0:0:
160,224,66409,1,8,0:0:0:0:
272,224,66552,2,0,L|288:320,1,79.5,8|8,0:0|0:0,0:0:0:0:
112,224,66838,2,0,L|96:320,1,79.5,8|8,0:0|0:0,0:0:0:0:
320,112,67123,6,0,L|400:112,1,79.5,4|0,0:0|0:0,0:0:0:0:
448,176,67409,1,8,0:0:0:0:
320,176,67552,2,0,L|240:176,1,79.5
192,240,67838,1,0,0:0:0:0:
320,240,67980,2,0,L|352:336,1,79.5,8|0,0:0|0:0,0:0:0:0:
192,320,68266,5,0,0:0:0:0:
112,272,68409,1,0,0:0:0:0:
80,176,68552,1,8,0:0:0:0:
128,96,68695,1,0,0:0:0:0:
288,96,68838,2,0,P|272:160|208:240,1,159,0|8,0:0|0:0,0:0:0:0:
432,176,69409,5,0,0:0:0:0:
464,256,69552,1,0,0:0:0:0:
416,320,69695,1,8,0:0:0:0:
336,320,69838,1,0,0:0:0:0:
192,320,69980,2,0,L|112:288,1,79.5
192,256,70266,1,8,0:0:0:0:
400,320,70409,6,0,P|416:256|384:160,1,159,0|0,0:0|0:0,0:0:0:0:
320,128,70838,1,8,0:0:0:0:
112,320,70980,2,0,P|96:256|128:160,1,159,0|0,0:0|0:0,0:0:0:0:
192,128,71409,1,8,0:0:0:0:
96,128,71552,1,0,0:0:0:0:
320,128,71695,6,0,L|336:208,1,79.5,0|0,0:0|0:0,0:0:0:0:
256,128,71980,2,0,L|176:144,1,79.5,8|0,0:0|0:0,0:0:0:0:
272,208,72266,2,0,P|336:256|320:336,1,159,0|8,0:0|0:0,0:0:0:0:
224,352,72695,1,0,0:0:0:0:
64,320,72838,6,0,L|128:256,1,79.5
224,256,73123,2,0,L|192:176,1,79.5,8|0,0:0|0:0,0:0:0:0:
96,128,73409,1,0,0:0:0:0:
48,256,73695,1,8,0:0:0:0:
144,272,73838,1,0,0:0:0:0:
304,272,73980,6,0,P|384:240|432:176,1,159,0|8,0:0|0:0,0:0:0:0:
480,64,74409,1,0,0:0:0:0:
336,64,74552,2,0,L|240:64,2,79.5,0|0|8,0:0|0:0|0:0,0:0:0:0:
192,128,74980,6,0,P|112:128|48:176,1,159,0|0,0:0|0:0,0:0:0:0:
256,208,75409,1,8,0:0:0:0:
368,272,75695,6,0,L|272:272,1,79.5,8|8,0:0|0:0,0:0:0:0:
192,272,75980,2,0,L|176:192,1,79.5,8|8,0:0|0:0,0:0:0:0:
384,128,76266,6,0,P|448:160|320:304,1,318,4|8,0:0|0:0,0:0:0:0:
224,304,77123,1,0,0:0:0:0:
128,304,77266,1,0,0:0:0:0:
272,144,77409,6,0,P|400:144|480:320,1,318,0|8,0:0|0:0,0:0:0:0:
448,288,78266,1,0,0:0:0:0:
352,288,78409,1,0,0:0:0:0:
192,288,78552,6,0,L|160:128,1,159,4|0,0:0|0:0,0:0:0:0:
336,288,79123,2,0,L|368:128,1,159,8|0,0:0|0:0,0:0:0:0:
272,128,79552,1,0,0:0:0:0:
432,96,79695,6,0,P|496:144|448:224,1,159,0|0,0:0|0:0,0:0:0:0:
256,208,80266,2,0,L|96:208,1,159,8|0,0:0|0:0,0:0:0:0:
176,144,80695,1,0,0:0:0:0:
384,144,80838,6,0,P|448:160|416:256,1,159,8|8,0:0|0:0,0:0:0:0:
384,288,81266,1,0,0:0:0:0:
240,288,81409,2,0,P|160:256|160:176,1,159,8|8,0:0|0:0,0:0:0:0:
208,112,81838,1,0,0:0:0:0:
368,112,81980,6,0,P|400:176|368:288,1,159,8|8,0:0|0:0,0:0:0:0:
304,320,82409,1,0,0:0:0:0:
144,112,82552,2,0,P|112:176|144:288,1,159,8|8,0:0|0:0,0:0:0:0:
208,320,82981,1,0,0:0:0:0:
432,192,83123,6,0,L|448:288,1,79.5,10|10,0:0|0:0,0:0:0:0:
216,193,83552,2,0,L|312:193,1,79.5,10|10,0:0|0:0,0:0:0:0:
80,192,83980,2,0,L|64:288,1,79.5,10|10,0:0|0:0,0:0:0:0:
256,192,85409,12,0,89123,0:0:0:0:
192,192,89409,5,8,0:0:0:0:
320,192,89552,1,8,0:0:0:0:
