osu file format v14

[General]
AudioFilename: audio.mp3
AudioLeadIn: 0
PreviewTime: 57623
Countdown: 0
SampleSet: Normal
StackLeniency: 0.7
Mode: 2
LetterboxInBreaks: 0
WidescreenStoryboard: 0

[Editor]
Bookmarks: 838,9980,19123,28266,37409,46552,57980,67123,76266
DistanceSpacing: 1.4
BeatDivisor: 4
GridSize: 4
TimelineZoom: 2.2

[Metadata]
Title:Uncontrollable
TitleUnicode:Uncontrollable
Artist:Ito Kanako
ArtistUnicode:いとうかなこ
Creator:Yumeno Himiko
Version:Gigalomaniacs
Source:CHAOS;CHILD
Tags:ChäoS;Child opening op tv size 5pb. 科学アドベンチャーシリーズ SCIENCE ADVENTURE SERIES 妄想科学ADV Mousou Kagaku ADV 伊藤香奈子 examination exam
BeatmapID:1183358
BeatmapSetID:559539

[Difficulty]
HPDrainRate:6.5
CircleSize:5
OverallDifficulty:9.3
ApproachRate:9.3
SliderMultiplier:1.8
SliderTickRate:2

[Events]
//Background and Video events
0,0,"BG.jpg",0,0
//Break Periods
//Storyboard Layer 0 (Background)
//Storyboard Layer 1 (Fail)
//Storyboard Layer 2 (Pass)
//Storyboard Layer 3 (Foreground)
//Storyboard Sound Samples

[TimingPoints]
838,285.714285714286,4,2,1,50,1,0
2409,-100,4,2,1,30,0,0
2552,-100,4,2,1,50,0,0
9980,-100,4,1,1,40,0,0
18695,-100,4,1,1,5,0,0
19123,-100,4,2,1,40,0,0
25980,-100,4,2,1,50,0,0
28266,-100,4,1,1,40,0,0
37409,-100,4,1,1,30,0,0
46552,-100,4,1,1,40,0,0
57552,-100,4,1,1,10,0,0
57980,-100,4,1,1,50,0,1
65980,-100,4,1,1,30,0,1
66123,-100,4,1,1,35,0,1
66266,-100,4,1,1,40,0,1
66409,-100,4,1,1,45,0,1
66552,-100,4,1,1,50,0,1
74980,-83.3333333333333,4,1,1,50,0,1
75266,-100,4,1,1,50,0,1
75695,-100,4,1,1,30,0,1
75838,-100,4,1,1,35,0,1
75980,-100,4,1,1,40,0,1
76123,-100,4,1,1,45,0,1
76266,-100,4,1,1,40,0,0

[Colours]
Combo1 : 217,187,163
Combo2 : 244,205,164
Combo3 : 190,112,136
Combo4 : 174,177,229
Combo5 : 238,229,186
Combo6 : 86,80,104

[HitObjects]
124,104,838,6,0,L|88:212,1,90,4|0,0:0|0:0,0:0:0:0:
296,172,1266,2,0,L|312:284,1,90
100,268,1695,1,0,0:0:0:0:
40,248,1838,1,0,0:0:0:0:
408,128,1980,6,0,L|440:224,1,90,4|0,0:0|0:0,0:0:0:0:
304,216,2266,2,0,P|240:260|292:320,1,135
332,292,2552,2,0,P|400:256|316:132,1,270
72,132,3123,6,0,P|40:168|56:236,1,90,4|0,0:0|0:0,0:0:0:0:
152,208,3409,1,0,0:0:0:0:
260,200,3552,2,0,L|332:304,2,90
168,144,3980,1,0,0:0:0:0:
56,128,4123,1,0,0:0:0:0:
362,114,4266,6,0,L|452:120,1,90,4|0,0:0|0:0,0:0:0:0:
152,152,4552,2,0,L|124:256,1,90
360,152,4838,2,0,L|388:256,1,90,4|0,0:0|0:0,0:0:0:0:
149,114,5123,2,0,L|60:120,1,90
456,112,5409,5,4,0:0:0:0:
248,184,5695,1,2,0:0:0:0:
436,192,5980,1,2,0:0:0:0:
196,252,6266,2,0,P|164:300|208:356,1,135,2|0,0:0|0:0,0:0:0:0:
380,336,6552,6,0,L|436:256,1,90,4|0,0:0|0:0,0:0:0:0:
168,236,6838,1,2,0:0:0:0:
256,228,6980,1,0,0:0:0:0:
48,168,7123,2,0,L|0:88,1,90,2|0,0:0|0:0,0:0:0:0:
288,108,7409,1,2,0:0:0:0:
200,88,7552,1,0,0:0:0:0:
444,80,7695,6,0,P|488:132|436:256,1,180,4|0,0:0|0:0,0:0:0:0:
152,192,8123,2,0,L|352:188,1,180,4|0,0:0|0:0,0:0:0:0:
72,108,8552,2,0,L|32:200,1,90,4|0,0:0|0:0,0:0:0:0:
352,96,8838,6,0,L|464:88,1,90,4|0,0:0|0:0,0:0:0:0:
304,168,9123,1,0,0:0:0:0:
72,108,9266,2,0,P|44:180|96:276,1,180,4|0,0:0|0:0,0:0:0:0:
472,268,9695,1,8,0:0:0:0:
60,292,9980,5,4,0:0:0:0:
192,256,10123,1,0,0:0:0:0:
76,188,10266,2,0,L|92:96,1,90,8|0,0:0|0:0,0:0:0:0:
452,100,10552,1,0,0:0:0:0:
324,144,10695,1,0,0:0:0:0:
440,212,10838,1,8,0:0:0:0:
388,296,10980,2,0,L|344:296,1,45
52,300,11123,6,0,L|88:184,1,90
460,300,11409,2,0,L|424:184,1,90,8|0,0:0|0:0,0:0:0:0:
152,148,11695,1,0,0:0:0:0:
264,144,11838,1,0,0:0:0:0:
36,252,11980,1,8,0:0:0:0:
156,260,12123,1,0,0:0:0:0:
484,248,12266,6,0,L|360:264,1,90
132,128,12552,1,8,0:0:0:0:
248,112,12695,1,0,0:0:0:0:
44,140,12838,2,0,L|28:264,1,90
368,136,13123,1,8,0:0:0:0:
488,196,13266,2,0,L|432:200,1,45
208,260,13409,6,0,L|312:260,1,90
104,208,13695,1,8,0:0:0:0:
56,140,13838,1,0,0:0:0:0:
408,208,13980,1,0,0:0:0:0:
456,140,14123,1,2,0:0:0:0:
144,80,14266,1,10,0:0:0:0:
368,80,14409,1,10,0:0:0:0:
44,80,14552,6,0,L|144:80,1,90
368,80,14838,1,8,0:0:0:0:
248,80,14980,1,0,0:0:0:0:
460,76,15123,2,0,L|488:172,1,90
228,188,15409,2,0,L|328:188,1,90,8|0,0:0|0:0,0:0:0:0:
280,224,15623,1,0,0:0:0:0:
56,128,15695,6,0,L|176:128,1,90
364,128,15980,1,8,0:0:0:0:
476,128,16123,1,0,0:0:0:0:
184,200,16266,1,0,0:0:0:0:
88,200,16409,1,0,0:0:0:0:
132,200,16480,1,0,0:0:0:0:
324,200,16552,1,8,0:0:0:0:
420,200,16695,1,0,0:0:0:0:
484,96,16980,5,2,0:0:0:0:
28,96,17123,1,2,0:0:0:0:
56,184,17409,5,2,0:0:0:0:
456,184,17552,1,2,0:0:0:0:
432,264,17838,5,2,0:0:0:0:
80,264,17980,1,2,0:0:0:0:
112,328,18266,5,2,0:0:0:0:
400,328,18409,1,2,0:0:0:0:
256,316,18695,1,0,0:0:0:0:
164,316,18838,2,0,P|136:240|184:212,1,135
416,316,19123,6,0,L|428:212,1,90,4|4,3:0|3:0,0:0:0:0:
292,224,19409,2,0,L|280:116,1,90
412,100,19695,2,0,P|452:132|408:256,1,180,0|4,0:0|3:0,0:0:0:0:
208,252,20123,6,0,L|24:240,1,180,4|0,3:0|0:0,0:0:0:0:
152,184,20552,2,0,L|252:172,1,90
124,108,20838,2,0,P|80:160|124:264,1,180
200,296,21266,1,0,0:0:0:0:
448,300,21409,6,0,L|488:208,1,90,4|4,3:0|3:0,0:0:0:0:
420,148,21695,1,0,0:0:0:0:
280,152,21838,2,0,P|212:188|280:252,1,180
360,256,22266,1,4,3:0:0:0:
76,152,22409,6,0,P|28:204|92:288,1,180,4|0,3:0|0:0,0:0:0:0:
184,272,22838,2,0,L|88:260,1,90
240,192,23123,2,0,L|432:172,1,180
496,164,23552,1,0,0:0:0:0:
212,128,23695,6,0,L|104:116,2,90,4|4|0,3:0|3:0|0:0,0:0:0:0:
348,144,24123,2,0,P|400:184|328:244,1,180
196,232,24552,1,4,3:0:0:0:
432,112,24695,6,0,P|476:144|448:260,1,180,4|0,3:0|0:0,0:0:0:0:
320,264,25123,2,0,L|220:244,1,90
352,180,25409,2,0,L|444:156,1,90
384,88,25695,2,0,L|284:80,1,90
44,104,25980,6,0,L|12:204,1,90,4|4,3:0|3:0,0:0:0:0:
108,184,26266,1,0,0:0:0:0:
388,264,26409,2,0,L|176:244,1,180
420,136,26838,1,0,0:0:0:0:
476,172,26909,1,0,0:0:0:0:
480,240,26980,1,0,0:0:0:0:
432,288,27052,1,0,0:0:0:0:
220,300,27123,6,0,L|308:280,1,90,4|0,0:0|0:0,0:0:0:0:
392,168,27409,1,0,0:0:0:0:
172,132,27552,2,0,P|96:160|156:244,1,180,4|0,0:0|0:0,0:0:0:0:
360,236,27980,2,0,L|472:232,1,90,4|0,0:0|0:0,0:0:0:0:
104,108,28266,6,0,L|76:236,1,90
220,172,28552,1,8,0:0:0:0:
352,144,28695,1,0,0:0:0:0:
220,116,28838,2,0,L|236:232,1,90
400,200,29123,2,0,L|368:312,1,90,8|0,0:0|0:0,0:0:0:0:
128,300,29409,5,0,0:0:0:0:
32,208,29552,1,0,0:0:0:0:
164,180,29695,1,8,0:0:0:0:
412,156,29838,2,0,P|472:172|420:276,1,180
320,264,30266,2,0,L|216:264,1,90,8|0,0:0|0:0,0:0:0:0:
484,100,30552,6,0,L|388:88,2,90,0|0|8,0:0|0:0|0:0,0:0:0:0:
356,144,30980,2,0,P|266:149|196:208,1,180
300,216,31409,1,8,0:0:0:0:
92,220,31552,6,0,P|36:268|112:324,1,180
228,300,31980,1,8,0:0:0:0:
116,224,32123,1,0,0:0:0:0:
396,224,32266,2,0,L|428:116,1,90
116,224,32552,2,0,L|84:116,1,90,8|0,0:0|0:0,0:0:0:0:
416,88,32838,6,0,P|472:144|460:172,1,90
392,220,33123,1,8,0:0:0:0:
176,128,33266,2,0,L|80:148,1,90
40,220,33552,1,0,0:0:0:0:
304,292,33695,2,0,L|400:284,1,90,8|0,0:0|0:0,0:0:0:0:
128,184,33980,5,0,0:0:0:0:
208,144,34123,1,0,0:0:0:0:
424,184,34266,1,8,0:0:0:0:
344,144,34409,1,0,0:0:0:0:
56,96,34552,2,0,L|168:96,1,90
456,96,34838,2,0,L|344:96,1,90,8|0,0:0|0:0,0:0:0:0:
36,196,35123,5,0,0:0:0:0:
16,272,35266,1,0,0:0:0:0:
256,192,35409,1,8,0:0:0:0:
256,272,35552,1,0,0:0:0:0:
476,196,35695,1,0,0:0:0:0:
496,272,35838,1,0,0:0:0:0:
188,104,35980,5,8,0:0:0:0:
128,136,36051,1,0,0:0:0:0:
112,200,36122,1,0,0:0:0:0:
152,256,36194,1,0,0:0:0:0:
392,248,36266,1,2,0:0:0:0:
120,248,36409,1,2,0:0:0:0:
56,336,36838,5,2,0:0:0:0:
456,336,36980,2,0,P|480:244|456:152,1,180,2|0,0:0|0:0,0:0:0:0:
152,136,37409,5,12,0:0:0:0:
80,184,37552,2,0,P|56:224|136:340,1,180,8|0,0:0|0:0,0:0:0:0:
316,316,37980,1,8,0:0:0:0:
80,184,38266,2,0,L|176:172,1,90,8|8,0:0|0:0,0:0:0:0:
452,136,38838,1,0,0:0:0:0:
184,132,39123,2,0,P|136:160|164:272,1,180,2|0,0:0|0:0,0:0:0:0:
248,284,39552,1,0,0:0:0:0:
472,260,39695,5,8,0:0:0:0:
372,248,39838,2,0,P|272:184|292:120,1,180,8|0,0:0|0:0,0:0:0:0:
480,120,40266,1,8,0:0:0:0:
212,144,40552,2,0,L|328:168,1,90,8|8,0:0|0:0,0:0:0:0:
20,268,41123,1,0,0:0:0:0:
292,272,41409,1,8,0:0:0:0:
416,220,41552,2,0,P|452:156|380:80,1,180,8|0,0:0|0:0,0:0:0:0:
88,92,41980,5,8,0:0:0:0:
200,80,42123,2,0,L|408:60,1,180,8|0,0:0|0:0,0:0:0:0:
156,168,42552,1,8,0:0:0:0:
392,164,42838,2,0,L|444:252,1,90,8|8,0:0|0:0,0:0:0:0:
72,284,43409,2,0,L|48:172,1,90
188,192,43695,2,0,P|256:144|184:84,1,180,8|0,0:0|0:0,0:0:0:0:
76,64,44123,1,0,0:0:0:0:
460,92,44266,5,8,0:0:0:0:
356,120,44409,2,0,L|140:168,1,180,8|0,0:0|0:0,0:0:0:0:
436,184,44838,1,8,0:0:0:0:
160,256,45123,2,0,L|56:224,1,90,8|8,0:0|0:0,0:0:0:0:
344,192,45409,6,0,L|464:168,3,90
136,120,45980,1,8,0:0:0:0:
340,104,46123,2,0,P|424:108|440:208,1,180,8|0,0:0|0:0,0:0:0:0:
120,296,46552,6,0,L|56:184,1,90
208,196,46838,1,8,0:0:0:0:
340,180,46980,1,0,0:0:0:0:
120,120,47123,2,0,L|20:84,1,90
304,64,47409,2,0,L|192:64,1,90,8|0,0:0|0:0,0:0:0:0:
428,120,47695,6,0,L|528:84,1,90
376,96,47980,1,8,0:0:0:0:
240,100,48123,1,0,0:0:0:0:
448,172,48266,2,0,L|468:264,1,90
332,248,48552,1,8,0:0:0:0:
448,172,48695,1,0,0:0:0:0:
96,160,48838,5,0,0:0:0:0:
208,188,48980,1,0,0:0:0:0:
96,160,49123,1,8,0:0:0:0:
208,188,49266,1,0,0:0:0:0:
440,184,49409,2,0,L|328:208,1,90
216,224,49695,2,0,L|108:248,1,90,8|0,0:0|0:0,0:0:0:0:
344,300,49980,5,0,0:0:0:0:
468,272,50123,1,0,0:0:0:0:
344,300,50266,1,8,0:0:0:0:
468,272,50408,1,0,0:0:0:0:
168,300,50552,1,0,0:0:0:0:
48,264,50695,1,0,0:0:0:0:
168,300,50838,1,8,0:0:0:0:
48,264,50980,1,0,0:0:0:0:
376,196,51123,6,0,L|428:108,1,90
284,112,51409,1,8,0:0:0:0:
148,104,51552,1,0,0:0:0:0:
264,172,51695,2,0,L|360:160,1,90
144,240,51980,2,0,L|24:232,1,90,8|0,0:0|0:0,0:0:0:0:
448,188,52266,6,0,L|384:288,1,90
176,196,52552,1,8,0:0:0:0:
272,232,52695,1,0,0:0:0:0:
496,76,52838,2,0,L|376:76,1,90
92,128,53123,2,0,L|192:132,1,90,8|0,0:0|0:0,0:0:0:0:
488,172,53409,5,0,0:0:0:0:
380,188,53552,1,0,0:0:0:0:
476,256,53695,1,8,0:0:0:0:
176,280,53838,1,0,0:0:0:0:
288,288,53980,1,0,0:0:0:0:
184,236,54123,1,0,0:0:0:0:
296,244,54266,1,8,0:0:0:0:
60,160,54409,1,0,0:0:0:0:
440,172,54552,6,0,L|476:80,1,90,8|0,0:0|0:0,0:0:0:0:
72,172,54838,2,0,L|39:88,1,90,8|0,0:0|0:0,0:0:0:0:
496,196,55123,2,0,L|380:224,1,90,8|0,0:0|0:0,0:0:0:0:
212,180,55338,1,0,0:0:0:0:
16,196,55409,2,0,L|132:224,1,90,8|0,0:0|0:0,0:0:0:0:
500,244,55695,5,2,0:0:0:0:
284,260,55838,1,2,0:0:0:0:
68,276,55980,1,2,0:0:0:0:
176,256,56123,2,0,P|237:222|220:147,1,135,6|0,0:0|0:0,0:0:0:0:
28,136,56409,2,0,P|8:220|40:256,1,135,6|0,0:0|0:0,0:0:0:0:
324,112,56695,2,0,P|380:136|372:244,1,180,6|2,0:0|0:0,0:0:0:0:
124,232,57123,5,2,0:0:0:0:
428,112,57623,2,0,P|476:160|408:228,1,180,0|0,2:0|2:0,2:0:0:0:
128,112,57980,6,0,L|36:140,1,90,4|0,0:0|0:0,0:0:0:0:
76,200,58195,1,0,0:0:0:0:
128,244,58266,1,8,0:0:0:0:
384,112,58409,2,0,L|476:140,1,90,4|0,0:0|0:0,0:0:0:0:
436,200,58624,1,0,0:0:0:0:
384,244,58695,1,0,0:0:0:0:
78,272,58838,2,0,L|168:272,1,90,8|0,0:0|0:0,0:0:0:0:
476,152,59123,5,0,0:0:0:0:
360,152,59266,1,0,0:0:0:0:
48,164,59409,1,8,0:0:0:0:
164,156,59552,1,0,0:0:0:0:
476,60,59695,2,0,L|360:60,1,90
124,108,59980,2,0,L|224:104,1,90,8|0,0:0|0:0,0:0:0:0:
424,128,60266,5,0,0:0:0:0:
212,120,60409,2,0,L|112:112,2,90,0|8|0,0:0|0:0|0:0,0:0:0:0:
348,220,60838,2,0,L|448:216,1,90
328,140,61123,1,8,0:0:0:0:
128,140,61266,6,0,L|32:140,2,90
408,140,61695,1,8,0:0:0:0:
84,144,61838,2,0,L|108:240,1,90
380,140,62123,2,0,L|480:140,1,90,0|8,0:0|0:0,0:0:0:0:
408,228,62409,1,0,0:0:0:0:
136,168,62552,6,0,L|240:152,1,90
360,132,62838,1,8,0:0:0:0:
236,84,62980,1,0,0:0:0:0:
452,76,63123,2,0,L|488:176,1,90
184,208,63409,2,0,L|144:300,1,90,8|0,0:0|0:0,0:0:0:0:
376,128,63695,5,0,0:0:0:0:
472,184,63838,1,0,0:0:0:0:
256,264,63980,1,8,0:0:0:0:
360,252,64123,1,0,0:0:0:0:
136,128,64266,1,0,0:0:0:0:
40,184,64409,1,0,0:0:0:0:
256,264,64551,1,8,0:0:0:0:
152,252,64694,1,0,0:0:0:0:
384,116,64838,6,0,L|484:116,1,90,4|0,0:0|0:0,0:0:0:0:
364,196,65123,1,0,0:0:0:0:
120,144,65266,1,4,0:0:0:0:
60,172,65337,1,0,0:0:0:0:
32,232,65408,1,0,0:0:0:0:
52,296,65480,1,0,0:0:0:0:
108,332,65551,1,0,0:0:0:0:
396,284,65695,2,0,L|512:276,1,90,4|0,0:0|0:0,0:0:0:0:
148,108,65980,5,8,0:0:0:0:
32,108,66123,1,8,0:0:0:0:
364,108,66266,1,8,0:0:0:0:
480,108,66409,1,8,0:0:0:0:
128,208,66552,2,0,L|104:264,1,45,8|0,0:0|0:0,0:0:0:0:
256,256,66695,2,0,L|340:244,1,45,8|0,0:0|0:0,0:0:0:0:
460,220,66838,2,0,L|432:152,1,45,8|0,0:0|0:0,0:0:0:0:
284,144,66980,1,8,0:0:0:0:
216,140,67052,1,0,0:0:0:0:
40,140,67123,6,0,L|4:256,1,90,4|0,0:0|0:0,0:0:0:0:
80,244,67338,1,0,0:0:0:0:
144,260,67409,1,8,0:0:0:0:
472,140,67552,2,0,L|508:256,1,90
432,244,67767,1,0,0:0:0:0:
368,260,67838,1,0,0:0:0:0:
152,296,67980,2,0,L|44:316,1,90,8|0,0:0|0:0,0:0:0:0:
468,320,68266,6,0,L|472:208,1,90
336,212,68552,1,8,0:0:0:0:
452,140,68695,1,0,0:0:0:0:
152,144,68838,2,0,L|44:140,1,90
308,68,69123,2,0,L|408:72,1,90,8|0,0:0|0:0,0:0:0:0:
104,64,69409,5,0,0:0:0:0:
240,72,69552,2,0,L|268:168,1,90,0|8,0:0|0:0,0:0:0:0:
128,156,69838,1,0,0:0:0:0:
400,156,69980,2,0,L|504:160,2,90,0|0|8,0:0|0:0|0:0,0:0:0:0:
120,156,70409,6,0,L|232:152,2,90
392,256,70838,1,8,0:0:0:0:
116,260,70980,2,0,L|8:256,1,90
296,176,71266,2,0,L|408:172,1,90,0|8,0:0|0:0,0:0:0:0:
288,88,71552,1,0,0:0:0:0:
8,204,71695,6,0,L|120:192,1,90
312,152,71980,1,8,0:0:0:0:
196,152,72123,1,0,0:0:0:0:
504,204,72266,2,0,L|392:192,1,90
200,152,72552,1,8,0:0:0:0:
316,152,72695,1,0,0:0:0:0:
48,284,72838,5,0,0:0:0:0:
164,284,72980,1,0,0:0:0:0:
280,284,73123,1,8,0:0:0:0:
164,284,73266,1,0,0:0:0:0:
464,284,73409,1,0,0:0:0:0:
348,284,73551,1,0,0:0:0:0:
232,284,73694,1,8,0:0:0:0:
348,284,73837,1,0,0:0:0:0:
48,116,73980,5,0,0:0:0:0:
172,104,74123,2,0,L|276:96,1,90,0|8,0:0|0:0,0:0:0:0:
160,172,74409,1,0,0:0:0:0:
464,156,74552,1,0,0:0:0:0:
356,156,74695,1,0,0:0:0:0:
464,156,74838,1,8,0:0:0:0:
132,248,74980,6,0,P|236:249|320:160,1,215.999993408203
84,152,75409,1,8,0:0:0:0:
456,112,75695,5,8,0:0:0:0:
320,112,75838,1,8,0:0:0:0:
184,112,75980,1,8,0:0:0:0:
48,112,76123,1,8,0:0:0:0:
420,148,76266,6,0,P|480:192|452:296,1,180,4|0,0:0|0:0,0:0:0:0:
344,324,76695,1,0,0:0:0:0:
200,320,76838,2,0,P|100:311|44:232,1,180,8|0,0:0|0:0,0:0:0:0:
140,144,77266,1,0,0:0:0:0:
344,136,77409,6,0,P|440:136|504:192,2,180,0|0|8,0:0|0:0|0:0,0:0:0:0:
188,100,78266,2,0,L|264:148,1,90
468,96,78552,6,0,L|496:288,1,180,4|0,0:0|0:0,0:0:0:0:
276,228,79123,2,0,L|468:228,1,180,8|0,0:0|0:0,0:0:0:0:
364,132,79552,1,0,0:0:0:0:
260,128,79695,6,0,P|208:180|252:300,1,180
492,312,80266,2,0,L|384:312,1,90,8|0,0:0|0:0,0:0:0:0:
264,312,80552,2,0,L|144:308,1,90
432,208,80838,6,0,L|460:116,1,90,8|0,0:0|0:0,0:0:0:0:
80,208,81123,2,0,L|52:116,1,90,8|0,0:0|0:0,0:0:0:0:
360,128,81409,2,0,L|468:116,1,90,8|0,0:0|0:0,0:0:0:0:
112,264,81695,2,0,L|224:252,1,90,8|0,0:0|0:0,0:0:0:0:
480,288,81980,6,0,L|372:272,1,90,8|0,0:0|0:0,0:0:0:0:
152,124,82266,2,0,L|44:108,1,90,8|0,0:0|0:0,0:0:0:0:
484,104,82552,2,0,L|504:236,1,90,8|0,0:0|0:0,0:0:0:0:
28,104,82838,2,0,L|8:236,1,90,8|0,0:0|0:0,0:0:0:0:
416,160,83123,5,10,0:0:0:0:
96,160,83266,1,10,0:0:0:0:
68,220,83552,5,10,0:0:0:0:
444,220,83695,1,10,0:0:0:0:
472,276,83980,5,10,0:0:0:0:
40,276,84123,1,10,0:0:0:0:
256,192,85409,12,0,89123,0:0:0:0:
88,188,89409,5,8,0:0:0:0:
424,188,89552,1,8,0:0:0:0:
