osu file format v14

[General]
AudioFilename: audio.mp3
AudioLeadIn: 0
PreviewTime: 58310
Countdown: 0
SampleSet: Soft
StackLeniency: 0.4
Mode: 0
LetterboxInBreaks: 0
WidescreenStoryboard: 1

[Editor]
DistanceSpacing: 1.2
BeatDivisor: 4
GridSize: 32
TimelineZoom: 2

[Metadata]
Title:Uncontrollable (TV Size)
TitleUnicode:Uncontrollable (TV Size)
Artist:Ito Kanako
ArtistUnicode:いとうかなこ
Creator:schoolboy
Version:Silky's Hard
Source:CHAOS;CHILD
Tags:itou head op opening djulus mirash testo silky kanau mamayu fuyuyu- testo nextplay My Angel Kanan komore
BeatmapID:1693959
BeatmapSetID:805733

[Difficulty]
HPDrainRate:4.5
CircleSize:4
OverallDifficulty:6
ApproachRate:8.2
SliderMultiplier:1.5
SliderTickRate:1

[Events]
//Background and Video events
0,0,"image.jpg",0,0
Video,492,"chaos.mp4"
//Break Periods
//Storyboard Layer 0 (Background)
//Storyboard Layer 1 (Fail)
//Storyboard Layer 2 (Pass)
//Storyboard Layer 3 (Foreground)
//Storyboard Sound Samples

[TimingPoints]
1453,285.714285714286,4,2,1,45,1,0
1453,-133.333333333333,4,2,1,45,0,0
6024,-100,4,2,1,45,0,0
8238,-100,4,2,1,15,0,0
8310,-100,4,2,1,55,0,0
10524,-100,4,2,1,15,0,0
10595,-100,4,2,1,65,0,0
19310,-100,4,2,1,35,0,0
19667,-100,4,2,1,15,0,0
19738,-133.333333333333,4,2,1,45,0,0
27310,-100,4,2,1,45,0,0
27667,-100,4,2,1,15,0,0
27738,-100,4,2,1,50,0,0
28810,-100,4,2,1,15,0,0
28881,-100,4,2,1,55,0,0
37953,-100,4,2,1,15,0,0
38024,-100,4,2,1,50,0,0
42524,-100,4,2,1,15,0,0
42595,-100,4,2,1,50,0,0
47167,-100,4,2,1,55,0,0
51667,-100,4,2,1,15,0,0
51738,-100,4,2,1,65,0,0
54024,-100,4,2,1,70,0,0
55095,-100,4,2,1,15,0,0
55167,-100,4,2,1,70,0,0
56238,-100,4,2,1,15,0,0
56310,-100,4,2,1,75,0,0
57738,-133.333333333333,4,2,1,75,0,0
58024,-133.333333333333,4,2,1,40,0,0
58310,-100,4,2,1,40,0,0
58524,-100,4,2,1,5,0,0
58595,-100,4,2,1,75,0,0
63095,-100,4,2,1,15,0,0
63167,-100,4,2,1,75,0,0
65381,-100,4,2,1,15,0,0
65453,-100,4,2,1,75,0,0
67667,-100,4,2,1,15,0,0
67738,-100,4,2,1,75,0,0
72238,-100,4,2,1,15,0,0
72310,-100,4,2,1,75,0,0
74524,-100,4,2,1,15,0,0
74595,-100,4,2,1,75,0,0
76810,-100,4,2,1,15,0,0
76881,-100,4,2,1,60,0,0
81381,-100,4,2,1,15,0,0
81453,-100,4,2,1,70,0,0
83667,-100,4,2,1,15,0,0
83738,-100,4,2,1,70,0,0
86024,-100,4,2,1,55,0,0
90024,-100,4,2,1,65,0,0

[Colours]
Combo1 : 187,175,228
Combo2 : 255,166,166
Combo3 : 202,234,170
Combo4 : 249,164,234

[HitObjects]
17,288,1453,6,0,B|102:274|102:274|151:306|151:306|230:292,1,225,6|0,1:2|0:0,0:0:0:0:
299,234,2310,1,2,0:0:0:0:
380,271,2595,2,0,P|389:328|398:388,1,112.500004291535,0|2,1:2|0:0,0:0:0:0:
483,355,3167,2,0,P|473:297|465:238,1,112.500004291535,2|0,0:0|0:0,0:0:0:0:
496,159,3738,5,2,1:2:0:0:
424,102,4024,2,0,P|379:132|324:126,1,112.500004291535,0|2,0:0|0:0,0:0:0:0:
247,79,4595,1,0,0:0:0:0:
247,79,4881,2,0,B|225:115|225:115|247:202,1,112.500004291535,0|0,1:0|0:0,0:0:0:0:
324,221,5453,2,0,B|346:257|346:257|324:344,1,112.500004291535,0|0,1:0|0:0,0:0:0:0:
247,364,6024,5,2,1:2:0:0:
247,364,6310,2,0,L|167:352,1,75,2|0,0:0|0:0,0:0:0:0:
86,378,6595,2,0,P|46:318|73:251,1,150,0|0,0:0|0:0,0:0:0:0:
153,210,7024,1,2,0:2:0:0:
94,141,7167,6,0,P|55:146|10:153,1,75,0|0,0:0|0:0,0:0:0:0:
28,61,7453,2,0,P|66:55|112:49,1,75,10|0,0:0|0:0,0:0:0:0:
178,98,7738,1,2,1:2:0:0:
178,98,7881,1,0,0:0:0:0:
254,145,8024,2,0,P|312:150|351:101,1,112.5,8|0,0:0|0:0,0:0:0:0:
343,67,8310,6,0,B|442:42|442:42|456:64|489:73,1,150,2|0,1:2|0:0,0:0:0:0:
510,154,8738,2,0,B|529:217|489:261|489:261|467:232,1,150,2|0,1:2|0:0,0:0:0:0:
418,156,9167,1,2,1:2:0:0:
418,156,9453,5,2,1:2:0:0:
332,181,9595,1,2,1:2:0:0:
319,270,9738,1,10,0:2:0:0:
390,324,9881,1,2,1:2:0:0:
390,324,10310,2,0,P|334:313|304:369,1,112.5,2|2,0:1|0:1,0:0:0:0:
263,372,10595,6,0,B|154:383|154:383|145:364|116:347,1,150,6|8,1:2|0:0,0:0:0:0:
190,289,11024,1,0,0:0:0:0:
116,236,11167,2,0,P|77:240|32:247,1,75,2|0,1:2|0:0,0:0:0:0:
48,155,11453,2,0,P|86:150|132:144,1,75,8|0,0:0|0:0,0:0:0:0:
209,169,11738,6,0,P|204:125|199:84,1,75,2|0,1:2|0:0,0:0:0:0:
274,42,12024,1,8,0:0:0:0:
274,42,12167,1,0,0:0:0:0:
351,87,12310,2,0,P|389:82|435:76,1,75,2|0,1:2|0:0,0:0:0:0:
488,141,12595,2,0,P|499:176|489:212,1,75,8|0,0:0|0:0,0:0:0:0:
439,287,12881,6,0,B|388:278|388:278|355:294|355:294|294:281,1,150,6|8,1:2|0:0,0:0:0:0:
235,212,13310,1,0,0:0:0:0:
163,266,13453,2,0,P|170:301|179:346,1,75,2|0,1:2|0:0,0:0:0:0:
101,384,13738,2,0,P|60:376|1:368,1,75,8|0,0:0|0:0,0:0:0:0:
0,284,14024,5,2,1:2:0:0:
0,284,14167,1,0,0:0:0:0:
69,227,14310,2,0,P|61:191|53:147,1,75,8|0,0:0|0:0,0:0:0:0:
129,104,14595,1,0,1:2:0:0:
72,33,14738,2,0,P|30:42|-9:50,2,75,2|2|2,1:0|1:0|1:0,0:0:0:0:
129,104,15167,6,0,B|226:81|184:139|272:121,1,150,6|8,1:2|0:0,0:0:0:0:
332,54,15595,1,0,0:0:0:0:
407,103,15738,2,0,P|414:62|422:21,1,75,2|0,1:2|0:0,0:0:0:0:
498,76,16024,2,0,P|490:116|483:158,1,75,8|0,0:0|0:0,0:0:0:0:
406,197,16310,6,0,P|414:237|421:279,1,75,2|0,1:2|0:0,0:0:0:0:
373,348,16595,1,8,0:0:0:0:
373,348,16738,1,0,0:0:0:0:
290,312,16881,2,0,P|251:307|207:334,1,75,2|0,1:2|0:0,0:0:0:0:
150,380,17167,2,0,P|111:385|67:358,1,75,8|0,0:0|0:0,0:0:0:0:
14,307,17453,1,0,0:0:0:0:
66,234,17595,6,0,L|49:149,1,75,2|8,1:2|0:0,0:0:0:0:
186,40,18024,2,0,L|171:113,1,75,2|8,1:2|0:0,0:0:0:0:
268,265,18453,2,0,L|358:249,1,75,2|8,1:2|0:0,0:0:0:0:
433,96,18881,2,0,L|343:80,1,75,2|8,1:2|0:0,0:0:0:0:
487,210,19310,5,2,0:0:0:0:
487,210,19453,2,2,B|501:246|501:246|484:326,1,112.5,2|2,1:1|0:1,1:0:0:0:
474,361,19738,5,2,1:2:0:0:
474,361,19881,2,0,P|389:340|314:387,1,168.750006437302,0|2,1:2|0:0,0:0:0:0:
244,330,20595,1,8,0:0:0:0:
244,330,20738,2,0,B|232:276|232:276|254:223|254:223|239:157,1,168.750006437302,2|2,1:2|0:0,0:0:0:0:
162,212,21453,2,0,P|104:228|65:190,1,112.500004291535,2|0,0:0|0:0,0:0:0:0:
42,110,22024,5,2,1:2:0:0:
42,110,22167,2,0,B|93:110|119:72|119:72|162:59|212:105,1,168.750006437302,0|2,1:2|0:0,0:0:0:0:
241,168,22881,1,8,0:0:0:0:
241,168,23024,2,0,P|330:184|382:120,1,168.750006437302,2|2,1:2|0:0,0:0:0:0:
446,73,23738,2,0,B|474:98|474:98|461:177,1,112.500004291535,0|2,0:0|0:0,0:0:0:0:
491,257,24310,5,2,1:2:0:0:
491,257,24453,2,0,B|397:240|432:307|327:295,1,168.750006437302,0|0,1:2|0:0,0:0:0:0:
265,355,25167,1,8,0:0:0:0:
265,355,25310,2,0,P|211:347|134:342,1,112.500004291535,2|0,1:2|0:0,0:0:0:0:
108,343,25738,1,0,0:0:0:0:
54,270,26024,2,0,P|27:275|-19:282,2,56.2500021457673,0|2|2,0:0|0:0|0:0,0:0:0:0:
118,206,26595,5,0,1:2:0:0:
118,206,26738,2,0,L|101:72,1,112.500004291535,0|2,1:2|0:0,0:0:0:0:
163,26,27310,1,0,1:2:0:0:
163,26,27453,2,0,P|224:16|251:73,1,112.5,0|0,1:2|0:0,0:0:0:0:
252,96,27738,6,0,B|314:108|314:108|346:89|346:89|412:103,1,150,2|8,1:2|0:0,0:0:0:0:
471,51,28167,2,0,P|426:115|445:182,1,150,2|2,1:2|1:2,0:0:0:0:
492,254,28595,2,0,B|457:276|457:276|372:254,1,112.5,2|0,1:2|0:0,0:0:0:0:
344,246,28881,6,0,P|334:283|323:339,1,75,4|0,1:2|0:0,0:0:0:0:
250,367,29167,2,0,P|241:330|232:293,1,75,8|0,0:0|0:0,0:0:0:0:
162,236,29453,2,0,P|86:224|38:282,1,150,2|8,1:2|0:0,0:0:0:0:
5,356,29881,6,0,B|89:389|73:320|154:355,1,150,2|0,0:0|0:0,0:0:0:0:
234,381,30310,1,8,0:0:0:0:
234,381,30453,1,2,0:0:0:0:
292,313,30595,2,0,P|283:276|274:239,1,75,0|0,1:0|0:0,0:0:0:0:
343,180,30881,2,0,P|377:189|433:205,1,75,8|0,0:0|0:0,0:0:0:0:
494,156,31167,6,0,P|514:116|497:70,1,75,2|0,1:2|0:0,0:0:0:0:
439,28,31453,1,8,0:0:0:0:
357,65,31595,2,0,P|322:55|267:40,1,75,2|0,0:0|1:0,0:0:0:0:
210,97,31881,2,0,P|173:107|137:116,1,75,0|8,0:0|0:0,0:0:0:0:
68,58,32167,6,0,B|43:100|43:100|56:141|69:210,1,150,2|0,0:0|0:0,0:0:0:0:
125,267,32595,1,8,0:0:0:0:
125,267,32738,1,0,0:0:0:0:
71,339,32881,2,0,P|107:347|144:354,1,75,2|0,1:2|0:0,0:0:0:0:
222,308,33167,2,0,P|228:272|240:219,1,75,8|0,0:0|0:0,0:0:0:0:
310,181,33453,6,0,P|317:217|324:254,1,75,2|0,1:2|0:0,0:0:0:0:
306,342,33738,1,8,0:0:0:0:
388,375,33881,2,0,P|424:355|469:368,1,75,2|0,0:0|1:0,0:0:0:0:
512,289,34167,2,0,P|508:254|470:220,1,75,0|8,0:0|0:0,0:0:0:0:
407,173,34453,6,0,B|375:88|438:112|404:9,1,150,2|0,0:0|0:0,0:0:0:0:
326,61,34881,1,8,0:0:0:0:
326,61,35024,1,0,0:0:0:0:
240,33,35167,2,0,P|246:65|257:122,1,75,2|0,1:2|0:0,0:0:0:0:
174,149,35453,2,0,P|137:141|92:135,1,75,8|0,0:0|0:0,0:0:0:0:
50,211,35738,6,0,P|125:221|198:237,1,150,2|8,1:2|0:0,0:0:0:0:
277,191,36167,2,0,P|230:255|255:325,1,150,2|2,0:0|0:0,0:0:0:0:
322,368,36595,2,0,P|357:360|404:353,1,75,10|0,0:0|1:2,0:0:0:0:
468,299,36881,5,6,1:2:0:0:
468,299,37024,2,0,B|446:202|446:202|470:182|479:149,1,150,2|0,1:2|0:0,0:0:0:0:
392,124,37453,2,0,P|358:147|300:132,1,75,2|0,1:2|1:2,0:0:0:0:
247,192,37738,2,0,P|206:156|135:169,1,112.5,8|0,0:0|0:0,0:0:0:0:
115,187,38024,5,2,1:2:0:0:
115,187,38167,2,0,P|69:122|114:58,1,150,0|2,1:2|0:0,0:0:0:0:
179,28,38595,2,0,B|235:40|235:40|267:25|267:25|322:37,1,150,2|8,1:2|0:0,0:0:0:0:
408,67,39024,6,0,B|397:94|375:109|375:109|396:222,1,150,2|0,1:2|0:0,0:0:0:0:
464,258,39453,2,0,L|448:347,1,75,8|0,0:0|0:0,0:0:0:0:
367,365,39738,2,0,P|302:318|224:350,1,150,2|0,1:2|0:0,0:0:0:0:
240,335,40310,5,2,1:2:0:0:
157,372,40453,2,0,B|63:382|114:329|0:350,1,150,0|0,1:2|0:0,0:0:0:0:
39,261,40881,2,0,P|27:178|16:108,1,150,0|8,1:2|0:0,0:0:0:0:
82,50,41310,6,0,P|161:37|205:106,1,150,2|2,1:2|0:0,0:0:0:0:
221,173,41738,2,0,P|187:167|136:158,1,75,8|0,0:0|0:0,0:0:0:0:
127,249,42024,2,0,P|160:254|212:264,1,75,2|0,1:2|0:0,0:0:0:0:
256,333,42310,2,0,P|312:322|377:314,1,112.5,0|0,0:0|0:0,0:0:0:0:
402,341,42595,5,2,1:2:0:0:
402,341,42738,2,0,P|450:291|414:203,1,150,0|0,1:2|0:0,0:0:0:0:
352,176,43167,2,0,B|337:119|337:119|354:85|354:85|338:34,1,150,0|8,1:2|0:0,0:0:0:0:
260,78,43595,6,0,B|221:91|190:64|190:64|152:54|108:89,1,150,2|2,1:2|0:0,0:0:0:0:
36,43,44024,2,0,P|24:83|35:115,1,75,8|0,0:0|0:0,0:0:0:0:
101,174,44310,2,0,B|125:275|125:275|99:290|90:322,1,150,2|0,1:2|0:0,0:0:0:0:
94,308,44881,5,2,1:2:0:0:
171,354,45024,2,0,B|214:334|214:334|251:373|308:362,1,150,0|0,1:2|0:0,0:0:0:0:
397,377,45453,2,0,P|426:317|367:238,1,150,2|8,1:2|0:0,0:0:0:0:
319,191,45881,6,0,P|246:204|153:221,1,150,2|2,1:2|1:2,0:0:0:0:
81,203,46310,2,0,P|65:170|75:123,1,75,8|0,0:0|1:2,0:0:0:0:
117,56,46595,1,2,1:2:0:0:
204,76,46738,2,0,B|299:99|299:99|328:86|321:37,1,150,4|0,1:2|0:0,0:0:0:0:
402,12,47167,6,0,P|462:35|453:125,1,150,6|8,1:2|0:0,0:0:0:0:
389,161,47595,1,2,0:0:0:0:
337,234,47738,2,0,P|374:243|431:256,1,75,0|0,1:2|0:0,0:0:0:0:
463,324,48024,2,0,P|426:332|390:341,1,75,8|0,0:0|0:0,0:0:0:0:
304,371,48310,6,0,P|267:361|231:353,1,75,6|0,1:2|0:0,0:0:0:0:
157,300,48595,2,0,P|151:334|143:390,1,75,8|2,0:0|0:0,0:0:0:0:
66,330,48881,2,0,P|77:254|91:171,1,150,0|8,1:2|0:0,0:0:0:0:
31,111,49310,1,2,0:0:0:0:
84,38,49453,6,0,B|180:15|139:77|227:56,1,150,6|8,1:2|0:0,0:0:0:0:
300,5,49881,1,0,0:0:0:0:
383,38,50024,2,0,P|377:71|368:121,1,75,0|0,1:2|0:0,0:0:0:0:
292,159,50310,2,0,P|298:192|307:242,1,75,8|0,0:0|0:0,0:0:0:0:
386,272,50595,6,0,P|423:267|460:260,1,75,2|0,1:2|0:0,0:0:0:0:
507,337,50881,1,8,0:0:0:0:
507,337,51024,1,0,0:0:0:0:
424,372,51167,2,0,P|386:376|349:383,1,75,0|2,1:2|0:0,0:0:0:0:
276,330,51453,2,0,P|228:305|162:332,1,112.5,8|0,0:0|0:0,0:0:0:0:
144,352,51738,6,0,P|108:362|61:335,1,75,6|0,1:2|0:0,0:0:0:0:
0,295,52024,2,0,P|8:255|20:199,1,75,2|0,1:2|3:0,0:0:0:0:
91,172,52310,2,0,P|83:135|75:98,1,75,2|0,1:2|3:2,0:0:0:0:
137,33,52595,1,8,0:0:0:0:
137,33,52738,1,0,3:0:0:0:
210,85,52881,6,0,P|251:89|291:62,1,75,6|0,1:2|0:0,0:0:0:0:
349,15,53167,2,0,P|390:11|430:38,1,75,8|0,0:0|3:0,0:0:0:0:
475,96,53453,2,0,L|456:190,1,75,2|0,1:2|3:0,0:0:0:0:
384,218,53738,1,8,0:0:0:0:
384,218,53881,1,2,3:2:0:0:
440,288,54024,6,0,P|445:328|425:364,1,75,6|0,1:2|3:0,0:0:0:0:
342,382,54310,2,0,L|254:366,1,75,8|0,0:0|3:0,0:0:0:0:
195,315,54595,2,0,P|152:310|113:332,1,75,6|0,1:2|3:0,0:0:0:0:
47,372,54881,2,0,B|30:335|30:335|54:244,1,112.5,8|0,0:0|0:0,0:0:0:0:
60,221,55167,6,0,P|55:177|50:139,1,75,6|0,1:2|3:0,0:0:0:0:
117,84,55453,1,12,0:0:0:0:
117,84,55595,1,0,3:0:0:0:
181,146,55738,2,0,P|218:140|272:131,1,75,6|2,1:2|3:2,0:0:0:0:
317,199,56024,2,0,P|365:233|436:211,1,112.5,8|0,0:0|0:0,0:0:0:0:
453,202,56310,5,6,1:2:0:0:
502,126,56453,1,2,1:2:0:0:
453,50,56595,1,10,0:2:0:0:
363,56,56738,1,2,1:2:0:0:
363,56,57024,6,0,L|280:37,1,75,6|0,1:2|0:0,0:0:0:0:
217,93,57310,2,0,P|143:77|86:122,1,150,6|2,1:2|1:2,0:0:0:0:
22,61,57738,6,0,P|0:112|11:166,1,112.500004291535,8|0,0:0|0:0,0:0:0:0:
244,215,58310,2,0,P|253:276|212:334,1,112.5,0|0,0:0|0:0,0:0:0:0:
195,348,58595,6,0,B|143:335|143:335|107:353|107:353|49:342,1,150,6|8,1:2|0:0,0:0:0:0:
95,263,59024,1,2,0:0:0:0:
11,230,59167,2,0,P|4:187|-2:147,1,75,0|0,3:0|0:0,0:0:0:0:
48,79,59453,1,8,0:0:0:0:
119,130,59595,6,0,P|189:153|251:115,1,150,2|2,0:0|0:0,0:0:0:0:
310,47,60024,2,0,L|395:38,1,75,10|0,0:0|0:0,0:0:0:0:
468,3,60310,2,0,B|496:98|432:63|463:147,1,150,2|8,3:2|0:0,0:0:0:0:
502,227,60738,1,0,0:0:0:0:
453,302,60881,6,0,P|415:292|371:283,1,75,0|2,1:2|0:0,0:0:0:0:
310,225,61167,2,0,P|273:232|237:242,1,75,8|0,0:0|0:0,0:0:0:0:
156,200,61453,1,0,3:0:0:0:
200,122,61595,2,0,P|206:83|179:42,1,75,0|8,0:0|0:0,0:0:0:0:
106,17,61881,6,0,P|43:38|28:119,1,150,2|2,0:0|0:0,0:0:0:0:
83,183,62310,1,8,0:0:0:0:
23,250,62453,2,0,P|31:285|39:336,1,75,2|0,0:0|3:0,0:0:0:0:
108,378,62738,1,2,0:0:0:0:
190,341,62881,2,0,B|228:326|228:326|315:350,1,112.5,8|0,0:0|0:0,0:0:0:0:
337,364,63167,6,0,L|356:279,1,75,6|0,1:2|0:0,0:0:0:0:
299,217,63453,2,0,L|282:143,1,75,10|0,0:0|0:0,0:0:0:0:
308,57,63738,2,0,B|340:70|351:87|351:87|451:69,1,150,0|8,1:0|0:0,0:0:0:0:
502,141,64167,6,0,B|486:199|486:199|502:231|502:231|487:295,1,150,2|0,0:0|0:0,0:0:0:0:
432,353,64595,2,0,P|400:334|351:342,1,75,10|0,0:0|0:0,0:0:0:0:
287,286,64881,2,0,P|255:304|218:302,1,75,0|0,1:0|3:0,0:0:0:0:
153,238,65167,2,0,B|122:273|122:273|140:366,1,112.5,8|2,0:0|0:3,0:0:0:0:
164,371,65453,6,0,P|65:366|45:320,1,150,6|8,1:2|0:0,0:0:0:0:
33,241,65881,2,0,B|64:202|64:202|42:82,1,150,2|0,1:2|1:0,0:0:0:0:
117,47,66310,2,0,P|123:82|132:130,1,75,8|0,0:0|0:0,0:0:0:0:
207,167,66595,5,2,1:2:0:0:
207,167,66738,1,0,3:2:0:0:
266,99,66881,2,0,L|355:88,1,75,10|2,0:0|0:0,0:0:0:0:
424,56,67167,2,0,L|432:115,3,37.5,2|0|2|0,1:2|0:0|0:0|0:0,0:0:0:0:
462,123,67453,2,0,P|413:170|436:215,1,112.5,10|0,0:0|0:0,0:0:0:0:
456,236,67738,6,0,B|371:215|394:276|304:257,1,150,6|8,1:2|0:0,0:0:0:0:
238,206,68167,1,2,0:0:0:0:
172,267,68310,2,0,P|177:306|181:353,1,75,0|0,3:2|0:0,0:0:0:0:
103,384,68595,1,8,0:0:0:0:
23,341,68738,6,0,P|1:282|56:219,1,150,2|2,0:0|0:0,0:0:0:0:
130,175,69167,2,0,P|123:134|118:93,1,75,8|0,0:0|0:0,0:0:0:0:
184,37,69453,2,0,B|281:60|281:60|300:39|335:30,1,150,0|8,3:2|0:0,0:0:0:0:
356,117,69881,1,2,0:0:0:0:
428,64,70024,6,0,P|446:108|443:143,1,75,0|2,1:2|0:0,0:0:0:0:
463,223,70310,2,0,P|428:213|382:205,1,75,8|0,0:0|0:0,0:0:0:0:
313,253,70595,1,0,3:2:0:0:
284,338,70738,2,0,P|247:345|210:354,1,75,0|8,0:0|0:0,0:0:0:0:
163,277,71024,6,0,P|173:196|186:108,1,150,2|2,0:0|0:0,0:0:0:0:
101,87,71453,1,8,0:0:0:0:
28,138,71595,2,0,L|43:219,1,75,2|0,0:0|3:0,0:0:0:0:
1,292,71881,1,2,0:0:0:0:
67,352,72024,2,0,P|112:325|189:350,1,112.5,8|0,0:0|0:0,0:0:0:0:
209,354,72310,6,0,L|222:265,1,75,6|0,1:2|0:0,0:0:0:0:
291,225,72595,2,0,L|280:150,1,75,10|0,0:0|0:0,0:0:0:0:
330,75,72881,2,0,P|278:115|200:90,1,150,0|8,3:0|0:0,0:0:0:0:
145,22,73310,6,0,B|106:58|106:58|125:160,1,150,2|0,0:0|0:0,0:0:0:0:
66,222,73738,2,0,P|98:240|148:234,1,75,8|0,0:0|0:0,0:0:0:0:
219,279,74024,2,0,L|311:266,1,75,0|0,3:0|3:0,0:0:0:0:
367,321,74310,2,0,P|408:285|480:297,1,112.5,8|0,0:0|0:0,0:0:0:0:
504,305,74595,6,0,L|512:230,1,75,2|0,1:2|3:0,0:0:0:0:
436,180,74881,2,0,L|427:105,1,75,8|0,0:0|3:0,0:0:0:0:
359,45,75167,1,6,1:2:0:0:
270,30,75310,1,2,0:0:0:0:
206,94,75453,1,8,0:0:0:0:
117,79,75595,6,0,B|104:133|104:133|119:172|119:172|103:244,1,150,6|0,1:2|1:0,0:0:0:0:
29,269,76024,2,0,L|44:347,1,75,8|0,0:0|0:0,0:0:0:0:
126,378,76310,1,2,1:0:0:0:
126,378,76453,1,2,1:0:0:0:
188,314,76595,2,0,B|221:286|221:286|310:315,1,112.5,2|0,1:0|0:0,0:0:0:0:
329,321,76881,5,6,1:2:0:0:
329,321,77024,2,0,B|422:309|386:365|483:350,1,150,0|0,0:0|0:0,0:0:0:0:
458,261,77453,2,0,B|440:167|440:167|468:155|484:127,1,150,0|8,1:2|0:0,0:0:0:0:
406,80,77881,6,0,B|307:106|307:106|283:87|296:57,1,150,0|0,1:2|0:0,0:0:0:0:
218,12,78310,2,0,P|200:46|205:92,1,75,0|0,1:0|0:0,0:0:0:0:
222,169,78595,2,0,B|180:178|153:158|153:158|130:189|80:190,1,150,8|8,0:0|0:0,0:0:0:0:
84,189,79167,6,0,L|96:276,1,75,0|0,1:0|0:0,0:0:0:0:
5,243,79453,2,0,L|17:330,1,75,0|0,1:0|0:0,0:0:0:0:
92,362,79738,2,0,B|142:364|167:332|167:332|200:328|232:364,1,150,8|8,0:0|0:0,0:0:0:0:
315,366,80167,6,0,B|324:324|292:293|292:293|334:197,1,150,2|0,1:2|0:0,0:0:0:0:
396,277,80595,2,0,L|481:264,1,75,2|0,1:2|0:0,0:0:0:0:
472,174,80881,2,0,L|397:185,1,75,2|0,1:2|0:0,0:0:0:0:
317,143,81167,2,0,P|295:106|322:41,1,112.5,8|0,0:0|0:0,0:0:0:0:
290,7,81453,6,0,L|192:21,1,75,2|0,1:2|3:0,0:0:0:0:
169,94,81738,2,0,L|94:83,1,75,8|0,0:0|3:0,0:0:0:0:
17,130,82024,2,0,P|7:167|30:217,1,75,2|0,1:2|3:0,0:0:0:0:
8,291,82310,2,0,P|42:317|93:313,1,75,8|0,0:0|3:0,0:0:0:0:
158,348,82595,6,0,L|147:258,1,75,2|0,1:2|3:0,0:0:0:0:
212,209,82881,2,0,L|313:226,1,75,12|0,0:0|3:0,0:0:0:0:
352,282,83167,1,6,1:2:0:0:
352,282,83310,1,2,1:3:0:0:
409,351,83453,2,0,P|443:302|423:233,1,112.5,8|0,0:0|0:0,0:0:0:0:
411,215,83738,6,0,L|436:137,1,75,2|8,1:2|0:0,0:0:0:0:
302,19,84167,2,0,P|327:57|317:100,1,75,2|8,1:2|0:0,0:0:0:0:
193,207,84595,2,0,L|100:193,1,75,2|8,1:2|0:0,0:0:0:0:
54,131,84881,5,0,0:0:0:0:
54,131,86024,1,4,0:0:0:0:
256,192,86095,12,0,89453,0:0:0:0:
54,131,90024,5,2,1:0:0:0:
141,110,90167,1,2,1:0:0:0:
120,197,90310,1,2,1:0:0:0:
33,218,90453,1,2,1:0:0:0:
