osu file format v14

[General]
AudioFilename: audio.mp3
AudioLeadIn: 0
PreviewTime: 58310
Countdown: 0
SampleSet: Soft
StackLeniency: 0.4
Mode: 0
LetterboxInBreaks: 0
WidescreenStoryboard: 1

[Editor]
DistanceSpacing: 0.8
BeatDivisor: 4
GridSize: 32
TimelineZoom: 2

[Metadata]
Title:Uncontrollable (TV Size)
TitleUnicode:Uncontrollable (TV Size)
Artist:Ito Kanako
ArtistUnicode:いとうかなこ
Creator:schoolboy
Version:Normal
Source:CHAOS;CHILD
Tags:itou head op opening djulus mirash testo silky kanau mamayu fuyuyu- testo nextplay My Angel Kanan komore
BeatmapID:1694027
BeatmapSetID:805733

[Difficulty]
HPDrainRate:2
CircleSize:3
OverallDifficulty:3
ApproachRate:4
SliderMultiplier:1.1
SliderTickRate:1

[Events]
//Background and Video events
0,0,"image.jpg",0,0
Video,492,"chaos.mp4"
//Break Periods
//Storyboard Layer 0 (Background)
//Storyboard Layer 1 (Fail)
//Storyboard Layer 2 (Pass)
//Storyboard Layer 3 (Foreground)
//Storyboard Sound Samples

[TimingPoints]
1453,285.714285714286,4,2,1,45,1,0
1453,-100,4,2,1,45,0,0
6024,-100,4,2,1,45,0,0
8238,-100,4,2,1,45,0,0
8310,-100,4,2,1,55,0,0
10524,-100,4,2,1,15,0,0
10595,-100,4,2,1,65,0,0
14774,-100,4,2,1,15,0,0
14881,-100,4,2,1,65,0,0
14917,-100,4,2,1,15,0,0
15024,-100,4,2,1,65,0,0
15060,-100,4,2,1,15,0,0
15167,-100,4,2,1,65,0,0
19310,-100,4,2,1,35,0,0
19381,-100,4,2,1,15,0,0
19453,-100,4,2,1,35,0,0
19667,-100,4,2,1,15,0,0
19738,-100,4,2,1,45,0,0
27310,-100,4,2,1,45,0,0
27667,-100,4,2,1,15,0,0
27738,-100,4,2,1,50,0,0
28810,-100,4,2,1,15,0,0
28881,-100,4,2,1,55,0,0
29381,-100,4,2,1,5,0,0
29453,-100,4,2,1,55,0,0
35667,-100,4,2,1,5,0,0
35738,-100,4,2,1,55,0,0
37953,-100,4,2,1,55,0,0
38024,-100,4,2,1,50,0,0
42524,-100,4,2,1,50,0,0
42595,-100,4,2,1,50,0,0
47167,-100,4,2,1,55,0,0
51667,-100,4,2,1,55,0,0
51738,-100,4,2,1,65,0,0
54024,-100,4,2,1,70,0,0
55095,-100,4,2,1,70,0,0
55167,-100,4,2,1,70,0,0
56238,-100,4,2,1,15,0,0
56310,-100,4,2,1,75,0,0
57524,-100,4,2,1,15,0,0
57595,-100,4,2,1,75,0,0
58310,-100,4,2,1,40,0,0
58524,-100,4,2,1,5,0,0
58595,-100,4,2,1,75,0,0
60238,-100,4,2,1,5,0,0
60310,-100,4,2,1,75,0,0
63095,-100,4,2,1,75,0,0
63167,-100,4,2,1,75,0,0
65381,-100,4,2,1,75,0,0
65453,-100,4,2,1,75,0,0
67667,-100,4,2,1,75,0,0
67738,-100,4,2,1,75,0,0
72238,-100,4,2,1,75,0,0
72310,-100,4,2,1,75,0,0
74524,-100,4,2,1,75,0,0
74595,-100,4,2,1,75,0,0
76238,-100,4,2,1,15,0,0
76310,-100,4,2,1,75,0,0
76345,-100,4,2,1,15,0,0
76453,-100,4,2,1,75,0,0
76488,-100,4,2,1,15,0,0
76595,-100,4,2,1,75,0,0
76631,-100,4,2,1,15,0,0
76738,-100,4,2,1,75,0,0
76774,-100,4,2,1,15,0,0
76810,-100,4,2,1,15,0,0
76881,-100,4,2,1,60,0,0
81381,-100,4,2,1,60,0,0
81453,-100,4,2,1,70,0,0
83667,-100,4,2,1,70,0,0
83738,-100,4,2,1,70,0,0
86024,-100,4,2,1,55,0,0
90024,-100,4,2,1,65,0,0

[Colours]
Combo1 : 187,175,228
Combo2 : 255,166,166
Combo3 : 202,234,170
Combo4 : 249,164,234

[HitObjects]
353,240,1453,6,0,P|418:192|498:207,2,165,6|0|2,1:2|0:0|0:0,0:0:0:0:
274,279,2595,1,0,1:2:0:0:
118,361,3167,2,0,P|105:287|87:237,1,110,2|0,0:0|0:0,0:0:0:0:
24,199,3738,5,2,1:2:0:0:
131,59,4310,2,0,P|201:78|240:77,1,110,2|0,0:0|0:0,0:0:0:0:
311,27,4881,1,0,1:0:0:0:
447,120,5453,2,0,P|437:173|428:233,1,110,0|0,1:0|0:0,0:0:0:0:
482,298,6024,5,2,1:2:0:0:
417,358,6310,2,0,P|346:344|302:334,1,110,2|0,0:0|1:0,0:0:0:0:
227,367,6881,1,0,0:0:0:0:
143,338,7167,2,0,P|124:287|143:236,1,110,0|10,1:0|0:0,0:0:0:0:
209,179,7738,2,0,P|269:189|324:195,1,110,2|8,1:2|0:0,0:0:0:0:
399,227,8310,6,0,P|410:146|427:65,2,165,2|2|2,1:2|1:2|1:2,0:0:0:0:
461,288,9453,2,0,B|340:258|369:354|250:321,1,220,2|0,1:2|0:0,0:0:0:0:
96,240,10595,6,0,P|86:185|76:126,1,110,6|8,1:2|0:0,0:0:0:0:
148,79,11167,2,0,P|203:89|259:93,1,110,2|8,1:2|0:0,0:0:0:0:
328,41,11738,1,2,1:2:0:0:
410,72,12024,1,8,0:0:0:0:
447,151,12310,2,0,P|438:207|427:275,1,110,2|8,1:2|0:0,0:0:0:0:
370,324,12881,6,0,P|311:300|257:314,1,110,6|8,1:2|0:0,0:0:0:0:
189,350,13453,2,0,P|182:293|174:234,1,110,2|8,1:2|0:0,0:0:0:0:
98,196,14024,2,0,P|102:141|107:86,1,110,2|8,1:2|0:0,0:0:0:0:
167,22,14595,1,0,1:2:0:0:
244,64,14881,1,2,1:0:0:0:
322,23,15167,6,0,P|381:33|444:42,1,110,6|8,1:2|0:0,0:0:0:0:
493,101,15738,2,0,P|477:194|472:221,1,110,2|8,1:2|0:0,0:0:0:0:
511,289,16310,1,2,1:2:0:0:
458,359,16595,1,8,0:0:0:0:
380,317,16881,2,0,P|316:299|237:367,1,165,2|0,1:2|0:0,0:0:0:0:
157,326,17595,6,0,L|144:263,1,55,2|8,1:2|0:0,0:0:0:0:
66,233,18024,2,0,L|80:160,1,55,2|8,1:2|0:0,0:0:0:0:
26,106,18453,2,0,L|91:91,1,55,2|8,1:2|0:0,0:0:0:0:
148,38,18881,2,0,P|178:43|209:47,1,55,2|8,1:2|0:0,0:0:0:0:
275,96,19310,2,2,P|329:85|384:78,1,110,2|0,0:1|0:1,0:1:0:0:
422,98,19738,6,0,L|410:157,1,55,2|0,1:2|1:2,0:0:0:0:
272,323,20595,2,0,L|259:256,1,55,8|2,0:0|1:2,0:0:0:0:
148,200,21167,2,0,P|103:195|49:230,2,110,2|2|0,0:0|0:0|0:0,0:0:0:0:
214,141,22024,6,0,L|221:79,1,55,2|0,1:2|1:2,0:0:0:0:
402,209,22881,2,0,L|411:272,1,55,8|2,0:0|1:2,0:0:0:0:
307,348,23453,2,0,P|253:341|198:335,1,110,2|0,0:0|0:0,0:0:0:0:
117,370,24024,1,2,0:0:0:0:
45,318,24310,6,0,L|57:256,1,55,2|0,1:2|1:2,0:0:0:0:
187,87,25167,2,0,L|197:140,1,55,8|2,0:0|1:2,0:0:0:0:
307,213,25738,2,0,P|364:229|428:193,2,110,0|0|2,0:0|0:0|0:0,0:0:0:0:
240,271,26595,6,0,P|163:243|74:278,2,165,0|2|0,1:2|0:0|1:2,0:0:0:0:
307,213,27738,1,2,1:2:0:0:
231,104,28167,2,0,P|151:114|51:124,1,165,2|2,1:2|1:2,0:0:0:0:
15,193,28881,5,4,1:2:0:0:
68,263,29167,2,0,P|130:281|180:262,1,110,8|2,0:0|1:2,0:0:0:0:
240,212,29738,1,8,0:0:0:0:
313,260,30024,2,0,P|367:252|421:245,1,110,0|8,1:2|0:0,0:0:0:0:
491,299,30595,2,0,P|510:252|493:193,1,110,0|8,1:0|0:0,0:0:0:0:
435,131,31167,6,0,P|442:76|451:22,1,110,2|8,1:2|0:0,0:0:0:0:
364,37,31738,2,0,P|312:47|251:49,1,110,0|8,1:0|0:0,0:0:0:0:
173,14,32310,2,0,B|122:133|206:105|152:227,1,220,0|2,1:0|1:2,0:0:0:0:
78,273,33167,1,8,0:0:0:0:
129,344,33453,6,0,L|242:328,1,110,2|8,1:2|0:0,0:0:0:0:
293,261,34024,2,0,P|348:256|401:272,1,110,0|8,1:0|0:0,0:0:0:0:
469,328,34595,1,0,1:2:0:0:
508,249,34881,1,8,0:0:0:0:
465,171,35167,2,0,L|479:44,1,110,2|8,1:2|0:0,0:0:0:0:
399,20,35738,6,0,B|299:39|359:79|255:101,2,165,2|0|10,1:2|0:0|0:0,0:0:0:0:
477,61,36881,2,0,L|468:125,1,55,6|2,1:2|1:2,0:0:0:0:
368,201,37453,2,0,L|380:277,1,55,2|0,1:2|1:2,0:0:0:0:
456,360,38024,6,0,L|392:353,1,55,2|0,1:2|1:2,0:0:0:0:
272,383,38595,1,2,1:2:0:0:
203,327,38881,2,0,L|212:265,1,55,8|2,0:0|1:2,0:0:0:0:
292,168,39453,1,8,0:0:0:0:
229,105,39738,2,0,P|177:116|119:127,1,110,2|0,1:2|0:0,0:0:0:0:
58,188,40310,6,0,L|46:257,1,55,2|0,1:2|1:2,0:0:0:0:
130,346,40881,1,0,1:2:0:0:
198,291,41167,2,0,L|186:222,1,55,8|2,0:0|1:2,0:0:0:0:
280,141,41738,1,8,0:0:0:0:
353,189,42024,2,0,P|407:176|472:161,1,110,2|0,1:2|0:0,0:0:0:0:
509,236,42595,6,0,L|494:296,1,55,2|0,1:2|1:2,0:0:0:0:
397,378,43167,1,0,1:2:0:0:
316,342,43453,2,0,L|252:356,1,55,8|2,0:0|1:2,0:0:0:0:
146,290,44024,2,0,P|153:235|161:181,1,110,8|2,0:0|1:2,0:0:0:0:
212,109,44595,1,0,0:0:0:0:
144,52,44881,6,0,L|72:64,1,55,2|0,1:2|1:2,0:0:0:0:
35,181,45453,1,2,1:2:0:0:
101,237,45738,2,0,L|173:225,1,55,8|2,0:0|1:2,0:0:0:0:
223,284,46167,2,0,B|344:299|292:227|383:185|457:226|464:286,1,275,2|0,1:2|0:0,0:0:0:0:
509,197,47167,6,0,L|490:69,1,110,6|8,1:2|0:0,0:0:0:0:
417,42,47738,2,0,P|335:59|296:60,1,110,0|8,1:2|0:0,0:0:0:0:
230,19,48310,1,6,1:2:0:0:
159,70,48595,1,8,0:0:0:0:
189,152,48881,2,0,P|185:206|181:261,1,110,0|8,1:2|0:0,0:0:0:0:
242,326,49453,6,0,P|303:340|349:314,1,110,6|8,1:2|0:0,0:0:0:0:
413,266,50024,1,0,1:2:0:0:
360,195,50310,1,8,0:0:0:0:
420,131,50595,2,0,L|399:7,1,110,2|8,1:2|0:0,0:0:0:0:
322,61,51167,2,0,P|266:73|197:70,1,110,0|8,1:2|0:0,0:0:0:0:
132,37,51738,5,6,1:2:0:0:
67,97,52024,2,0,L|85:217,1,110,2|2,1:2|1:2,0:0:0:0:
31,276,52595,1,8,0:0:0:0:
86,344,52881,1,6,1:2:0:0:
158,294,53167,2,0,P|221:280|269:293,1,110,8|2,0:0|1:2,0:0:0:0:
335,342,53738,1,8,0:0:0:0:
409,294,54024,5,6,1:2:0:0:
373,213,54310,1,8,0:0:0:0:
428,145,54595,2,0,L|435:17,1,110,6|8,1:2|0:0,0:0:0:0:
350,5,55167,1,6,1:2:0:0:
282,61,55453,1,12,0:0:0:0:
205,17,55738,1,6,1:2:0:0:
125,54,56024,1,8,0:0:0:0:
40,29,56310,6,0,L|59:192,1,165,6|2,1:2|1:2,0:0:0:0:
6,263,57024,1,6,1:2:0:0:
75,318,57310,2,0,P|144:281|234:319,1,165,6|8,1:2|0:0,0:0:0:0:
477,374,58595,6,0,P|492:315|464:256,1,110,6|8,1:2|0:0,0:0:0:0:
418,202,59167,2,0,P|423:147|429:92,1,110,0|8,3:0|0:0,0:0:0:0:
366,31,59738,2,0,P|317:49|256:54,1,110,0|10,0:0|0:0,0:0:0:0:
181,12,60310,1,2,3:2:0:0:
110,63,60595,1,8,0:0:0:0:
150,141,60881,6,0,L|157:250,1,110,0|8,1:2|0:0,0:0:0:0:
215,317,61453,2,0,P|272:310|325:308,1,110,0|8,3:0|0:0,0:0:0:0:
405,341,62024,1,0,1:0:0:0:
467,279,62310,1,8,0:0:0:0:
419,205,62595,2,0,L|429:87,1,110,0|8,3:0|0:0,0:0:0:0:
365,32,63167,5,6,1:2:0:0:
301,93,63453,2,0,P|242:109|193:88,1,110,10|0,0:0|1:0,0:0:0:0:
122,46,64024,1,8,0:0:0:0:
58,107,64310,2,0,P|66:162|75:220,1,110,0|10,1:0|0:0,0:0:0:0:
151,258,64881,2,0,P|143:313|134:371,1,110,0|8,1:0|0:0,0:0:0:0:
222,353,65453,6,0,P|289:335|369:390,2,165,6|2|8,1:2|1:2|0:0,0:0:0:0:
134,366,66595,2,0,B|83:247|167:275|113:153,1,220,2|2,1:2|1:2,0:0:0:0:
47,94,67453,1,10,0:0:0:0:
111,35,67738,6,0,L|232:48,1,110,6|8,1:2|0:0,0:0:0:0:
277,114,68310,2,0,P|336:129|389:98,1,110,0|8,3:2|0:0,0:0:0:0:
444,51,68881,1,0,1:2:0:0:
505,113,69167,1,8,0:0:0:0:
464,190,69453,2,0,P|453:244|446:299,1,110,0|8,3:2|0:0,0:0:0:0:
379,356,70024,6,0,L|271:334,1,110,0|8,1:2|0:0,0:0:0:0:
201,279,70595,2,0,P|142:291|86:302,1,110,0|8,3:2|0:0,0:0:0:0:
22,247,71167,2,0,P|8:189|36:126,1,110,0|8,1:0|0:0,0:0:0:0:
91,86,71738,1,0,3:0:0:0:
169,126,72024,1,8,0:0:0:0:
237,70,72310,5,6,1:2:0:0:
315,110,72595,2,0,L|432:96,1,110,10|0,0:0|3:0,0:0:0:0:
489,156,73167,1,8,0:0:0:0:
438,228,73453,2,0,P|433:282|429:337,1,110,0|8,0:0|0:0,0:0:0:0:
349,374,74024,2,0,P|289:348|243:357,1,110,0|8,3:0|0:0,0:0:0:0:
160,375,74595,5,2,1:2:0:0:
92,318,74881,1,8,0:0:0:0:
147,249,75167,2,0,P|134:165|122:84,1,165,6|6,1:2|1:2,0:0:0:0:
185,24,75881,2,0,L|252:37,1,55,0|8,1:0|0:0,0:0:0:0:
308,88,76310,2,0,P|367:75|432:66,1,110,2|2,1:0|1:0,0:0:0:0:
486,121,76881,6,0,L|479:183,1,55,6|0,1:2|0:0,0:0:0:0:
503,305,77453,1,0,1:2:0:0:
436,362,77738,2,0,L|365:353,1,55,8|0,0:0|1:2,0:0:0:0:
264,292,78310,1,0,1:0:0:0:
193,344,78595,2,0,P|142:354|75:330,1,110,8|8,0:0|0:0,0:0:0:0:
19,281,79167,6,0,P|26:226|33:171,1,110,0|0,1:0|1:0,0:0:0:0:
95,109,79738,1,8,0:0:0:0:
172,158,80024,2,0,L|232:147,1,55,8|2,0:0|1:2,0:0:0:0:
308,44,80595,2,0,P|361:55|416:63,1,110,2|2,1:2|1:2,0:0:0:0:
498,30,81167,1,8,0:0:0:0:
505,117,81453,6,0,L|486:229,1,110,2|8,1:2|0:0,0:0:0:0:
486,313,82024,1,2,1:2:0:0:
401,288,82310,1,8,0:0:0:0:
356,363,82595,1,2,1:2:0:0:
287,307,82881,2,0,P|219:279|169:290,1,110,12|6,0:0|1:2,0:0:0:0:
127,351,83453,1,8,0:0:0:0:
56,298,83738,6,0,L|69:224,1,55,2|8,1:2|0:0,0:0:0:0:
7,177,84167,2,0,L|-3:108,1,55,2|8,1:2|0:0,0:0:0:0:
65,64,84595,2,0,L|74:-13,1,55,2|8,1:2|0:0,0:0:0:0:
256,192,86024,12,0,88310,0:0:0:0:
278,150,90024,6,0,P|335:160|393:171,2,110,2|2|0,1:0|1:0|0:0,0:0:0:0:
