osu file format v14

[General]
AudioFilename: audio.mp3
AudioLeadIn: 0
PreviewTime: 58310
Countdown: 0
SampleSet: Soft
StackLeniency: 0.4
Mode: 0
LetterboxInBreaks: 0
WidescreenStoryboard: 1

[Editor]
DistanceSpacing: 0.8
BeatDivisor: 4
GridSize: 32
TimelineZoom: 2.5

[Metadata]
Title:Uncontrollable (TV Size)
TitleUnicode:Uncontrollable (TV Size)
Artist:Ito Kanako
ArtistUnicode:いとうかなこ
Creator:schoolboy
Version:Next's Advanced
Source:CHAOS;CHILD
Tags:itou head op opening djulus mirash testo silky kanau mamayu fuyuyu- testo nextplay My Angel Kanan komore
BeatmapID:1694029
BeatmapSetID:805733

[Difficulty]
HPDrainRate:4
CircleSize:3.5
OverallDifficulty:5
ApproachRate:6
SliderMultiplier:1.3
SliderTickRate:1

[Events]
//Background and Video events
0,0,"image.jpg",0,0
Video,492,"chaos.mp4"
//Break Periods
//Storyboard Layer 0 (Background)
//Storyboard Layer 1 (Fail)
//Storyboard Layer 2 (Pass)
//Storyboard Layer 3 (Foreground)
//Storyboard Sound Samples

[TimingPoints]
1453,285.714285714286,4,2,1,45,1,0
1453,-100,4,2,1,45,0,0
8310,-100,4,2,1,55,0,0
10310,-100,4,2,1,55,0,0
10524,-100,4,2,1,15,0,0
10595,-100,4,2,1,65,0,0
14774,-100,4,2,1,15,0,0
14881,-100,4,2,1,65,0,0
14917,-100,4,2,1,15,0,0
15024,-100,4,2,1,65,0,0
15060,-100,4,2,1,15,0,0
15167,-100,4,2,1,65,0,0
19310,-100,4,2,1,35,0,0
19381,-100,4,2,1,15,0,0
19453,-100,4,2,1,35,0,0
19738,-111.111111111111,4,2,1,45,0,0
27667,-100,4,2,1,15,0,0
27738,-100,4,2,1,50,0,0
28595,-100,4,2,1,50,0,0
28810,-100,4,2,1,15,0,0
28881,-100,4,2,1,55,0,0
29381,-100,4,2,1,5,0,0
29453,-100,4,2,1,55,0,0
35667,-100,4,2,1,5,0,0
35738,-100,4,2,1,55,0,0
38024,-100,4,2,1,50,0,0
47167,-100,4,2,1,55,0,0
51738,-100,4,2,1,65,0,0
54024,-100,4,2,1,70,0,0
56238,-100,4,2,1,15,0,0
56310,-100,4,2,1,75,0,0
57524,-100,4,2,1,15,0,0
57595,-100,4,2,1,75,0,0
58310,-100,4,2,1,40,0,0
58524,-100,4,2,1,5,0,0
58595,-100,4,2,1,75,0,0
60238,-100,4,2,1,5,0,0
60310,-100,4,2,1,75,0,0
76238,-100,4,2,1,15,0,0
76310,-100,4,2,1,75,0,0
76345,-100,4,2,1,15,0,0
76453,-100,4,2,1,75,0,0
76488,-100,4,2,1,15,0,0
76595,-100,4,2,1,75,0,0
76631,-100,4,2,1,15,0,0
76738,-100,4,2,1,75,0,0
76774,-100,4,2,1,15,0,0
76881,-111.111111111111,4,2,1,60,0,0
81453,-100,4,2,1,70,0,0
86024,-100,4,2,1,55,0,0
90024,-100,4,2,1,65,0,0

[Colours]
Combo1 : 187,175,228
Combo2 : 255,166,166
Combo3 : 202,234,170
Combo4 : 249,164,234

[HitObjects]
75,76,1453,6,0,P|169:46|276:92,2,195,6|0|2,1:2|0:0|0:0,0:0:0:0:
26,167,2595,2,0,P|12:226|39:307,1,130,0|2,1:2|0:0,0:0:0:0:
115,350,3167,2,0,L|266:341,1,130,2|0,0:0|0:0,0:0:0:0:
341,303,3738,5,2,1:2:0:0:
341,303,3881,2,0,B|317:254|343:196|343:196|376:136|334:39,1,260,0|0,0:0|0:0,0:0:0:0:
243,11,4738,2,0,P|169:2|103:24,1,130,2|0,0:0|0:0,0:0:0:0:
53,100,5310,2,0,P|40:170|60:233,2,130,2|2|0,0:0|0:0|0:0,0:0:0:0:
105,99,6024,5,2,1:2:0:0:
181,169,6310,2,0,L|323:154,1,130,2|0,0:0|0:0,0:0:0:0:
357,62,6881,1,0,0:0:0:0:
453,100,7167,2,0,P|471:164|439:238,1,130,0|10,0:0|0:0,0:0:0:0:
407,316,7738,1,2,1:2:0:0:
320,257,8024,1,8,0:0:0:0:
354,158,8310,6,0,L|216:161,1,130,2|0,1:2|0:0,0:0:0:0:
175,141,8738,2,0,P|193:214|162:270,1,130,2|0,1:2|0:0,0:0:0:0:
123,283,9167,1,2,1:2:0:0:
178,370,9453,2,0,L|113:377,2,65,2|2|10,1:2|1:2|0:2,0:0:0:0:
226,352,9881,1,2,1:2:0:0:
281,207,10310,1,2,0:1:0:0:
318,310,10595,6,0,P|366:326|453:300,1,130,6|8,1:2|0:0,0:0:0:0:
404,209,11167,2,0,P|342:190|280:207,1,130,2|8,1:2|0:0,0:0:0:0:
187,252,11738,2,0,P|130:268|51:240,1,130,2|8,1:2|0:0,0:0:0:0:
40,147,12310,1,2,1:2:0:0:
107,68,12595,1,8,0:0:0:0:
201,23,12881,6,0,P|270:5|339:35,1,130,6|8,1:2|0:0,0:0:0:0:
393,100,13453,2,0,P|390:132|383:163,1,65,2|0,1:2|0:0,0:0:0:0:
352,205,13738,2,0,P|337:247|332:291,1,65,8|0,0:0|0:0,0:0:0:0:
348,317,14024,2,0,L|211:328,1,130,2|8,1:2|0:0,0:0:0:0:
132,268,14595,1,0,1:2:0:0:
82,176,14881,1,2,1:0:0:0:
169,118,15167,6,0,P|208:115|305:111,1,130,6|8,1:2|0:0,0:0:0:0:
344,204,15738,2,0,L|213:203,1,130,2|8,1:2|0:0,0:0:0:0:
111,222,16310,2,0,P|96:284|111:361,1,130,2|8,1:2|0:0,0:0:0:0:
192,290,16881,1,2,1:2:0:0:
279,347,17167,1,8,0:0:0:0:
372,300,17453,5,0,0:0:0:0:
372,300,17595,2,0,L|448:307,1,65,2|8,1:2|0:0,0:0:0:0:
472,207,18024,2,0,L|408:216,1,65,2|8,1:2|0:0,0:0:0:0:
366,120,18453,2,0,L|457:131,1,65,2|8,1:2|0:0,0:0:0:0:
472,32,18881,2,0,L|401:44,1,65,2|8,1:2|0:0,0:0:0:0:
309,56,19310,1,2,0:0:0:0:
309,56,19453,2,2,L|232:51,1,65,2|0,1:1|0:1,0:1:0:0:
202,30,19738,5,2,1:2:0:0:
119,74,20024,2,0,P|96:132|177:210,1,175.499994644165,2|0,0:0|0:0,0:0:0:0:
209,199,20595,1,8,0:0:0:0:
209,199,20738,2,0,L|329:207,1,116.999996429443,2|0,1:2|0:0,0:0:0:0:
372,199,21167,1,2,0:0:0:0:
418,117,21453,1,2,0:0:0:0:
257,53,22024,5,2,1:2:0:0:
172,14,22310,2,0,B|136:38|89:19|89:19|37:0|1:29,1,175.499994644165,2|0,0:0|0:0,0:0:0:0:
17,71,22881,1,8,0:0:0:0:
17,71,23024,2,0,L|26:208,1,116.999996429443,2|0,1:2|0:0,0:0:0:0:
44,230,23453,1,2,0:0:0:0:
108,297,23738,1,0,0:0:0:0:
281,225,24310,5,2,1:2:0:0:
194,190,24595,2,0,B|168:153|196:103|196:103|175:64|205:24,1,175.499994644165,2|0,0:0|0:0,0:0:0:0:
249,8,25167,1,8,0:0:0:0:
249,8,25310,2,0,L|372:14,1,116.999996429443,2|0,1:2|0:0,0:0:0:0:
415,92,25881,1,2,0:0:0:0:
415,92,26024,2,0,L|486:82,2,58.4999982147217,0|2|2,0:0|0:0|0:0,0:0:0:0:
359,167,26595,6,0,P|319:177|233:146,1,116.999996429443,0|0,1:2|0:0,0:0:0:0:
225,120,27024,1,2,0:0:0:0:
225,120,27167,2,0,P|234:78|195:8,1,116.999996429443,0|0,0:0|1:2,0:0:0:0:
131,89,27738,6,0,B|110:134|110:134|119:286,2,195,2|2|2,1:2|1:2|1:2,0:0:0:0:
225,120,28881,6,0,L|218:254,1,130,4|8,1:2|0:0,0:0:0:0:
200,352,29453,2,0,P|173:345|47:360,1,130,2|8,1:2|0:0,0:0:0:0:
34,257,30024,2,0,P|36:212|49:109,1,130,0|8,1:2|0:0,0:0:0:0:
36,23,30595,1,0,1:0:0:0:
123,79,30881,1,8,0:0:0:0:
203,13,31167,6,0,P|292:-4|345:5,1,130,2|8,1:2|0:0,0:0:0:0:
411,60,31738,1,0,1:0:0:0:
481,136,32024,1,8,0:0:0:0:
400,199,32310,2,0,P|417:265|370:333,1,130,0|8,1:0|0:0,0:0:0:0:
344,341,32738,1,0,0:0:0:0:
344,341,32881,2,0,P|299:348|207:314,1,130,2|8,1:2|0:0,0:0:0:0:
153,242,33453,6,0,L|9:246,1,130,2|8,1:2|0:0,0:0:0:0:
27,141,34024,2,0,L|163:150,1,130,0|8,1:0|0:0,0:0:0:0:
255,149,34595,2,0,P|250:100|239:8,1,130,0|8,1:2|0:0,0:0:0:0:
346,20,35167,1,2,1:2:0:0:
436,71,35453,1,8,0:0:0:0:
381,154,35738,6,0,P|334:166|252:147,1,130,2|8,1:2|0:0,0:0:0:0:
206,133,36167,2,0,L|216:283,1,130,2|2,0:0|0:0,0:0:0:0:
215,314,36595,1,10,0:0:0:0:
121,360,36881,2,0,L|37:355,2,65,6|2|8,1:2|1:2|0:0,0:0:0:0:
86,261,37453,2,0,L|73:121,1,130,2|8,1:2|0:0,0:0:0:0:
124,40,38024,6,0,B|221:96|222:12|319:73,1,195,2|2,1:2|0:0,0:0:0:0:
355,94,38595,1,2,1:2:0:0:
293,177,38881,2,0,L|302:255,1,65,8|2,0:0|1:2,0:0:0:0:
300,241,39738,2,0,P|252:231|173:256,1,130,2|0,1:2|0:0,0:0:0:0:
78,291,40310,6,0,B|88:220|88:220|63:174|63:174|69:91,1,195,2|0,1:2|0:0,0:0:0:0:
89,55,40881,1,0,1:2:0:0:
163,127,41167,2,0,L|237:122,1,65,8|2,0:0|1:2,0:0:0:0:
227,122,42024,2,0,L|218:251,1,130,2|0,1:2|0:0,0:0:0:0:
272,340,42595,6,0,B|323:323|369:349|369:349|415:357|475:320,1,195,2|0,1:2|0:0,0:0:0:0:
490,286,43167,1,0,1:2:0:0:
393,246,43453,2,0,L|396:180,1,65,8|2,0:0|1:2,0:0:0:0:
414,26,44024,1,8,0:0:0:0:
310,14,44310,2,0,P|314:69|265:148,1,130,2|0,1:2|0:0,0:0:0:0:
234,227,44881,6,0,B|177:222|140:285|140:285|98:298|45:278,1,195,2|0,1:2|0:0,0:0:0:0:
34,240,45453,1,2,1:2:0:0:
85,149,45738,2,0,L|83:74,1,65,8|2,0:0|1:2,0:0:0:0:
175,34,46167,2,0,L|254:24,1,65,2|8,1:2|0:0,0:0:0:0:
288,44,46453,2,0,L|369:48,1,65,0|2,1:2|1:2,0:0:0:0:
403,35,46738,1,4,1:2:0:0:
462,179,47167,6,0,P|472:229|454:315,1,130,6|8,1:2|0:0,0:0:0:0:
361,344,47738,2,0,P|297:329|215:337,1,130,0|8,1:2|0:0,0:0:0:0:
132,358,48310,1,6,1:2:0:0:
49,295,48595,2,0,L|64:158,1,130,8|0,0:0|1:2,0:0:0:0:
102,68,49167,1,8,0:0:0:0:
201,98,49453,6,0,P|258:86|352:109,1,130,6|8,1:2|0:0,0:0:0:0:
412,36,50024,2,0,P|430:98|410:158,1,130,0|8,1:2|0:0,0:0:0:0:
339,234,50595,1,2,1:2:0:0:
244,189,50881,2,0,L|106:170,1,130,8|0,0:0|1:2,0:0:0:0:
15,202,51453,1,8,0:0:0:0:
79,283,51738,5,6,1:2:0:0:
118,379,52024,1,2,1:2:0:0:
222,376,52310,1,2,1:2:0:0:
251,276,52595,1,8,0:0:0:0:
349,310,52881,1,6,1:2:0:0:
407,225,53167,2,0,P|422:169|400:84,1,130,8|2,0:0|1:2,0:0:0:0:
347,14,53738,1,8,0:0:0:0:
248,48,54024,6,0,L|106:51,1,130,6|8,1:2|0:0,0:0:0:0:
74,145,54595,2,0,L|228:150,1,130,6|8,1:2|0:0,0:0:0:0:
288,211,55167,1,6,1:2:0:0:
242,304,55453,1,12,0:0:0:0:
320,371,55738,1,6,1:2:0:0:
412,322,56024,1,8,0:0:0:0:
439,221,56310,6,0,L|358:217,2,65,6|2|10,1:2|1:2|0:2,0:0:0:0:
474,183,56738,1,2,1:2:0:0:
422,92,57024,1,6,1:2:0:0:
317,95,57310,2,0,P|285:112|193:94,1,130,6|2,1:2|1:2,0:0:0:0:
149,72,57738,2,0,L|152:205,1,130,8|0,0:0|0:0,0:0:0:0:
151,201,58595,6,0,P|206:222|287:192,1,130,6|8,1:2|0:0,0:0:0:0:
321,184,59024,2,0,L|330:313,1,130,2|0,0:0|0:0,0:0:0:0:
370,347,59453,1,8,0:0:0:0:
442,273,59738,2,0,L|441:143,1,130,0|10,0:0|0:0,0:0:0:0:
489,50,60310,2,0,P|424:41|360:49,1,130,2|8,3:2|0:0,0:0:0:0:
265,86,60881,5,0,1:2:0:0:
265,86,61024,2,0,P|225:101|130:82,1,130,2|0,0:0|0:0,0:0:0:0:
92,67,61453,2,0,L|98:220,1,130,0|8,3:0|0:0,0:0:0:0:
121,242,61881,1,2,0:0:0:0:
121,242,62024,2,0,P|187:225|257:256,1,130,0|8,1:0|0:0,0:0:0:0:
314,321,62595,2,0,P|380:333|437:298,1,130,0|8,3:0|0:0,0:0:0:0:
479,210,63167,5,6,1:2:0:0:
447,110,63453,2,0,P|452:49|405:-11,1,130,10|0,0:0|1:0,0:0:0:0:
314,24,64024,1,8,0:0:0:0:
246,103,64310,2,0,P|213:120|106:106,1,130,0|10,1:0|0:0,0:0:0:0:
28,70,64881,2,0,P|18:108|17:145,1,65,0|0,1:0|3:0,0:0:0:0:
54,169,65167,2,0,P|61:219|55:254,1,65,8|0,0:0|3:0,0:0:0:0:
29,276,65453,6,0,L|166:274,1,130,6|8,1:2|0:0,0:0:0:0:
199,307,65881,2,0,L|337:312,1,130,2|0,1:2|1:0,0:0:0:0:
380,320,66310,2,0,P|370:269|375:242,1,65,8|0,0:0|0:0,0:0:0:0:
393,209,66595,1,2,1:2:0:0:
352,113,66881,1,10,0:0:0:0:
250,135,67167,2,0,L|120:146,1,130,2|10,1:2|0:0,0:0:0:0:
41,214,67738,6,0,P|26:274|41:346,1,130,6|8,1:2|0:0,0:0:0:0:
84,363,68167,2,0,L|227:350,1,130,2|0,0:0|0:0,0:0:0:0:
253,318,68595,1,8,0:0:0:0:
327,245,68881,2,0,P|306:196|321:111,1,130,0|8,1:2|0:0,0:0:0:0:
419,114,69453,2,0,P|440:162|425:248,1,130,0|8,3:2|0:0,0:0:0:0:
384,331,70024,5,0,1:2:0:0:
384,331,70167,2,0,P|316:314|243:336,1,130,2|0,0:0|0:0,0:0:0:0:
212,350,70595,2,0,L|229:198,1,130,0|8,3:2|0:0,0:0:0:0:
253,120,71167,2,0,P|188:91|105:100,1,130,0|8,1:0|0:0,0:0:0:0:
105,194,71738,2,0,P|174:226|246:212,1,130,0|8,3:0|0:0,0:0:0:0:
318,172,72310,5,6,1:2:0:0:
420,153,72595,2,0,L|433:297,1,130,10|0,0:0|3:0,0:0:0:0:
347,348,73167,1,8,0:0:0:0:
258,292,73453,2,0,P|209:288|133:316,1,130,0|8,0:0|0:0,0:0:0:0:
36,279,74024,2,0,P|35:235|51:193,1,65,0|0,3:0|3:0,0:0:0:0:
75,176,74310,2,0,P|82:129|76:98,1,65,8|0,0:0|0:3,0:0:0:0:
61,63,74595,6,0,L|50:-6,2,65,2|0|8,1:2|3:0|0:0,0:0:0:0:
164,78,75167,1,6,1:2:0:0:
206,173,75453,1,8,0:0:0:0:
206,173,75595,2,0,P|276:207|337:196,1,130,6|0,1:2|1:0,0:0:0:0:
370,227,76024,2,0,P|388:169|368:100,1,130,8|2,0:0|1:0,0:0:0:0:
334,6,76595,1,2,1:0:0:0:
246,38,76881,6,0,B|192:38|141:88|141:88|89:60|18:72,1,233.999992858887,6|0,1:2|1:2,0:0:0:0:
20,163,77738,1,8,0:0:0:0:
63,245,78024,1,0,1:0:0:0:
144,194,78310,2,0,P|183:207|269:192,1,116.999996429443,0|8,1:0|0:0,0:0:0:0:
327,136,78881,1,8,0:0:0:0:
415,105,79167,6,0,B|468:237|371:214|426:340,1,233.999992858887,0|8,1:0|0:0,0:0:0:0:
330,347,80024,1,8,0:0:0:0:
246,304,80310,2,0,L|117:298,1,116.999996429443,0|2,1:0|1:2,0:0:0:0:
36,282,80881,1,2,1:2:0:0:
82,200,81167,1,8,0:0:0:0:
19,116,81453,6,0,L|14:25,1,65,2|0,1:2|3:0,0:0:0:0:
55,18,81738,1,8,0:0:0:0:
157,36,82024,2,0,P|191:41|232:30,1,65,2|0,1:2|3:0,0:0:0:0:
270,18,82310,2,0,L|261:96,1,65,8|0,0:0|3:0,0:0:0:0:
271,133,82595,1,2,1:2:0:0:
337,214,82881,2,0,P|392:200|465:231,1,130,12|6,0:0|1:2,0:0:0:0:
386,300,83453,1,8,0:0:0:0:
294,349,83738,6,0,L|288:284,1,65,2|8,1:2|0:0,0:0:0:0:
202,224,84167,2,0,L|194:297,1,65,2|8,1:2|0:0,0:0:0:0:
107,344,84595,2,0,L|101:279,1,65,2|8,1:2|0:0,0:0:0:0:
101,279,86024,5,4,0:0:0:0:
256,192,86095,12,0,89167,0:0:0:0:
249,189,90024,6,0,B|281:171|281:171|326:178,1,65,2|2,1:0|1:0,0:0:0:0:
362,197,90310,2,0,B|397:205|397:205|440:187,1,65,2|2,1:0|1:0,0:0:0:0:
