osu file format v14

[General]
AudioFilename: audio.mp3
AudioLeadIn: 0
PreviewTime: 58310
Countdown: 0
SampleSet: Soft
StackLeniency: 0.4
Mode: 0
LetterboxInBreaks: 0
WidescreenStoryboard: 0

[Editor]
DistanceSpacing: 0.8
BeatDivisor: 4
GridSize: 4
TimelineZoom: 1.3

[Metadata]
Title:Uncontrollable (TV Size)
TitleUnicode:Uncontrollable (TV Size)
Artist:Ito Kanako
ArtistUnicode:いとうかなこ
Creator:schoolboy
Version:Mirash's Extra
Source:CHAOS;CHILD
Tags:itou head op opening djulus mirash testo silky kanau mamayu fuyuyu- testo nextplay My Angel Kanan komore
BeatmapID:1697101
BeatmapSetID:805733

[Difficulty]
HPDrainRate:5
CircleSize:4
OverallDifficulty:8
ApproachRate:9.4
SliderMultiplier:1.4
SliderTickRate:1

[Events]
//Background and Video events
0,0,"image.jpg",0,0
Video,492,"chaos.mp4"
//Break Periods
//Storyboard Layer 0 (Background)
//Storyboard Layer 1 (Fail)
//Storyboard Layer 2 (Pass)
//Storyboard Layer 3 (Foreground)
//Storyboard Sound Samples

[TimingPoints]
1453,285.714285714286,4,2,2,50,1,0
1453,-142.857142857143,4,2,2,50,0,0
6024,-100,4,2,2,60,0,0
8310,-100,4,2,2,65,0,0
9881,-500,4,2,2,40,0,0
10310,-50,4,2,2,65,0,0
10595,-83.3333333333333,4,2,2,70,0,0
14881,-83.3333333333333,4,2,2,70,0,0
15024,-83.3333333333333,4,2,2,70,0,0
15167,-66.6666666666667,4,2,2,70,0,0
15453,-83.3333333333333,4,2,2,70,0,0
17738,-66.6666666666667,4,2,2,70,0,0
18453,-80,4,2,2,70,0,0
19310,-80,4,2,2,90,0,0
19453,-50,4,2,2,90,0,0
19738,-100,4,2,2,45,0,0
26595,-100,4,2,2,55,0,0
27024,-100,4,2,2,60,0,0
27453,-66.6666666666667,4,2,2,50,0,0
27667,-66.6666666666667,4,2,2,15,0,0
27738,-83.3333333333333,4,2,2,60,0,0
28167,-83.3333333333333,4,2,5,90,0,0
28238,-83.3333333333333,4,2,2,60,0,0
28595,-66.6666666666667,4,2,2,90,0,0
28667,-66.6666666666667,4,2,2,60,0,0
28881,-66.6666666666667,4,2,2,60,0,0
29167,-83.3333333333333,4,2,2,60,0,0
29453,-83.3333333333333,4,2,2,60,0,0
35738,-83.3333333333333,4,2,2,60,0,0
37738,-200,4,2,2,60,0,0
38024,-200,4,2,2,45,0,0
46310,-66.6666666666667,4,2,2,70,0,0
46738,-142.857142857143,4,2,2,90,0,0
46810,-142.857142857143,4,2,2,45,0,0
47167,-100,4,2,2,60,0,0
51738,-100,4,2,2,65,0,0
52310,-100,4,2,2,70,0,0
52881,-100,4,2,2,75,0,0
53453,-100,4,2,2,80,0,0
54024,-100,4,2,2,85,0,0
55167,-100,4,2,2,90,0,0
56310,-100,4,2,5,80,0,0
58310,-222.222222222222,4,2,2,30,0,0
58453,-142.857142857143,4,2,2,5,0,0
58595,-66.6666666666667,4,2,2,75,0,0
76881,-100,4,2,2,50,0,0
81453,-66.6666666666667,4,2,2,80,0,0
83738,-66.6666666666667,4,2,2,90,0,0
84738,-333.333333333333,4,2,2,50,0,0
85310,-333.333333333333,4,2,2,5,0,0
86024,-333.333333333333,4,2,2,50,0,0
88024,-333.333333333333,4,2,2,15,0,0
88453,-125,4,2,2,40,0,0
89310,-125,4,2,2,50,0,0
90024,-66.6666666666667,4,2,2,70,0,0
90595,-66.6666666666667,4,2,2,5,0,0

[Colours]
Combo1 : 187,175,228
Combo2 : 255,166,166
Combo3 : 202,234,170
Combo4 : 249,164,234

[HitObjects]
256,12,1453,5,4,1:1:0:0:
223,77,1595,2,0,L|234:188,1,97.9999970092774,0|0,1:0|0:0,0:0:0:0:
339,123,2024,2,0,L|329:25,1,97.9999970092774,0|0,1:0|0:0,0:0:0:0:
155,194,2453,1,0,1:0:0:0:
155,194,2595,2,6,L|144:305,1,97.9999970092774,4|0,1:2|1:0,0:0:0:0:
405,203,3167,2,0,L|416:92,1,97.9999970092774,0|0,1:0|1:0,0:0:0:0:
477,56,3595,1,0,1:0:0:0:
477,56,3667,1,0,1:0:0:0:
477,56,3738,1,4,1:0:0:0:
508,182,3881,6,0,B|492:230|492:230|513:278,1,97.9999970092774,0|0,1:0|0:0,0:0:0:0:
463,329,4310,2,0,L|404:320,1,48.9999985046387,0|0,1:0|0:0,0:0:0:0:
340,341,4595,1,0,1:0:0:0:
154,240,4738,5,0,0:0:0:0:
154,240,4881,2,0,P|206:242|261:249,1,97.9999970092774,4|0,1:2|1:0,0:0:0:0:
409,186,5453,2,0,P|357:188|302:195,1,97.9999970092774,4|0,1:2|1:0,0:0:0:0:
32,177,5881,5,0,1:0:0:0:
32,177,5953,1,0,1:0:0:0:
32,177,6024,2,0,P|30:229|20:323,1,140,4|8,1:0|0:0,0:0:0:0:
111,160,6453,1,0,0:0:0:0:
69,90,6595,2,0,P|119:88|152:88,1,70,0|0,1:0|0:0,0:0:0:0:
218,204,6881,2,0,P|252:203|287:201,1,70,8|0,0:0|0:0,0:0:0:0:
335,104,7167,5,4,1:2:0:0:
238,190,7310,1,0,0:0:0:0:
359,239,7453,1,8,0:0:0:0:
383,119,7595,5,8,0:0:0:0:
267,176,7738,1,0,1:0:0:0:
371,255,7881,1,0,1:0:0:0:
484,222,8024,5,8,0:0:0:0:
491,193,8167,1,4,0:0:0:0:
151,284,8310,5,4,1:0:0:0:
151,284,8738,5,4,1:0:0:0:
151,284,9167,5,4,1:0:0:0:
66,309,9453,5,8,1:0:0:0:
123,199,9595,1,8,1:2:0:0:
233,256,9738,1,8,1:0:0:0:
176,366,9881,2,2,L|208:362,1,28,6|2,1:2|0:1,1:1:0:0:
274,324,10310,6,0,P|321:314|333:230,1,140,4|0,1:0|0:0,0:0:0:0:
213,40,10595,5,4,1:2:0:0:
133,66,10738,1,2,0:0:0:0:
53,92,10881,1,8,1:0:0:0:
261,151,11024,5,0,0:0:0:0:
330,198,11167,1,0,0:0:0:0:
358,119,11310,1,2,0:0:0:0:
243,148,11453,2,0,L|258:257,1,83.9999974365235,8|2,1:0|0:0,0:0:0:0:
299,344,11738,5,0,0:0:0:0:
379,318,11881,1,0,1:0:0:0:
459,292,12024,1,8,1:0:0:0:
80,346,12167,5,2,0:0:0:0:
131,283,12310,2,0,L|119:199,1,83.9999974365235,0|2,0:0|0:0,0:0:0:0:
295,61,12595,2,0,L|306:144,1,83.9999974365235,8|0,1:0|1:0,0:0:0:0:
240,332,12881,5,4,1:2:0:0:
208,251,13024,1,2,0:0:0:0:
289,219,13167,1,8,1:0:0:0:
321,300,13310,1,0,0:0:0:0:
161,322,13453,5,2,0:0:0:0:
368,237,13595,1,2,0:0:0:0:
295,348,13738,5,8,1:0:0:0:
249,240,13881,1,4,0:0:0:0:
13,75,14024,5,0,0:0:0:0:
96,82,14167,1,4,1:2:0:0:
180,89,14310,1,8,1:0:0:0:
456,322,14453,5,0,0:0:0:0:
372,315,14595,2,0,L|278:330,1,83.9999974365235,0|8,1:0|1:0,0:0:0:0:
289,328,14881,1,8,1:0:0:0:
289,328,15024,1,0,1:0:0:0:
256,187,15167,6,0,L|264:53,1,105.000004005432,4|2,1:2|0:0,0:0:0:0:
155,156,15453,6,0,B|142:196|142:196|161:258,1,83.9999974365235,8|0,1:0|0:0,0:0:0:0:
344,88,15738,2,0,B|357:48|357:48|338:-14,1,83.9999974365235,0|2,0:0|0:0,0:0:0:0:
185,62,16024,2,0,L|99:44,1,83.9999974365235,8|2,1:0|0:0,0:0:0:0:
336,198,16310,5,0,0:0:0:0:
419,190,16453,1,0,1:0:0:0:
502,182,16595,1,8,1:0:0:0:
280,331,16738,5,2,0:0:0:0:
204,294,16881,2,0,L|121:311,1,83.9999974365235,0|2,0:0|0:0,0:0:0:0:
308,90,17167,1,8,1:0:0:0:
390,72,17309,1,0,1:0:0:0:
314,65,17453,1,4,1:2:0:0:
124,212,17595,5,8,1:2:0:0:
22,238,17738,2,0,L|41:117,1,105.000004005432,8|0,1:0|0:0,0:0:0:0:
388,172,18024,5,8,1:2:0:0:
490,146,18167,2,0,L|471:267,1,105.000004005432,8|0,1:0|0:0,0:0:0:0:
189,201,18453,5,8,1:2:0:0:
139,215,18596,2,0,L|153:125,1,87.5,8|0,1:2|1:0,0:0:0:0:
322,182,18882,5,8,1:2:0:0:
372,169,19025,2,0,L|358:263,1,87.5,8|0,1:2|1:0,0:0:0:0:
257,85,19310,5,2,0:0:0:0:
264,15,19453,2,0,L|247:184,1,140,2|2,0:0|0:0,0:0:0:0:
252,354,19738,5,4,1:0:0:0:
252,354,19881,1,0,1:0:0:0:
252,354,20595,5,8,1:0:0:0:
252,354,20738,1,0,1:0:0:0:
452,231,21167,6,0,L|445:303,1,70,2|0,0:0|0:0,0:0:0:0:
444,227,21453,2,0,L|437:299,1,70,2|0,0:0|0:0,0:0:0:0:
436,223,21738,2,0,L|429:295,1,70,2|2,0:0|0:0,0:0:0:0:
16,195,22024,5,4,1:2:0:0:
16,195,22167,1,0,1:0:0:0:
16,195,22881,5,8,1:0:0:0:
16,195,23024,1,0,1:0:0:0:
191,299,23453,6,0,L|119:292,1,70,2|0,0:0|0:0,0:0:0:0:
195,291,23739,2,0,L|123:284,1,70,2|0,0:0|0:0,0:0:0:0:
199,283,24024,2,0,L|127:276,1,70,2|2,0:0|0:0,0:0:0:0:
252,30,24310,5,4,1:2:0:0:
252,30,24453,1,0,1:0:0:0:
252,30,24595,1,0,1:0:0:0:
252,30,25167,5,8,1:0:0:0:
252,30,25310,1,0,1:0:0:0:
87,164,25738,6,0,L|94:92,1,70,2|0,0:0|0:0,0:0:0:0:
95,168,26024,2,0,L|102:96,1,70,2|0,0:0|0:0,0:0:0:0:
103,172,26310,2,0,L|110:100,1,70,2|2,0:0|0:0,0:0:0:0:
327,204,26595,5,4,1:0:0:0:
399,231,26738,1,0,1:0:0:0:
461,182,26881,1,8,1:2:0:0:
369,158,27024,5,0,0:2:0:0:
270,252,27167,1,0,1:0:0:0:
159,186,27310,1,8,1:2:0:0:
286,84,27453,6,0,L|277:264,1,157.500006008148,4|0,1:2|0:0,0:0:0:0:
270,252,27738,6,0,B|229:264|229:264|180:237,1,83.9999974365235,8|0,1:0|0:0,0:0:0:0:
336,27,28024,5,8,1:0:0:0:
403,63,28167,2,0,B|444:51|444:51|493:78,1,83.9999974365235,10|0,1:0|0:0,0:0:0:0:
42,111,28453,5,0,0:0:0:0:
115,149,28595,2,0,L|333:160,1,210.000008010865,4|4,1:0|0:0,0:0:0:0:
254,369,29167,6,0,P|249:316|240:269,1,83.9999974365235,8|0,1:2|0:0,0:0:0:0:
300,233,29453,2,0,P|369:236|400:132,1,167.999994873047,4|8,1:2|1:2,0:0:0:0:
225,208,29881,1,0,0:0:0:0:
169,265,30024,2,0,P|165:306|158:348,1,83.9999974365235,0|2,1:0|0:0,0:0:0:0:
152,190,30310,2,0,P|145:148|141:106,1,83.9999974365235,8|2,1:2|0:0,0:0:0:0:
297,78,30595,5,0,1:0:0:0:
371,117,30738,1,0,1:0:0:0:
303,166,30881,1,4,1:2:0:0:
229,125,31024,1,0,1:2:0:0:
461,91,31167,6,0,P|451:161|448:209,1,83.9999974365235,4|0,1:0|0:0,0:0:0:0:
277,306,31453,1,8,1:2:0:0:
351,261,31595,2,0,P|361:331|364:379,2,83.9999974365235,0|0|0,1:0|0:0|0:0,0:0:0:0:
202,280,32024,1,8,1:2:0:0:
123,318,32167,2,0,P|127:276|155:147,1,167.999994873047,0|0,1:0|0:0,0:0:0:0:
299,172,32595,5,8,1:2:0:0:
377,191,32738,1,2,0:0:0:0:
374,109,32881,1,0,1:0:0:0:
377,191,33024,1,2,0:0:0:0:
207,34,33167,6,0,P|154:38|77:135,1,167.999994873047,4|4,1:2|1:0,0:0:0:0:
225,107,33595,1,0,1:0:0:0:
286,54,33738,1,8,1:2:0:0:
300,130,33881,2,0,P|294:201|294:328,1,167.999994873047,0|0,1:0|0:0,0:0:0:0:
210,351,34310,2,0,P|204:279|205:261,1,83.9999974365235,8|0,1:2|0:0,0:0:0:0:
388,95,34595,2,0,P|387:136|382:178,2,83.9999974365235,4|0|8,1:2|0:0|1:2,0:0:0:0:
318,332,35024,5,0,0:0:0:0:
396,362,35167,2,0,P|410:308|519:272,1,167.999994873047,0|8,1:0|1:2,0:0:0:0:
478,293,35595,5,0,1:0:0:0:
461,208,35738,1,8,1:0:0:0:
346,204,35881,5,0,1:0:0:0:
342,225,36024,1,8,1:0:0:0:
242,290,36167,5,8,1:2:0:0:
253,97,36310,1,8,1:0:0:0:
109,157,36453,5,8,1:2:0:0:
114,242,36595,1,8,1:0:0:0:
360,147,36738,5,8,1:0:0:0:
400,134,36810,1,8,1:2:0:0:
440,122,36881,1,8,1:0:0:0:
342,70,37024,1,8,1:2:0:0:
281,177,37167,1,8,1:2:0:0:
289,184,37453,5,0,1:0:0:0:
289,184,37595,1,0,1:0:0:0:
289,184,37738,2,0,P|270:124|270:106,1,70,4|2,1:0|1:0,0:0:0:0:
201,92,38167,5,2,1:1:0:0:
111,180,38310,2,0,P|109:239|107:262,1,70,2|8,1:1|0:0,0:0:0:0:
370,270,38881,5,2,1:0:0:0:
438,220,39024,2,2,B|429:185|429:185|437:150,1,70,2|0,1:0|0:0,1:1:0:0:
425,217,39453,2,0,B|416:182|416:182|424:147,1,70,2|8,1:1|0:0,0:0:0:0:
482,111,40024,1,2,0:0:0:0:
257,348,40310,6,0,L|211:351,1,35,2|0,1:0|0:0,0:0:0:0:
203,276,40595,2,0,L|284:271,1,70,2|8,1:0|0:0,0:0:0:0:
148,210,41167,5,2,1:0:0:0:
321,202,41310,1,2,1:0:0:0:
148,210,41595,1,2,1:0:0:0:
321,202,41738,1,2,1:0:0:0:
230,159,42024,5,8,1:2:0:0:
226,124,42167,1,2,0:0:0:0:
223,89,42310,1,0,0:0:0:0:
89,245,42595,5,2,1:0:0:0:
89,245,42738,2,0,L|82:323,1,70,2|0,1:0|0:0,0:0:0:0:
21,200,43167,2,0,L|27:130,1,70,8|2,0:0|1:0,0:0:0:0:
163,208,43595,5,2,1:0:0:0:
163,208,43738,2,2,L|232:214,1,70,2|0,1:0|1:0,0:0:0:0:
404,178,44310,2,0,L|334:171,1,70,8|0,0:0|1:0,0:0:0:0:
470,42,44881,5,2,1:0:0:0:
470,42,45024,1,2,1:0:0:0:
470,42,45167,2,0,L|463:111,1,70,2|8,1:0|0:0,0:0:0:0:
325,250,45738,1,2,1:0:0:0:
325,250,45881,2,2,L|331:319,1,70,2|0,1:0|0:0,1:1:0:0:
22,245,46310,6,0,B|3:193|3:193|24:133,1,105.000004005432,8|8,1:2|1:0,0:0:0:0:
270,3,46595,5,0,1:0:0:0:
239,76,46738,2,0,L|251:181,1,97.9999970092774,4|0,1:0|0:0,0:0:0:0:
354,263,47167,5,4,1:0:0:0:
420,285,47310,1,0,0:0:0:0:
467,233,47453,1,8,1:2:0:0:
301,322,47595,5,0,0:0:0:0:
241,285,47738,2,0,L|161:293,1,70,0|0,1:0|0:0,0:0:0:0:
266,155,48024,5,8,0:2:0:0:
334,168,48167,1,2,0:0:0:0:
269,158,48310,1,4,1:2:0:0:
337,171,48453,1,2,0:0:0:0:
102,188,48595,6,0,P|90:143|93:95,1,70,8|0,1:2|0:0,0:0:0:0:
243,7,48881,2,0,P|255:52|252:100,1,70,4|0,1:2|0:0,0:0:0:0:
39,236,49167,5,8,1:2:0:0:
183,106,49310,1,0,1:0:0:0:
179,201,49453,6,0,P|241:217|323:187,1,140,4|8,1:0|0:2,0:0:0:0:
119,250,49881,1,0,1:0:0:0:
119,250,49953,1,0,0:0:0:0:
119,250,50024,2,0,L|112:325,1,70,0|0,1:0|0:0,0:0:0:0:
397,253,50310,2,0,L|390:183,1,70,8|0,1:2|0:0,0:0:0:0:
240,50,50595,5,4,1:2:0:0:
232,119,50738,1,2,0:0:0:0:
243,53,50881,1,8,1:2:0:0:
235,122,51024,1,2,0:0:0:0:
131,195,51167,5,0,1:0:0:0:
69,227,51310,1,4,0:0:0:0:
6,196,51453,1,8,1:2:0:0:
120,169,51595,5,0,1:0:0:0:
204,218,51738,2,0,L|192:306,1,70,4|0,1:0|0:0,0:0:0:0:
308,166,52024,2,0,L|320:78,1,70,8|0,1:2|0:0,0:0:0:0:
117,149,52310,6,0,L|129:237,1,70,0|2,1:0|0:0,0:0:0:0:
397,229,52595,2,0,L|385:141,1,70,8|2,1:2|0:0,0:0:0:0:
48,74,52881,6,0,L|36:162,1,70,8|0,1:0|0:0,0:0:0:0:
471,299,53167,2,0,L|483:211,1,70,8|0,1:0|0:0,0:0:0:0:
39,293,53453,5,4,1:0:0:0:
473,91,53738,5,4,1:0:0:0:
300,232,54024,5,4,1:0:0:0:
219,247,54167,1,2,0:0:0:0:
205,167,54310,1,8,1:0:0:0:
285,151,54453,1,2,0:0:0:0:
263,256,54595,5,0,1:0:0:0:
195,210,54737,1,2,0:3:0:0:
241,142,54881,1,8,1:0:0:0:
309,187,55023,1,2,0:3:0:0:
229,318,55167,5,0,1:0:0:0:
364,224,55309,1,8,1:0:0:0:
274,91,55453,1,8,1:0:0:0:
138,182,55595,1,2,0:0:0:0:
316,300,55738,5,0,1:0:0:0:
345,138,55880,1,8,1:0:0:0:
345,138,55953,1,0,1:0:0:0:
345,138,56024,1,8,1:0:0:0:
187,107,56167,1,4,1:2:0:0:
0,370,56310,5,4,1:0:0:0:
0,370,56453,5,2,1:2:0:0:
0,370,56595,5,4,1:0:0:0:
0,370,56738,5,2,1:0:0:0:
3,373,57024,5,2,1:2:0:0:
6,376,57310,5,4,1:0:0:0:
13,382,57595,5,2,1:2:0:0:
13,382,57738,5,4,1:0:0:0:
246,360,58310,6,0,L|211:366,1,31.4999990386963,2|0,0:0|0:0,0:0:0:0:
256,285,58595,5,4,1:0:0:0:
331,293,58738,2,0,P|413:277|438:165,1,210.000008010865,8|0,1:0|1:0,0:0:0:0:
272,207,59167,2,0,L|46:227,1,210.000008010865,8|0,1:0|1:0,0:0:0:0:
6,177,59595,1,4,0:0:0:0:
165,51,59738,5,4,1:0:0:0:
268,109,59881,1,0,0:0:0:0:
426,67,60024,1,8,0:0:0:0:
337,23,60167,1,0,0:0:0:0:
252,99,60310,5,0,1:0:0:0:
289,206,60453,1,0,0:0:0:0:
391,164,60595,1,8,0:0:0:0:
170,144,60738,1,0,1:0:0:0:
170,144,60810,1,0,0:0:0:0:
170,144,60881,2,0,P|157:217|148:368,1,210.000008010865,4|8,1:0|1:0,0:0:0:0:
366,283,61310,5,2,0:0:0:0:
464,271,61453,2,0,L|394:180,1,105.000004005432,0|0,1:0|0:0,0:0:0:0:
256,279,61738,2,0,L|320:362,1,105.000004005432,8|0,1:0|0:0,0:0:0:0:
268,113,62024,5,4,1:2:0:0:
207,32,62167,1,2,0:0:0:0:
318,37,62310,1,8,1:2:0:0:
183,114,62453,5,2,0:0:0:0:
122,195,62596,1,0,1:0:0:0:
72,119,62738,1,2,0:0:0:0:
402,89,62881,6,0,P|390:164|386:206,1,105.000004005432,8|4,1:2|0:0,0:0:0:0:
462,278,63167,2,0,P|382:272|301:373,1,210.000008010865,4|8,1:0|1:2,0:0:0:0:
374,374,63595,1,0,0:0:0:0:
162,242,63738,6,0,P|237:254|279:258,1,105.000004005432,0|0,1:0|0:0,0:0:0:0:
110,167,64024,1,8,1:2:0:0:
59,220,64167,1,0,0:0:0:0:
86,147,64310,2,0,P|79:94|71:43,1,105.000004005432,4|0,1:2|0:0,0:0:0:0:
359,71,64595,5,8,1:2:0:0:
255,51,64738,1,0,1:0:0:0:
151,31,64881,1,0,0:0:0:0:
394,165,65024,5,0,1:0:0:0:
290,145,65167,1,8,1:2:0:0:
186,125,65310,1,0,1:0:0:0:
428,325,65453,5,4,1:2:0:0:
327,216,65595,1,8,1:0:0:0:
273,358,65738,1,8,1:0:0:0:
38,219,65881,5,4,1:3:0:0:
58,115,66024,1,4,0:3:0:0:
57,198,66167,1,8,1:0:0:0:
330,33,66310,5,8,1:0:0:0:
429,67,66453,1,4,0:0:0:0:
161,291,66595,5,4,1:0:0:0:
237,325,66738,2,0,L|246:203,1,105.000004005432,8|8,1:0|1:0,0:0:0:0:
502,179,67024,2,0,L|391:232,1,105.000004005432,0|8,1:0|1:0,0:0:0:0:
244,22,67310,2,0,L|345:90,1,105.000004005432,0|8,1:0|1:0,0:0:0:0:
323,173,67595,1,4,1:2:0:0:
126,37,67738,5,4,1:0:0:0:
43,51,67881,2,0,P|48:128|53:271,1,210.000008010865,8|0,1:0|1:0,0:0:0:0:
357,323,68310,2,0,P|360:218|366:113,1,210.000008010865,8|0,1:0|1:0,0:0:0:0:
192,155,68738,5,4,0:0:0:0:
220,247,68881,1,4,1:0:0:0:
270,181,69024,1,0,0:0:0:0:
139,220,69167,2,0,L|145:332,1,105.000004005432,8|0,0:0|0:0,0:0:0:0:
420,282,69453,5,0,1:0:0:0:
429,198,69595,1,0,0:0:0:0:
437,114,69738,1,8,0:0:0:0:
446,30,69881,1,0,1:0:0:0:
512,184,70024,6,0,L|286:197,1,210.000008010865,4|8,1:0|1:0,0:0:0:0:
145,132,70453,1,2,0:0:0:0:
217,91,70595,2,0,L|228:206,1,105.000004005432,0|2,1:0|0:0,0:0:0:0:
342,369,70881,2,0,B|327:317|327:317|337:267,1,105.000004005432,8|0,1:0|0:0,0:0:0:0:
207,298,71167,5,4,1:2:0:0:
126,321,71310,1,2,0:0:0:0:
67,172,71453,1,8,1:2:0:0:
47,254,71595,1,2,0:0:0:0:
226,195,71739,1,4,1:2:0:0:
165,137,71881,1,2,0:0:0:0:
449,38,72024,6,0,P|379:35|211:43,1,210.000008010865,8|4,1:2|1:0,0:0:0:0:
156,56,72453,1,0,0:0:0:0:
337,120,72595,2,0,P|401:116|449:120,1,105.000004005432,8|0,1:2|0:0,0:0:0:0:
197,277,72881,2,0,P|144:273|92:278,1,105.000004005432,0|0,1:0|0:0,0:0:0:0:
240,147,73167,5,8,1:2:0:0:
273,230,73310,1,2,0:0:0:0:
354,196,73453,5,4,1:2:0:0:
167,184,73595,1,0,1:0:0:0:
434,220,73738,5,8,1:2:0:0:
422,136,73881,1,0,1:0:0:0:
411,52,74024,1,2,0:0:0:0:
89,148,74167,5,0,1:0:0:0:
101,232,74310,1,8,1:2:0:0:
112,316,74453,1,0,1:0:0:0:
393,349,74595,5,4,1:2:0:0:
404,265,74738,1,8,1:0:0:0:
320,254,74881,1,8,1:0:0:0:
309,338,75024,1,4,1:3:0:0:
214,325,75167,5,4,0:3:0:0:
236,146,75310,1,8,1:0:0:0:
415,170,75453,1,8,1:0:0:0:
393,349,75595,2,0,P|287:351|169:355,1,210.000008010865,4|8,0:0|1:0,0:0:0:0:
401,257,76024,6,0,P|492:226|493:112,1,210.000008010865,8|8,1:0|1:0,0:0:0:0:
180,197,76453,1,0,1:0:0:0:
103,229,76595,2,0,P|45:194|42:135,1,105.000004005432,8|4,1:0|1:2,0:0:0:0:
261,8,76881,5,4,1:0:0:0:
261,8,77024,1,2,0:0:0:0:
261,8,77167,2,0,P|259:58|246:157,2,140,2|8|0,0:0|0:0|1:0,0:0:0:0:
261,8,77810,1,0,1:0:0:0:
261,8,77881,1,0,1:0:0:0:
327,192,78024,6,0,P|382:182|400:83,1,140,4|2,1:2|0:0,0:0:0:0:
254,222,78595,2,0,L|235:379,1,140,8|0,0:0|0:0,0:0:0:0:
2,189,79167,5,4,1:2:0:0:
2,189,79453,1,2,0:0:0:0:
2,189,79738,2,0,L|152:181,1,140,8|0,0:0|1:0,0:0:0:0:
141,181,80095,1,0,1:0:0:0:
141,181,80167,1,0,1:0:0:0:
352,122,80310,6,0,L|212:129,1,140,4|2,1:2|0:0,0:0:0:0:
425,202,80881,2,0,P|401:255|413:336,1,140,8|2,0:0|0:0,0:0:0:0:
490,337,81310,1,4,0:0:0:0:
293,278,81453,6,0,P|202:290|164:313,1,105.000004005432,4|8,1:0|1:0,0:0:0:0:
81,60,81738,2,0,L|45:186,1,105.000004005432,8|2,1:0|0:0,0:0:0:0:
304,138,82024,2,0,L|424:113,1,105.000004005432,0|2,1:0|1:2,0:0:0:0:
126,337,82310,2,0,L|1:319,1,105.000004005432,8|4,1:0|1:2,0:0:0:0:
189,136,82595,6,0,P|201:60|323:31,1,210.000008010865,4|8,1:0|1:0,0:0:0:0:
265,188,83024,1,0,1:0:0:0:
265,188,83095,1,0,1:0:0:0:
265,188,83167,2,0,P|262:255|264:310,1,105.000004005432,8|0,1:0|0:0,0:0:0:0:
395,62,83453,1,4,1:0:0:0:
415,69,83738,5,12,1:0:0:0:
66,145,83881,1,12,1:2:0:0:
84,151,84167,5,12,1:0:0:0:
433,75,84310,1,12,1:2:0:0:
420,91,84595,5,8,1:0:0:0:
71,167,84738,2,2,L|60:250,1,83.9999974365235,4|2,1:2|0:3,0:0:0:0:
429,253,86024,6,0,B|271:282|294:112|160:170,1,293.999991027832,4|0,0:1|0:0,0:0:0:0:
168,167,88453,5,2,0:0:0:0:
224,219,88595,2,0,L|294:207,1,56,2|4,0:3|0:3,0:0:0:0:
301,132,88881,2,0,L|245:141,1,56,2|8,0:3|0:3,0:0:0:0:
306,301,89310,5,2,0:0:0:0:
250,353,89452,2,0,L|180:341,1,56,2|8,0:3|0:3,0:0:0:0:
173,266,89738,2,0,L|228:275,1,56,2|4,0:3|0:3,0:0:0:0:
389,272,90024,6,0,P|411:155|169:65,1,420.000016021729,4|2,0:0|0:3,1:0:0:0:
