osu file format v14

[General]
AudioFilename: audio.mp3
AudioLeadIn: 0
PreviewTime: 58310
Countdown: 0
SampleSet: Soft
StackLeniency: 0.4
Mode: 0
LetterboxInBreaks: 0
WidescreenStoryboard: 1

[Editor]
Bookmarks: 15488
DistanceSpacing: 1.1
BeatDivisor: 4
GridSize: 4
TimelineZoom: 2

[Metadata]
Title:Uncontrollable (TV Size)
TitleUnicode:Uncontrollable (TV Size)
Artist:Ito Kanako
ArtistUnicode:いとうかなこ
Creator:schoolboy
Version:Extreme
Source:CHAOS;CHILD
Tags:itou head op opening djulus mirash testo silky kanau mamayu fuyuyu- testo nextplay My Angel Kanan komore
BeatmapID:1691294
BeatmapSetID:805733

[Difficulty]
HPDrainRate:6
CircleSize:3.8
OverallDifficulty:9
ApproachRate:9.3
SliderMultiplier:1.8
SliderTickRate:1

[Events]
//Background and Video events
0,0,"image.jpg",0,0
Video,492,"chaos.mp4"
//Break Periods
//Storyboard Layer 0 (Background)
//Storyboard Layer 1 (Fail)
//Storyboard Layer 2 (Pass)
//Storyboard Layer 3 (Foreground)
//Storyboard Sound Samples

[TimingPoints]
1453,285.714285714286,4,2,1,45,1,0
1453,-133.333333333333,4,2,1,45,0,0
8310,-133.333333333333,4,2,1,55,0,0
10310,-100,4,2,1,55,0,0
10524,-100,4,2,1,15,0,0
10595,-100,4,2,1,65,0,0
14774,-100,4,2,1,15,0,0
14881,-100,4,2,1,65,0,0
14917,-100,4,2,1,15,0,0
15024,-100,4,2,1,65,0,0
15060,-100,4,2,1,15,0,0
15167,-100,4,2,1,65,0,0
19310,-100,4,2,1,35,0,0
19381,-100,4,2,1,15,0,0
19453,-100,4,2,1,35,0,0
19667,-100,4,2,1,15,0,0
19738,-133.333333333333,4,2,1,45,0,0
27667,-133.333333333333,4,2,1,15,0,0
27738,-133.333333333333,4,2,1,50,0,0
28595,-111.111111111111,4,2,1,50,0,0
28810,-111.111111111111,4,2,1,15,0,0
28881,-111.111111111111,4,2,1,55,0,0
29381,-111.111111111111,4,2,1,5,0,0
29453,-111.111111111111,4,2,1,55,0,0
35667,-111.111111111111,4,2,1,5,0,0
35738,-111.111111111111,4,2,1,55,0,0
38024,-111.111111111111,4,2,1,50,0,0
47167,-111.111111111111,4,2,1,55,0,0
51738,-100,4,2,1,65,0,0
54024,-100,4,2,1,70,0,0
56238,-100,4,2,1,15,0,0
56310,-100,4,2,1,75,0,0
57524,-100,4,2,1,15,0,0
57595,-100,4,2,1,75,0,0
58310,-500,4,2,1,40,0,0
58524,-500,4,2,1,5,0,0
58595,-100,4,2,1,75,0,0
60238,-100,4,2,1,5,0,0
60310,-100,4,2,1,75,0,0
76238,-100,4,2,1,15,0,0
76310,-100,4,2,1,75,0,0
76345,-100,4,2,1,15,0,0
76453,-100,4,2,1,75,0,0
76488,-100,4,2,1,15,0,0
76595,-100,4,2,1,75,0,0
76631,-100,4,2,1,15,0,0
76738,-100,4,2,1,75,0,0
76774,-100,4,2,1,15,0,0
76881,-111.111111111111,4,2,1,60,0,0
81453,-111.111111111111,4,2,1,70,0,0
86024,-111.111111111111,4,2,1,55,0,0
90024,-111.111111111111,4,2,1,65,0,0

[Colours]
Combo1 : 187,175,228
Combo2 : 255,166,166
Combo3 : 202,234,170
Combo4 : 249,164,234

[HitObjects]
23,208,1453,6,0,P|86:197|157:187,1,135.000005149842,6|0,1:2|0:0,0:0:0:0:
234,126,1881,2,0,P|257:82|200:26,1,135.000005149841,0|0,0:0|0:0,0:0:0:0:
206,27,2310,1,2,0:0:0:0:
326,141,2453,2,0,P|314:207|302:273,1,135.000005149842,2|0,0:0|0:0,0:0:0:0:
384,384,2881,2,0,P|395:347|376:304,1,67.5000025749207,2|0,0:0|0:0,0:0:0:0:
302,273,3167,2,0,B|193:279|245:350|118:363,1,202.500007724762,2|0,0:0|0:0,0:0:0:0:
54,311,3738,5,2,1:2:0:0:
54,311,3881,2,0,P|65:244|78:178,1,135.000005149841,0|0,0:0|0:0,0:0:0:0:
148,114,4310,1,2,0:0:0:0:
77,59,4453,2,0,P|46:73|12:78,1,67.5000025749207,0|0,0:0|0:0,0:0:0:0:
170,20,4738,6,0,L|236:32,1,67.5000025749207,2|0,0:0|1:0,0:0:0:0:
308,86,5024,2,0,P|347:81|372:66,1,67.5000025749207,0|0,0:0|0:0,0:0:0:0:
453,118,5310,2,0,P|460:87|471:53,1,67.5000025749207,2|0,0:0|1:0,0:0:0:0:
366,167,5595,2,0,P|375:233|385:300,1,135.000005149841,2|0,0:0|0:0,0:0:0:0:
462,370,6024,5,2,1:2:0:0:
270,231,6310,2,0,P|222:222|161:305,1,135.000005149841,2|0,0:0|0:0,0:0:0:0:
77,330,6738,2,0,P|73:297|58:237,1,67.5000025749207,0|0,0:0|0:0,0:0:0:0:
0,178,7024,6,0,P|66:169|133:161,1,135.000005149841,2|0,0:2|0:0,0:0:0:0:
217,77,7453,2,0,P|184:72|151:68,1,67.5000025749207,10|0,0:0|0:0,0:0:0:0:
244,183,7738,2,0,P|283:187|322:174,1,67.5000025749207,2|0,1:2|0:0,0:0:0:0:
394,93,8024,2,0,L|379:24,1,67.5000025749208,8|0,0:0|0:0,0:0:0:0:
493,161,8310,6,0,P|479:227|466:293,1,135.000005149841,2|0,1:2|0:0,0:0:0:0:
319,380,8738,2,0,P|291:326|352:268,1,135.000005149841,2|0,1:2|0:0,0:0:0:0:
224,218,9167,2,0,P|190:223|157:231,1,67.5000025749207,2|0,1:2|0:0,0:0:0:0:
92,317,9453,5,2,1:2:0:0:
332,152,9595,1,2,1:2:0:0:
105,75,9738,1,10,0:2:0:0:
224,218,9881,1,2,1:2:0:0:
225,218,10310,6,2,B|306:231|265:270|341:291,1,135,2|2,0:1|0:1,0:0:0:0:
433,329,10595,6,0,P|422:285|417:240,1,90,6|0,1:2|0:0,0:0:0:0:
233,36,10881,2,0,P|243:79|248:124,1,90,8|0,0:0|0:0,0:0:0:0:
499,79,11167,2,0,L|384:62,1,90,2|0,1:2|0:0,0:0:0:0:
205,243,11453,2,0,L|320:260,1,90,8|0,0:0|0:0,0:0:0:0:
469,357,11738,5,2,1:2:0:0:
395,162,11881,1,0,0:0:0:0:
495,240,12024,1,8,0:0:0:0:
360,319,12167,1,0,0:0:0:0:
469,357,12310,5,2,1:2:0:0:
388,146,12453,1,0,0:0:0:0:
508,232,12595,1,8,0:0:0:0:
344,327,12738,1,0,0:0:0:0:
388,146,12881,6,0,P|377:104|368:45,1,90,6|0,1:2|0:0,0:0:0:0:
187,251,13167,2,0,P|198:293|207:352,1,90,8|0,0:0|0:0,0:0:0:0:
299,223,13453,1,2,1:2:0:0:
270,113,13595,1,0,0:0:0:0:
205,338,13738,1,8,0:0:0:0:
388,239,13881,1,0,0:0:0:0:
161,129,14024,6,0,L|72:144,1,90,2|0,1:2|0:0,0:0:0:0:
364,344,14310,2,0,L|452:328,1,90,8|0,0:0|0:0,0:0:0:0:
388,239,14595,1,0,1:2:0:0:
205,338,14738,6,0,L|199:371,1,22.5,2|0,1:0|0:0,0:0:0:0:
229,230,14881,6,0,L|223:263,1,22.5,2|0,1:0|0:0,0:0:0:0:
254,121,15024,6,0,L|248:154,1,22.5,2|0,1:0|0:0,0:0:0:0:
89,329,15167,6,0,P|78:265|70:232,1,90,6|0,1:2|0:0,0:0:0:0:
233,54,15453,2,0,P|244:118|252:151,1,90,8|0,0:0|0:0,0:0:0:0:
26,136,15738,1,2,1:2:0:0:
132,111,15881,1,0,0:0:0:0:
282,259,16024,1,8,0:0:0:0:
176,284,16167,1,0,0:0:0:0:
359,108,16310,6,0,P|406:116|483:130,1,90,2|0,1:2|0:0,0:0:0:0:
176,284,16595,2,0,P|128:275|52:262,1,90,8|0,0:0|0:0,0:0:0:0:
352,369,16881,5,2,1:2:0:0:
200,99,17024,1,0,0:0:0:0:
343,216,17167,1,8,0:0:0:0:
85,363,17310,1,0,0:0:0:0:
85,363,17595,5,2,1:2:0:0:
42,92,17738,1,8,0:0:0:0:
9,185,18024,5,2,1:2:0:0:
286,122,18167,1,8,0:0:0:0:
219,55,18453,5,2,1:2:0:0:
257,295,18595,1,8,0:0:0:0:
183,234,18881,5,2,1:2:0:0:
466,224,19024,1,8,0:0:0:0:
466,224,19310,6,0,L|483:153,1,45,2|0,0:0|0:0,0:0:0:0:
419,109,19453,2,2,P|366:94|354:161,1,135,2|2,1:1|0:1,0:1:0:0:
367,182,19738,5,2,1:2:0:0:
251,121,19881,1,0,1:2:0:0:
251,121,20024,2,0,P|217:125|184:129,1,67.5000025749208,2|0,0:0|0:0,0:0:0:0:
106,181,20310,2,0,P|80:140|123:65,1,135.000005149842,2|8,0:0|0:0,0:0:0:0:
48,252,20738,2,0,P|115:241|188:235,1,135.000005149842,2|0,1:2|0:0,0:0:0:0:
266,277,21167,2,0,P|276:232|268:199,1,67.5000025749208,2|0,0:0|0:0,0:0:0:0:
181,235,21453,1,2,0:0:0:0:
181,235,21738,1,0,0:0:0:0:
509,369,22024,5,2,1:2:0:0:
427,227,22167,1,0,1:2:0:0:
427,227,22310,2,0,P|418:261|412:305,1,67.5000025749208,2|0,0:0|0:0,0:0:0:0:
483,161,22595,2,0,P|414:194|348:153,1,135.000005149842,2|8,0:0|0:0,0:0:0:0:
269,68,23024,2,0,P|259:134|249:201,1,135.000005149842,2|0,1:2|0:0,0:0:0:0:
174,261,23453,2,0,L|184:327,1,67.5000025749208,2|0,0:0|0:0,0:0:0:0:
256,384,23738,1,0,0:0:0:0:
256,384,24024,1,2,0:0:0:0:
19,236,24310,5,2,1:2:0:0:
157,124,24453,1,0,1:2:0:0:
157,124,24595,2,0,P|119:119|75:114,1,67.5000025749208,2|0,0:0|0:0,0:0:0:0:
159,213,24881,2,0,P|226:205|293:198,1,135.000005149842,0|8,0:0|0:0,0:0:0:0:
381,125,25310,2,0,P|327:85|261:89,1,135.000005149842,2|0,1:2|0:0,0:0:0:0:
466,261,25881,2,0,P|472:230|486:184,2,67.5000025749208,2|0|2,0:0|0:0|0:0,0:0:0:0:
380,221,26310,1,2,0:0:0:0:
380,221,26595,5,0,1:2:0:0:
283,288,26738,2,0,P|249:283|216:277,1,67.5000025749208,0|0,1:2|0:0,0:0:0:0:
140,206,27024,2,0,P|92:240|2:223,1,135.000005149842,2|0,0:0|1:2,0:0:0:0:
65,159,27381,5,0,0:0:0:0:
65,159,27453,2,0,P|60:108|54:58,1,101.250003862381,0|0,1:2|0:0,0:0:0:0:
37,45,27738,5,2,1:2:0:0:
283,142,27881,1,0,1:2:0:0:
140,206,28024,1,8,0:0:0:0:
256,33,28167,5,2,1:2:0:0:
314,285,28310,1,0,1:2:0:0:
140,206,28453,1,2,1:2:0:0:
398,108,28595,6,0,B|471:125|432:162|508:186,1,121.499996292114,2|0,1:2|0:0,0:0:0:0:
511,169,28881,1,4,1:2:0:0:
511,169,29167,5,8,0:0:0:0:
389,257,29310,1,0,0:0:0:0:
499,345,29453,2,0,P|495:304|487:264,1,80.9999975280763,2|0,1:2|0:0,0:0:0:0:
296,216,29738,1,8,0:0:0:0:
399,79,29881,2,0,P|391:118|387:159,1,80.9999975280763,2|0,0:0|1:2,0:0:0:0:
492,125,30167,1,0,0:0:0:0:
308,40,30310,1,8,0:0:0:0:
308,40,30453,2,0,B|223:48|257:107|159:116,1,161.999995056153,2|0,0:0|0:0,0:0:0:0:
35,37,30881,2,0,P|75:32|115:28,1,80.9999975280763,8|0,0:0|0:0,0:0:0:0:
144,212,31167,5,2,1:2:0:0:
7,245,31310,2,0,P|17:208|22:165,1,80.9999975280763,0|8,0:0|0:0,0:0:0:0:
144,346,31595,2,0,P|48:340|0:402,1,161.999995056153,2|0,0:0|0:0,0:0:0:0:
153,225,32024,1,8,0:0:0:0:
249,277,32167,2,0,P|289:271|329:265,1,80.9999975280763,0|0,0:0|1:0,0:0:0:0:
512,313,32453,1,0,0:0:0:0:
404,384,32595,2,0,P|409:343|418:304,1,80.9999975280763,8|0,0:0|0:0,0:0:0:0:
306,103,32881,2,0,P|316:183|327:263,1,161.999995056153,2|8,1:2|0:0,0:0:0:0:
328,264,33453,5,2,1:2:0:0:
228,379,33595,2,0,P|233:338|239:298,1,80.9999975280763,0|8,0:0|0:0,0:0:0:0:
142,223,33881,2,0,P|75:262|79:339,1,161.999995056153,2|0,0:0|0:0,0:0:0:0:
246,191,34310,1,8,0:0:0:0:
161,116,34453,2,0,P|120:121|80:127,1,80.9999975280763,0|0,0:0|1:2,0:0:0:0:
266,9,34738,2,0,P|259:45|252:88,1,80.9999975280763,0|8,0:0|0:0,0:0:0:0:
457,163,35024,1,0,0:0:0:0:
367,221,35167,2,0,P|360:180|353:141,1,80.9999975280763,2|0,1:2|0:0,0:0:0:0:
508,320,35453,2,0,P|441:320|398:368,1,121.499996292114,8|0,0:0|0:0,0:0:0:0:
314,382,35738,6,0,P|273:378|233:374,1,80.9999975280763,2|0,1:2|0:0,0:0:0:0:
70,269,36024,2,0,L|85:360,1,80.9999975280763,8|0,0:0|0:0,0:0:0:0:
195,238,36310,1,2,1:2:0:0:
196,226,36381,1,0,0:0:0:0:
198,214,36453,1,2,0:0:0:0:
110,147,36595,2,0,L|63:157,1,40.4999987640381,10|2,0:0|0:3,0:0:0:0:
217,74,36738,2,0,L|276:82,1,40.4999987640381,0|2,1:2|0:3,0:0:0:0:
114,21,36881,5,6,1:2:0:0:
322,188,37024,1,2,1:2:0:0:
185,300,37167,1,8,0:0:0:0:
398,21,37453,5,2,1:2:0:0:
190,188,37596,1,0,1:2:0:0:
327,300,37739,1,8,0:0:0:0:
490,198,38024,5,2,1:2:0:0:
485,186,38167,1,0,1:2:0:0:
485,186,38453,1,2,0:0:0:0:
406,145,38595,2,0,B|313:156|359:202|263:219,1,161.999995056153,2|8,1:2|0:0,0:0:0:0:
162,252,39024,2,0,P|172:211|176:169,1,80.9999975280763,2|0,1:2|0:0,0:0:0:0:
422,349,39453,1,8,0:0:0:0:
422,349,39738,2,0,P|341:355|260:365,1,161.999995056153,2|0,1:2|0:0,0:0:0:0:
63,249,40310,5,2,1:2:0:0:
68,237,40453,1,0,1:2:0:0:
162,173,40595,2,0,P|154:134|146:68,1,80.9999975280763,0|0,0:0|0:0,0:0:0:0:
62,152,40881,1,0,1:2:0:0:
431,318,41167,1,8,0:0:0:0:
336,369,41310,2,0,P|334:327|327:276,1,80.9999975280763,2|0,1:2|0:0,0:0:0:0:
506,238,41595,1,2,0:0:0:0:
408,144,41738,2,0,P|410:186|417:237,1,80.9999975280763,8|0,0:0|0:0,0:0:0:0:
414,224,42024,2,0,P|352:179|266:204,1,161.999995056153,2|0,1:2|0:0,0:0:0:0:
76,337,42595,5,2,1:2:0:0:
110,239,42738,1,0,1:2:0:0:
110,239,42881,2,0,P|46:244|11:240,1,80.9999975280763,0|0,0:0|0:0,0:0:0:0:
176,339,43167,2,0,P|230:289|329:309,1,161.999995056153,0|8,1:2|0:0,0:0:0:0:
428,267,43595,2,0,P|417:306|413:346,1,80.9999975280763,2|0,1:2|0:0,0:0:0:0:
320,157,44024,1,8,0:0:0:0:
320,157,44310,2,0,P|400:167|480:177,1,161.999995056153,2|0,1:2|0:0,0:0:0:0:
215,56,44881,5,2,1:2:0:0:
210,44,45024,1,0,1:2:0:0:
146,164,45167,1,0,0:0:0:0:
146,164,45453,2,0,P|65:218|-19:180,1,161.999995056153,2|8,1:2|0:0,0:0:0:0:
48,41,45881,2,0,P|56:77|62:129,1,80.9999975280763,2|0,1:2|0:0,0:0:0:0:
258,284,46167,5,2,1:2:0:0:
301,100,46310,1,8,0:0:0:0:
146,164,46453,1,0,1:2:0:0:
388,256,46595,1,2,1:2:0:0:
234,369,46738,2,0,B|209:297|263:285|236:208,1,161.999995056153,4|0,1:2|0:0,0:0:0:0:
236,210,47167,6,0,P|163:268|70:234,1,161.999995056153,6|8,1:2|0:0,0:0:0:0:
0,221,47595,1,2,0:0:0:0:
0,221,47667,1,0,0:0:0:0:
0,221,47738,2,0,P|9:262|17:313,1,80.9999975280763,0|0,1:2|0:0,0:0:0:0:
151,170,48024,1,8,0:0:0:0:
12,73,48167,1,0,0:0:0:0:
151,170,48310,6,0,L|243:158,1,80.9999975280763,6|0,1:2|0:0,0:0:0:0:
345,99,48595,2,0,P|336:153|336:202,1,80.9999975280763,8|2,0:0|0:0,0:0:0:0:
461,329,48881,2,0,P|470:275|470:226,1,80.9999975280763,0|0,1:2|0:0,0:0:0:0:
365,277,49167,1,8,0:0:0:0:
365,277,49238,1,0,0:0:0:0:
365,277,49310,1,2,0:0:0:0:
441,141,49453,5,6,1:2:0:0:
220,227,49595,1,0,0:0:0:0:
365,277,49738,1,8,0:0:0:0:
294,118,49881,1,0,0:0:0:0:
194,335,50024,5,0,1:2:0:0:
321,200,50167,1,0,0:0:0:0:
90,130,50310,1,8,0:0:0:0:
220,227,50453,1,0,0:0:0:0:
72,337,50595,6,0,P|68:292|57:241,1,80.9999975280763,2|0,1:2|0:0,0:0:0:0:
179,60,50881,2,0,P|183:105|194:156,1,80.9999975280763,8|0,0:0|0:0,0:0:0:0:
363,263,51167,1,0,1:2:0:0:
455,201,51310,2,0,P|381:151|291:180,1,161.999995056153,2|0,0:0|0:0,0:0:0:0:
363,263,51738,5,6,1:2:0:0:
363,263,52024,5,2,1:2:0:0:
130,179,52167,1,0,3:0:0:0:
313,163,52310,5,2,1:2:0:0:
74,274,52453,1,0,3:2:0:0:
204,43,52595,6,0,L|215:142,1,90,8|0,0:0|3:0,0:0:0:0:
239,347,52881,5,6,1:2:0:0:
239,347,53167,6,0,P|295:338|365:340,1,90,8|0,0:0|3:0,0:0:0:0:
494,182,53453,2,0,P|438:191|368:189,1,90,2|0,1:2|3:0,0:0:0:0:
461,292,53738,1,8,0:0:0:0:
461,292,53810,1,0,0:0:0:0:
461,292,53881,1,2,3:2:0:0:
339,102,54024,5,6,1:2:0:0:
441,58,54167,1,0,3:0:0:0:
228,83,54310,5,8,0:0:0:0:
404,191,54453,1,0,3:0:0:0:
141,162,54595,5,6,1:2:0:0:
441,58,54738,1,0,3:0:0:0:
61,84,54881,5,8,0:0:0:0:
404,191,55024,1,0,3:0:0:0:
150,355,55167,5,6,1:2:0:0:
339,99,55310,1,0,3:0:0:0:
29,191,55453,1,12,0:0:0:0:
256,277,55595,1,0,3:0:0:0:
232,26,55738,5,6,1:2:0:0:
440,311,55881,1,2,3:2:0:0:
446,293,55953,1,2,0:0:0:0:
452,276,56024,2,0,P|388:266|320:339,1,135,8|0,0:0|0:0,0:0:0:0:
264,376,56310,5,6,1:2:0:0:
419,125,56453,1,2,1:2:0:0:
153,195,56595,1,10,0:2:0:0:
440,311,56738,1,2,1:2:0:0:
308,29,57024,5,6,1:2:0:0:
22,283,57310,6,0,B|107:286|69:333|157:342,1,135,6|0,1:2|0:0,0:0:0:0:
163,329,57595,1,2,1:2:0:0:
305,230,57738,1,8,0:0:0:0:
305,230,58310,6,0,L|301:197,1,27,0|0,0:0|0:0,0:0:0:0:
315,189,58595,5,6,1:2:0:0:
155,274,58738,2,0,L|35:263,1,90,2|8,0:0|0:0,0:0:0:0:
285,358,59024,5,2,0:0:0:0:
219,96,59167,2,0,P|215:144|203:196,1,90,0|0,3:0|0:0,0:0:0:0:
501,283,59453,1,8,0:0:0:0:
398,332,59595,2,0,P|402:284|414:232,1,90,2|0,0:0|0:0,0:0:0:0:
510,170,59881,1,2,0:0:0:0:
395,0,60024,2,0,L|415:139,1,135,10|0,0:0|0:0,0:0:0:0:
334,184,60310,6,0,B|240:173|261:241|165:230,1,180,2|8,3:2|0:0,0:0:0:0:
12,140,60738,2,0,L|106:131,1,90,0|0,0:0|1:2,0:0:0:0:
68,344,61024,2,0,P|66:297|55:231,1,90,2|8,0:0|0:0,0:0:0:0:
266,205,61310,1,0,0:0:0:0:
202,21,61453,2,0,P|167:47|184:178,1,180,0|8,3:0|0:0,0:0:0:0:
359,278,61881,6,0,L|471:260,1,90,2|0,0:0|1:0,0:0:0:0:
109,112,62167,2,0,L|-3:130,1,90,2|8,0:0|0:0,0:0:0:0:
360,129,62453,2,0,P|346:64|345:33,1,90,2|0,0:0|3:0,0:0:0:0:
141,207,62738,2,0,P|158:272|164:394,1,180,2|0,0:0|0:0,0:0:0:0:
44,264,63167,5,6,1:2:0:0:
223,164,63310,1,0,0:0:0:0:
121,80,63453,2,0,P|79:88|6:91,1,90,10|0,0:0|0:0,0:0:0:0:
192,273,63738,2,0,P|234:265|307:262,1,90,0|0,1:0|0:0,0:0:0:0:
476,163,64024,1,8,0:0:0:0:
375,74,64167,2,0,P|362:117|356:161,1,90,2|0,0:0|1:0,0:0:0:0:
419,361,64453,1,0,0:0:0:0:
512,317,64595,2,0,P|451:258|364:269,1,180,10|0,0:0|1:0,0:0:0:0:
259,350,65024,2,0,P|255:303|244:261,2,90,0|8|0,3:0|0:0|3:0,0:0:0:0:
80,303,65453,5,6,1:2:0:0:
266,133,65595,1,0,1:0:0:0:
79,153,65738,1,8,0:0:0:0:
166,354,65881,5,2,1:2:0:0:
354,137,66024,1,0,1:2:0:0:
110,67,66167,1,0,1:0:0:0:
80,303,66310,5,8,0:0:0:0:
271,224,66595,5,2,1:2:0:0:
271,224,66738,1,0,3:2:0:0:
235,25,66881,6,0,P|263:86|270:134,1,90,10|2,0:0|0:0,0:0:0:0:
452,307,67167,6,0,P|385:300|340:282,1,90,2|2,1:2|0:0,0:0:0:0:
106,340,67453,6,0,P|144:285|182:255,1,90,10|2,0:0|0:0,0:0:0:0:
271,224,67738,5,6,1:2:0:0:
143,116,67881,2,0,L|31:138,1,90,0|8,0:0|0:0,0:0:0:0:
161,270,68167,5,2,0:0:0:0:
276,113,68310,2,0,P|265:64|262:21,1,90,0|0,3:2|0:0,0:0:0:0:
143,116,68595,1,8,0:0:0:0:
286,247,68738,2,0,P|364:193|450:215,1,180,2|2,0:0|0:0,0:0:0:0:
382,382,69167,2,0,P|379:334|384:282,1,90,8|0,0:0|0:0,0:0:0:0:
185,110,69453,2,0,P|196:188|199:300,1,180,0|8,3:2|0:0,0:0:0:0:
199,289,69881,1,2,0:0:0:0:
287,366,70024,5,0,1:2:0:0:
91,266,70167,1,2,0:0:0:0:
282,190,70310,2,0,L|397:205,1,90,8|0,0:0|0:0,0:0:0:0:
338,84,70595,1,0,3:2:0:0:
169,207,70738,2,0,P|177:251|179:300,1,90,0|8,0:0|0:0,0:0:0:0:
14,135,71024,6,0,P|58:134|117:118,1,90,2|0,0:0|1:0,0:0:0:0:
387,281,71310,2,0,P|343:282|284:298,1,90,2|8,0:0|0:0,0:0:0:0:
329,189,71595,2,0,P|323:144|317:99,1,90,2|0,0:0|3:0,0:0:0:0:
122,263,71881,2,0,P|127:307|133:352,1,90,2|8,0:0|0:0,0:0:0:0:
230,234,72167,1,0,0:0:0:0:
85,144,72310,1,6,1:2:0:0:
85,144,72595,6,0,B|181:163|158:92|257:111,1,180,10|0,0:0|3:0,0:0:0:0:
386,77,73024,2,0,P|375:120|372:165,1,90,0|8,0:0|0:0,0:0:0:0:
497,351,73310,2,0,P|508:307|511:262,1,90,2|0,0:0|0:0,0:0:0:0:
511,262,73595,1,0,0:0:0:0:
395,297,73738,2,0,P|312:306|216:320,1,180,8|0,0:0|3:0,0:0:0:0:
97,167,74167,1,0,3:0:0:0:
37,264,74310,2,0,P|84:267|143:277,1,90,8|0,0:0|0:3,0:0:0:0:
308,65,74595,5,2,1:2:0:0:
97,167,74738,1,0,3:0:0:0:
293,236,74881,1,8,0:0:0:0:
217,3,75024,1,0,3:0:0:0:
127,274,75167,5,6,1:2:0:0:
379,163,75310,1,2,0:0:0:0:
396,167,75381,1,0,0:0:0:0:
413,171,75453,1,8,0:0:0:0:
464,96,75595,6,0,P|395:145|290:110,1,180,6|0,1:2|1:0,0:0:0:0:
175,14,76024,2,0,P|185:80|193:147,1,135,8|0,0:0|0:0,0:0:0:0:
182,161,76310,6,0,L|158:151,1,22.5,2|0,1:0|0:0,0:0:0:0:
83,244,76453,6,0,L|51:255,1,22.5,2|0,1:0|0:0,0:0:0:0:
210,336,76595,6,0,L|185:345,1,22.5,2|0,1:0|0:0,0:0:0:0:
327,242,76738,6,0,L|305:238,1,22.5,2|0,1:0|0:0,0:0:0:0:
451,353,76881,5,6,1:2:0:0:
451,353,77167,2,0,P|448:309|440:271,1,80.9999975280763,0|0,0:0|0:0,0:0:0:0:
501,195,77453,2,0,P|443:238|349:198,1,161.999995056153,0|8,1:2|0:0,0:0:0:0:
423,150,77881,1,0,1:2:0:0:
284,299,78167,5,0,0:0:0:0:
284,299,78310,2,0,P|203:288|122:283,1,161.999995056153,0|8,1:0|0:0,0:0:0:0:
22,243,78738,2,0,P|30:277|33:323,1,80.9999975280763,0|8,1:0|0:0,0:0:0:0:
198,110,79167,1,0,1:0:0:0:
198,110,79453,2,0,P|122:162|35:142,1,161.999995056153,0|8,1:0|0:0,0:0:0:0:
238,335,80024,5,8,0:0:0:0:
321,285,80167,2,0,B|415:297|370:348|467:363,1,161.999995056153,2|0,1:2|0:0,0:0:0:0:
458,361,80595,2,0,P|464:322|477:271,1,80.9999975280763,2|0,1:2|0:0,0:0:0:0:
349,105,80881,2,0,P|342:145|333:184,1,80.9999975280763,2|0,1:2|0:0,0:0:0:0:
435,168,81167,1,8,0:0:0:0:
21,134,81453,5,2,1:2:0:0:
61,323,81595,1,0,3:0:0:0:
113,68,81738,5,8,0:0:0:0:
155,364,81881,1,0,3:0:0:0:
227,39,82024,5,2,1:2:0:0:
247,316,82167,1,0,3:0:0:0:
344,44,82310,5,8,0:0:0:0:
338,364,82452,1,0,3:0:0:0:
448,89,82595,5,2,1:2:0:0:
175,231,82738,1,0,3:0:0:0:
496,192,82881,5,12,0:0:0:0:
224,138,83024,1,0,3:0:0:0:
492,308,83167,5,6,1:2:0:0:
328,133,83310,1,2,1:3:0:0:
328,133,83381,1,2,0:3:0:0:
328,133,83453,1,8,0:0:0:0:
328,133,83738,5,2,1:2:0:0:
200,341,83881,1,8,0:0:0:0:
183,84,84167,5,2,1:2:0:0:
362,362,84310,1,8,0:0:0:0:
52,180,84595,5,2,1:2:0:0:
439,230,84738,1,8,0:0:0:0:
256,192,86024,5,4,0:0:0:0:
256,192,86095,12,0,89453,0:0:0:0:
325,171,89738,5,2,0:0:0:0:
325,171,90024,6,0,L|261:182,1,40.4999987640381,2|0,1:0|0:0,0:0:0:0:
190,215,90167,6,0,L|263:235,1,40.4999987640381,2|0,1:0|0:0,0:0:0:0:
401,156,90310,6,0,L|335:145,1,40.4999987640381,2|0,1:0|0:0,0:0:0:0:
115,186,90453,6,0,L|189:174,1,40.4999987640381,2|0,1:0|0:0,0:0:0:0:
