osu file format v14

[General]
AudioFilename: audio.mp3
AudioLeadIn: 0
PreviewTime: 58310
Countdown: 0
SampleSet: Soft
StackLeniency: 0.4
Mode: 0
LetterboxInBreaks: 0
WidescreenStoryboard: 1

[Editor]
Bookmarks: 80881
DistanceSpacing: 1.5
BeatDivisor: 4
GridSize: 16
TimelineZoom: 2

[Metadata]
Title:Uncontrollable (TV Size)
TitleUnicode:Uncontrollable (TV Size)
Artist:Ito Kanako
ArtistUnicode:いとうかなこ
Creator:schoolboy
Version:head
Source:CHAOS;CHILD
Tags:itou head op opening djulus mirash testo silky kanau mamayu fuyuyu- testo nextplay My Angel Kanan komore
BeatmapID:1697643
BeatmapSetID:805733

[Difficulty]
HPDrainRate:6
CircleSize:4
OverallDifficulty:9.5
ApproachRate:9.6
SliderMultiplier:1.9
SliderTickRate:1

[Events]
//Background and Video events
0,0,"image.jpg",0,0
Video,492,"chaos.mp4"
//Break Periods
//Storyboard Layer 0 (Background)
//Storyboard Layer 1 (Fail)
//Storyboard Layer 2 (Pass)
//Storyboard Layer 3 (Foreground)
//Storyboard Sound Samples

[TimingPoints]
1453,285.714285714286,4,2,1,45,1,0
1453,-133.333333333333,4,2,1,45,0,0
8310,-100,4,2,1,55,0,0
10310,-100,4,2,1,55,0,0
10524,-100,4,2,1,15,0,0
10595,-100,4,2,1,65,0,0
14774,-100,4,2,1,15,0,0
14881,-100,4,2,1,65,0,0
14917,-100,4,2,1,15,0,0
15024,-100,4,2,1,65,0,0
15060,-100,4,2,1,15,0,0
15167,-100,4,2,1,65,0,0
19310,-100,4,2,1,35,0,0
19381,-100,4,2,1,15,0,0
19453,-66.6666666666667,4,2,1,35,0,0
19667,-100,4,2,1,15,0,0
19738,-133.333333333333,4,2,1,45,0,0
20524,-133.333333333333,4,2,1,5,0,0
20595,-133.333333333333,4,2,1,45,0,0
21953,-133.333333333333,4,2,1,5,0,0
22024,-133.333333333333,4,2,1,45,0,0
22810,-133.333333333333,4,2,1,5,0,0
22881,-133.333333333333,4,2,1,45,0,0
24238,-133.333333333333,4,2,1,5,0,0
24310,-133.333333333333,4,2,1,45,0,0
27453,-66.6666666666667,4,2,1,45,0,0
27667,-133.333333333333,4,2,1,15,0,0
27738,-133.333333333333,4,2,1,50,0,0
28595,-83.3333333333333,4,2,1,50,0,0
28810,-111.111111111111,4,2,1,15,0,0
28881,-83.3333333333333,4,2,1,55,0,0
29095,-83.3333333333333,4,2,1,15,0,0
29167,-100,4,2,1,55,0,0
29381,-100,4,2,1,5,0,0
29453,-100,4,2,1,55,0,0
33381,-100,4,2,1,5,0,0
33453,-100,4,2,1,55,0,0
35667,-100,4,2,1,5,0,0
35738,-100,4,2,1,55,0,0
38024,-133.333333333333,4,2,1,50,0,0
46738,-117.647058823529,4,2,1,50,0,0
47167,-100,4,2,1,55,0,0
51738,-100,4,2,1,65,0,0
54024,-100,4,2,1,70,0,0
56024,-66.6666666666667,4,2,1,70,0,0
56238,-100,4,2,1,15,0,0
56310,-100,4,2,1,75,0,0
57524,-100,4,2,1,15,0,0
57595,-133.333333333333,4,2,1,75,0,0
58310,-133.333333333333,4,2,1,40,0,0
58524,-500,4,2,1,5,0,0
58595,-100,4,2,1,75,0,0
60238,-100,4,2,1,5,0,0
60310,-100,4,2,1,75,0,0
63953,-100,4,2,1,5,0,0
64024,-100,4,2,1,75,0,0
64810,-100,4,2,1,5,0,0
64881,-100,4,2,1,75,0,0
69381,-100,4,2,1,5,0,0
69453,-100,4,2,1,75,0,0
72810,-100,4,2,1,5,0,0
72881,-100,4,2,1,75,0,0
73524,-100,4,2,1,5,0,0
73595,-100,4,2,1,75,0,0
76238,-100,4,2,1,15,0,0
76310,-100,4,2,1,75,0,0
76345,-100,4,2,1,15,0,0
76453,-100,4,2,1,75,0,0
76488,-100,4,2,1,15,0,0
76595,-100,4,2,1,75,0,0
76631,-100,4,2,1,15,0,0
76738,-100,4,2,1,75,0,0
76774,-100,4,2,1,15,0,0
76881,-125,4,2,1,60,0,0
81381,-125,4,2,1,60,0,0
81453,-111.111111111111,4,2,1,70,0,0
86024,-111.111111111111,4,2,1,55,0,0
89953,-25,4,2,1,55,0,0
90024,-66.6666666666667,4,2,1,65,0,0

[Colours]
Combo1 : 187,175,228
Combo2 : 255,166,166
Combo3 : 202,234,170
Combo4 : 249,164,234

[HitObjects]
295,176,1453,6,0,P|308:107|324:37,2,142.500005435944,6|0|0,1:2|0:0|0:0,0:0:0:0:
423,324,2310,2,0,P|435:289|410:239,1,71.2500027179719,2|2,0:0|0:0,0:0:0:0:
325,288,2595,2,0,P|255:298|184:307,1,142.500005435944,0|2,1:2|0:0,0:0:0:0:
184,307,3167,1,2,0:0:0:0:
108,248,3310,1,0,0:0:0:0:
113,223,3381,1,2,0:3:0:0:
118,198,3453,1,0,0:0:0:0:
186,140,3595,1,0,0:0:0:0:
182,122,3667,1,2,0:3:0:0:
176,105,3738,6,0,P|78:138|40:105,2,142.500005435944,2|0|2,1:2|0:0|0:0,0:0:0:0:
290,259,4595,2,0,P|284:295|279:330,1,71.2500027179719,0|2,0:0|0:0,0:0:0:0:
372,297,4881,2,0,B|449:282|438:330|510:313,1,142.500005435944,0|0,1:0|0:0,0:0:0:0:
400,203,5310,1,2,0:0:0:0:
497,145,5453,2,0,P|490:180|488:216,1,71.2500027179719,0|2,1:0|0:0,0:0:0:0:
488,215,5667,1,0,0:0:0:0:
488,215,5738,1,0,0:0:0:0:
415,120,5881,1,0,0:0:0:0:
399,80,5953,1,2,0:3:0:0:
420,43,6024,5,2,1:2:0:0:
299,144,6167,1,0,0:0:0:0:
399,203,6310,2,0,P|435:196|470:190,1,71.2500027179719,2|0,0:0|0:0,0:0:0:0:
307,299,6595,2,0,P|377:309|447:323,1,142.500005435944,0|0,0:0|0:0,0:0:0:0:
399,203,7024,1,2,0:2:0:0:
307,299,7167,6,0,P|257:321|214:314,1,71.2500027179719,0|0,0:0|0:0,0:0:0:0:
90,217,7453,2,0,P|131:215|163:229,1,71.2500027179719,10|0,0:0|0:0,0:0:0:0:
311,68,7738,1,2,1:2:0:0:
176,104,7881,1,0,0:0:0:0:
285,200,8024,1,8,0:0:0:0:
227,6,8167,1,0,0:0:0:0:
378,196,8310,6,0,B|478:163|478:163|526:180|511:240,1,190,2|0,1:2|0:0,0:0:0:0:
267,360,8738,2,0,B|242:287|301:247|270:174,1,190,2|0,1:2|0:0,0:0:0:0:
139,50,9167,2,0,P|111:79|123:151,1,95,2|0,1:2|0:0,0:0:0:0:
267,360,9453,5,2,1:2:0:0:
369,93,9595,1,2,1:2:0:0:
112,222,9738,1,10,0:2:0:0:
433,309,9881,1,2,1:2:0:0:
263,6,10310,6,0,P|251:77|240:147,1,142.5,2|2,0:1|0:1,0:0:0:0:
291,221,10595,5,6,1:2:0:0:
140,90,10738,1,0,0:0:0:0:
384,183,10881,1,8,0:0:0:0:
102,266,11024,1,0,0:0:0:0:
311,83,11167,5,2,1:2:0:0:
338,341,11310,1,0,0:0:0:0:
140,90,11453,1,8,0:0:0:0:
167,348,11596,1,0,0:0:0:0:
384,183,11738,5,2,1:2:0:0:
140,90,11881,1,0,0:0:0:0:
338,341,12024,1,8,0:0:0:0:
421,38,12167,1,0,0:0:0:0:
225,173,12310,5,2,1:2:0:0:
478,271,12453,1,0,0:0:0:0:
293,46,12595,1,8,0:0:0:0:
229,373,12738,1,0,0:0:0:0:
365,113,12881,5,6,1:2:0:0:
95,228,13024,1,0,0:0:0:0:
356,322,13167,1,8,0:0:0:0:
205,12,13310,1,0,0:0:0:0:
52,342,13453,6,0,P|98:333|145:325,1,95,2|0,1:2|0:0,0:0:0:0:
280,192,13738,1,8,0:0:0:0:
96,71,13881,1,0,0:0:0:0:
279,355,14024,5,2,1:2:0:0:
220,21,14167,1,0,0:0:0:0:
463,256,14310,1,8,0:0:0:0:
128,209,14453,1,0,0:0:0:0:
427,51,14595,1,0,1:2:0:0:
149,325,14738,6,0,L|105:335,1,23.75,2|0,1:0|0:0,0:0:0:0:
384,183,14881,6,0,L|428:193,1,23.75,2|0,1:0|0:0,0:0:0:0:
119,65,15024,6,0,L|95:70,1,23.75,2|0,1:0|0:0,0:0:0:0:
374,318,15167,5,6,1:2:0:0:
297,33,15310,1,0,0:0:0:0:
509,186,15453,1,8,0:0:0:0:
245,282,15595,1,0,0:0:0:0:
427,51,15738,5,2,1:2:0:0:
153,140,15881,1,0,0:0:0:0:
475,275,16024,1,8,0:0:0:0:
201,364,16167,1,0,0:0:0:0:
290,29,16310,5,2,1:2:0:0:
358,349,16453,1,0,0:0:0:0:
153,140,16595,1,8,0:0:0:0:
473,94,16738,1,0,0:0:0:0:
155,259,16881,1,2,1:2:0:0:
500,78,17024,1,0,0:0:0:0:
147,2,17167,1,8,0:0:0:0:
441,359,17310,1,0,0:0:0:0:
71,359,17595,5,2,1:2:0:0:
19,34,17738,1,8,0:0:0:0:
441,359,18024,5,2,1:2:0:0:
493,34,18167,1,8,0:0:0:0:
19,34,18453,5,2,1:2:0:0:
71,359,18596,1,8,0:0:0:0:
493,34,18881,5,2,1:2:0:0:
441,359,19024,1,8,0:0:0:0:
250,359,19310,6,0,P|245:335|239:312,1,47.5,2|0,0:0|0:0,0:0:0:0:
171,263,19453,2,2,P|94:283|154:191,1,213.750008153916,2|2,1:1|0:1,0:1:0:0:
195,174,19738,5,2,1:2:0:0:
377,263,19881,1,0,1:2:0:0:
453,207,20024,2,0,P|441:173|438:137,1,71.2500027179719,2|0,0:0|0:0,0:0:0:0:
336,22,20310,2,0,L|324:156,1,106.875004076958,2|0,0:0|0:0,0:0:0:0:
336,148,20595,1,8,0:0:0:0:
504,54,20738,1,2,1:2:0:0:
504,54,21167,2,0,L|424:42,1,71.2500027179719,2|0,0:0|0:0,0:0:0:0:
304,151,21453,2,0,L|374:140,1,71.2500027179719,2|0,0:0|0:0,0:0:0:0:
251,41,21738,2,0,L|180:30,1,71.2500027179719,0|0,0:0|0:0,0:0:0:0:
23,189,22024,5,2,1:2:0:0:
181,134,22167,1,0,1:2:0:0:
62,30,22310,2,0,L|78:109,1,71.2500027179719,2|0,0:0|0:0,0:0:0:0:
252,193,22595,2,0,P|274:138|255:82,1,106.875004076958,2|0,0:0|0:0,0:0:0:0:
247,80,22881,1,8,0:0:0:0:
116,204,23024,2,0,B|41:184|41:184|4:199|11:239,1,142.500005435944,2|0,1:2|0:0,0:0:0:0:
105,307,23453,2,0,P|141:299|180:292,1,71.2500027179719,2|0,0:0|0:0,0:0:0:0:
280,367,23738,2,0,B|293:333|293:333|280:291,1,71.2500027179719,0|0,0:0|0:0,0:0:0:0:
437,199,24024,2,0,B|424:234|424:234|437:275,1,71.2500027179719,2|0,0:0|0:0,0:0:0:0:
486,363,24310,5,2,1:2:0:0:
324,213,24453,2,0,L|339:119,1,71.2500027179719,0|2,1:2|0:0,0:0:0:0:
238,42,24738,2,0,P|193:69|208:156,1,142.500005435944,0|0,0:0|0:0,0:0:0:0:
339,37,25167,1,8,0:0:0:0:
512,143,25310,2,0,L|356:164,1,142.500005435944,2|0,1:2|0:0,0:0:0:0:
277,233,25738,1,0,0:0:0:0:
364,331,25881,2,0,P|373:277|381:254,1,71.2500027179719,2|0,0:0|0:0,0:0:0:0:
263,68,26167,1,2,0:0:0:0:
263,68,26238,1,2,0:3:0:0:
263,68,26310,2,0,L|272:150,1,71.2500027179719,2|0,0:0|0:0,0:0:0:0:
138,272,26595,5,0,1:2:0:0:
63,62,26738,1,0,1:2:0:0:
271,171,26881,1,0,0:0:0:0:
65,336,27024,2,0,P|42:289|90:193,1,142.500005435944,2|0,0:0|1:2,0:0:0:0:
145,134,27381,1,0,0:0:0:0:
168,123,27453,6,0,B|297:136|224:202|357:225,1,213.750008153916,0|0,1:2|0:0,0:0:0:0:
440,160,27738,5,2,1:2:0:0:
156,263,27881,1,0,1:2:0:0:
403,367,28024,1,8,0:0:0:0:
308,43,28167,5,2,1:2:0:0:
232,376,28310,1,0,1:2:0:0:
24,188,28453,1,2,1:2:0:0:
318,267,28595,6,0,B|413:222|413:222|462:282,1,170.999994781494,2|0,1:2|0:0,0:0:0:0:
402,365,28881,6,0,B|381:297|430:273|397:198,1,170.999994781494,4|0,1:2|0:0,0:0:0:0:
333,127,29167,2,0,P|379:102|436:113,1,95,8|0,0:0|0:0,0:0:0:0:
220,241,29453,2,0,P|173:232|126:223,1,95,2|0,1:2|0:0,0:0:0:0:
29,295,29738,1,8,0:0:0:0:
223,140,29881,1,2,0:0:0:0:
36,29,30024,6,0,P|46:74|53:130,1,95,0|0,1:2|0:0,0:0:0:0:
285,216,30310,1,8,0:0:0:0:
167,379,30453,2,0,P|157:334|150:278,1,95,2|0,0:0|1:0,0:0:0:0:
348,110,30738,1,0,0:0:0:0:
277,325,30881,1,8,0:0:0:0:
66,226,31024,1,0,0:0:0:0:
365,267,31167,6,0,L|496:253,1,95,2|0,1:2|0:0,0:0:0:0:
245,156,31453,1,8,0:0:0:0:
384,18,31595,2,0,P|410:61|390:137,1,95,2|0,0:0|1:0,0:0:0:0:
170,355,31881,2,0,P|144:312|164:236,1,95,0|8,0:0|0:0,0:0:0:0:
4,121,32167,6,0,B|106:89|90:171|186:143,1,190,0|0,0:0|0:0,0:0:0:0:
361,36,32595,2,0,L|261:26,1,95,8|0,0:0|0:0,0:0:0:0:
446,196,32881,2,0,B|465:153|465:153|445:99,1,95,2|0,1:2|0:0,0:0:0:0:
298,291,33167,2,0,P|391:283|441:340,1,142.5,8|0,0:0|0:0,0:0:0:0:
491,374,33453,5,2,1:2:0:0:
324,139,33595,1,0,0:0:0:0:
512,232,33738,1,8,0:0:0:0:
283,384,33881,2,0,L|300:271,1,95,2|0,0:0|1:0,0:0:0:0:
105,138,34167,2,0,L|117:252,1,95,0|8,0:0|0:0,0:0:0:0:
35,355,34453,5,0,0:0:0:0:
221,245,34595,1,0,1:2:0:0:
0,137,34738,2,0,L|106:124,1,95,0|8,0:0|0:0,0:0:0:0:
297,20,35024,1,0,0:0:0:0:
221,245,35167,1,2,1:2:0:0:
82,7,35310,1,0,0:0:0:0:
374,169,35453,2,0,P|455:188|520:129,1,142.5,8|0,0:0|0:0,0:0:0:0:
433,98,35738,5,2,1:2:0:0:
96,264,35881,1,0,0:0:0:0:
416,264,36024,5,8,0:0:0:0:
79,98,36167,1,0,0:0:0:0:
240,379,36310,6,0,L|223:296,1,47.5,2|0,1:2|0:0,0:0:0:0:
301,63,36453,2,0,L|318:146,1,47.5,2|0,0:0|0:0,0:0:0:0:
197,222,36595,1,10,0:0:0:0:
153,259,36667,1,2,0:3:0:0:
96,264,36738,1,0,1:2:0:0:
42,243,36810,1,2,0:3:0:0:
9,196,36881,5,6,1:2:0:0:
359,259,37024,1,2,1:2:0:0:
67,363,37167,1,8,0:0:0:0:
503,196,37453,5,2,1:2:0:0:
153,259,37596,1,0,1:2:0:0:
445,363,37739,1,8,0:0:0:0:
248,274,38024,5,2,1:2:0:0:
50,168,38167,2,0,P|91:136|190:156,1,142.500005435944,0|2,1:2|0:0,0:0:0:0:
282,46,38595,2,0,L|198:39,1,71.2500027179719,2|0,1:2|0:0,0:0:0:0:
337,169,38881,1,8,0:0:0:0:
454,84,39024,2,0,P|446:51|439:3,1,71.2500027179719,2|0,1:2|0:0,0:0:0:0:
358,75,39310,1,0,0:0:0:0:
475,174,39453,1,8,0:0:0:0:
475,174,39738,2,0,P|466:244|458:315,1,142.500005435944,2|0,1:2|0:0,0:0:0:0:
457,316,40310,5,2,1:2:0:0:
332,256,40453,2,0,B|250:268|298:309|196:337,1,142.500005435944,0|0,1:2|0:0,0:0:0:0:
105,226,40881,2,0,L|197:239,1,71.2500027179719,0|0,1:2|0:0,0:0:0:0:
293,152,41167,1,8,0:0:0:0:
195,50,41310,2,0,B|181:83|181:83|189:119,1,71.2500027179719,2|0,1:2|0:0,0:0:0:0:
368,228,41595,1,2,0:0:0:0:
341,65,41738,1,8,0:0:0:0:
291,332,42024,2,0,P|369:365|434:335,1,142.500005435944,2|0,1:2|0:0,0:0:0:0:
360,268,42595,5,2,1:2:0:0:
211,376,42738,2,0,B|122:357|122:357|66:391,1,142.500005435944,0|0,1:2|0:0,0:0:0:0:
0,245,43167,2,0,P|6:279|13:322,1,71.2500027179719,0|0,1:2|0:0,0:0:0:0:
147,214,43453,1,8,0:0:0:0:
75,97,43595,2,0,P|69:131|62:174,1,71.2500027179719,2|0,1:2|0:0,0:0:0:0:
188,81,43881,1,2,0:0:0:0:
70,11,44024,2,0,P|36:19|-1:26,1,71.2500027179719,8|0,0:0|0:0,0:0:0:0:
314,125,44310,2,0,P|429:105|460:102,1,142.500005435944,2|0,1:2|0:0,0:0:0:0:
455,103,44881,5,2,1:2:0:0:
336,216,45024,2,0,P|266:204|196:194,1,142.500005435944,0|0,1:2|0:0,0:0:0:0:
92,158,45453,2,0,P|96:185|104:236,1,71.2500027179719,2|0,1:2|0:0,0:0:0:0:
221,99,45738,1,8,0:0:0:0:
25,11,45881,1,2,1:2:0:0:
227,380,46167,5,2,1:2:0:0:
300,298,46310,1,8,0:0:0:0:
166,236,46453,1,0,1:2:0:0:
340,127,46595,1,2,1:2:0:0:
245,16,46738,2,0,B|217:88|269:112|243:174,1,161.500003080368,4|0,1:2|0:0,0:0:0:0:
244,175,47167,6,0,P|174:122|61:171,1,190,6|8,1:2|0:0,0:0:0:0:
275,287,47595,1,2,0:0:0:0:
275,287,47667,1,0,0:0:0:0:
275,287,47738,2,0,L|402:269,1,95,0|0,1:2|0:0,0:0:0:0:
152,212,48024,1,8,0:0:0:0:
224,384,48167,1,0,0:0:0:0:
338,142,48310,5,6,1:2:0:0:
127,305,48453,1,0,0:0:0:0:
384,376,48595,1,8,0:0:0:0:
259,244,48738,1,2,0:0:0:0:
259,244,48810,1,0,0:0:0:0:
259,244,48881,2,0,L|274:351,1,95,0|0,1:2|0:0,0:0:0:0:
384,123,49167,1,8,0:0:0:0:
137,221,49310,1,2,0:0:0:0:
137,221,49381,1,0,0:0:0:0:
137,221,49453,6,0,L|32:206,1,95,6|0,1:2|0:0,0:0:0:0:
42,207,49667,1,0,0:0:0:0:
42,207,49738,1,8,0:0:0:0:
282,130,49881,1,0,0:0:0:0:
164,330,50024,1,0,1:2:0:0:
36,87,50167,1,0,0:0:0:0:
36,87,50238,1,0,0:0:0:0:
36,87,50310,1,8,0:0:0:0:
268,220,50453,1,0,0:0:0:0:
58,368,50595,6,0,L|71:264,1,95,2|0,1:2|0:0,0:0:0:0:
252,197,50881,1,8,0:0:0:0:
131,51,51024,1,0,0:0:0:0:
131,51,51095,1,0,0:0:0:0:
131,51,51167,2,0,L|151:169,1,95,0|2,1:2|0:0,0:0:0:0:
323,340,51453,1,8,0:0:0:0:
496,149,51595,1,0,0:0:0:0:
496,149,51667,1,0,0:0:0:0:
496,149,51738,6,0,P|451:142|400:135,1,95,6|0,1:2|0:0,0:0:0:0:
148,300,52024,5,2,1:2:0:0:
419,239,52167,1,0,3:0:0:0:
73,196,52310,5,2,1:2:0:0:
429,353,52453,1,0,3:2:0:0:
50,362,52595,5,8,0:0:0:0:
444,228,52738,1,0,3:0:0:0:
127,37,52881,6,0,L|151:156,1,95,6|0,1:2|0:0,0:0:0:0:
295,344,53167,5,8,0:0:0:0:
413,66,53310,1,0,3:0:0:0:
436,384,53453,5,2,1:2:0:0:
318,124,53595,1,0,3:0:0:0:
186,374,53738,5,8,0:0:0:0:
266,23,53881,1,2,3:2:0:0:
38,255,54024,5,6,1:2:0:0:
205,213,54167,1,0,3:0:0:0:
38,129,54310,5,8,0:0:0:0:
290,205,54453,1,0,3:0:0:0:
3,265,54595,5,6,1:2:0:0:
373,195,54738,1,0,3:0:0:0:
3,119,54881,5,8,0:0:0:0:
456,182,55024,1,0,3:0:0:0:
201,371,55167,5,6,1:2:0:0:
320,62,55310,1,0,3:0:0:0:
400,373,55453,5,12,0:0:0:0:
70,235,55595,1,0,3:0:0:0:
418,58,55738,5,6,1:2:0:0:
109,341,55881,1,2,3:2:0:0:
132,293,55953,1,2,0:0:0:0:
175,264,56024,2,0,P|250:256|312:378,1,213.750008153916,8|0,0:0|0:0,0:0:0:0:
222,345,56310,5,6,1:2:0:0:
327,15,56453,1,2,1:2:0:0:
9,145,56595,1,10,0:2:0:0:
475,265,56738,1,2,1:2:0:0:
123,9,57024,5,6,1:2:0:0:
285,364,57310,6,0,P|296:294|309:224,1,142.5,6|0,1:2|0:0,0:0:0:0:
382,168,57596,1,2,1:2:0:0:
123,9,57738,1,8,0:0:0:0:
20,245,58310,6,0,P|70:255|82:201,1,106.875004076958,0|0,0:0|0:0,0:0:0:0:
12,154,58595,5,6,1:2:0:0:
225,277,58738,2,0,L|327:263,1,95,2|8,0:0|0:0,0:0:0:0:
55,75,59024,5,2,0:0:0:0:
223,378,59167,2,0,L|325:364,1,95,0|0,3:0|0:0,0:0:0:0:
494,221,59453,5,8,0:0:0:0:
353,36,59595,2,0,P|305:46|293:171,1,190,2|2,0:0|0:0,0:0:0:0:
165,286,60024,2,0,P|94:272|24:261,1,142.5,10|0,0:0|0:0,0:0:0:0:
0,288,60310,5,2,3:2:0:0:
180,167,60453,1,0,0:0:0:0:
48,10,60595,2,0,P|3:62|15:130,1,142.5,8|0,0:0|0:0,0:0:0:0:
90,85,60881,1,0,1:2:0:0:
262,384,61024,6,0,L|247:290,1,95,2|8,0:0|0:0,0:0:0:0:
443,164,61310,1,0,0:0:0:0:
237,80,61453,1,0,3:0:0:0:
413,276,61595,2,0,L|538:253,1,95,0|8,0:0|0:0,0:0:0:0:
145,15,61881,6,0,P|134:89|121:137,1,95,2|0,0:0|1:0,0:0:0:0:
398,370,62167,2,0,P|409:296|422:248,1,95,2|8,0:0|0:0,0:0:0:0:
71,335,62453,2,0,L|177:322,1,95,2|0,0:0|3:0,0:0:0:0:
441,49,62738,2,0,L|335:62,1,95,2|8,0:0|0:0,0:0:0:0:
277,203,63024,1,0,0:0:0:0:
169,80,63167,5,6,1:2:0:0:
405,224,63310,1,0,0:0:0:0:
179,366,63453,2,0,L|197:251,1,95,10|0,0:0|0:0,0:0:0:0:
31,99,63738,2,0,B|-15:137|-15:137|20:254,1,142.5,0|0,1:0|0:0,0:0:0:0:
38,300,64024,1,8,0:0:0:0:
296,165,64167,6,0,L|195:148,1,95,2|0,0:0|1:0,0:0:0:0:
436,92,64453,1,0,0:0:0:0:
293,313,64595,2,0,P|226:279|139:312,1,142.5,10|0,0:0|0:0,0:0:0:0:
86,359,64881,2,0,L|61:232,1,95,0|0,1:0|3:0,0:0:0:0:
279,23,65167,1,8,0:0:0:0:
270,74,65238,1,2,0:3:0:0:
261,127,65310,1,0,3:0:0:0:
253,179,65381,1,2,0:3:0:0:
244,231,65453,5,6,1:2:0:0:
98,67,65595,1,0,1:0:0:0:
428,164,65738,1,8,0:0:0:0:
197,361,65881,5,2,1:2:0:0:
181,26,66024,1,0,1:2:0:0:
359,267,66167,1,0,1:0:0:0:
63,142,66310,6,0,L|157:128,1,95,8|0,0:0|0:0,0:0:0:0:
419,353,66595,5,2,1:2:0:0:
127,229,66738,1,0,3:2:0:0:
383,24,66881,2,0,L|364:117,1,95,10|2,0:0|0:0,0:0:0:0:
327,374,67167,6,0,L|334:327,1,47.5,2|0,1:2|0:0,0:0:0:0:
178,216,67310,2,0,L|192:274,1,47.5,2|0,0:0|0:0,0:0:0:0:
357,164,67453,6,0,L|364:117,1,47.5,10|0,0:0|0:0,0:0:0:0:
126,0,67595,2,0,L|140:58,1,47.5,2|0,0:0|0:0,0:0:0:0:
28,230,67738,5,6,1:2:0:0:
270,58,67881,2,0,L|286:158,1,95,0|8,0:0|0:0,0:0:0:0:
0,240,68167,5,2,0:0:0:0:
363,18,68310,2,0,L|379:118,1,95,0|0,3:2|0:0,0:0:0:0:
210,374,68595,5,8,0:0:0:0:
354,288,68738,2,0,L|448:299,1,95,2|0,0:0|1:2,0:0:0:0:
224,178,69024,1,2,0:0:0:0:
392,14,69167,2,0,B|425:105|425:105|394:156,1,142.5,8|0,0:0|0:0,0:0:0:0:
318,189,69453,2,0,L|207:175,1,95,0|0,3:2|0:0,0:0:0:0:
31,82,69738,1,8,0:0:0:0:
150,300,69881,1,2,0:0:0:0:
248,50,70024,5,0,1:2:0:0:
22,210,70167,1,2,0:0:0:0:
261,323,70310,2,0,L|357:318,1,95,8|0,0:0|0:0,0:0:0:0:
512,179,70595,1,0,3:2:0:0:
367,51,70738,2,0,L|382:171,1,95,0|8,0:0|0:0,0:0:0:0:
124,98,71024,6,0,P|76:109|22:119,1,95,2|0,0:0|1:0,0:0:0:0:
355,318,71310,2,0,P|402:306|457:297,1,95,2|8,0:0|0:0,0:0:0:0:
367,51,71595,2,0,L|380:145,1,95,2|0,0:0|3:0,0:0:0:0:
114,384,71881,2,0,L|100:289,1,95,2|8,0:0|0:0,0:0:0:0:
267,313,72167,1,0,0:0:0:0:
97,78,72310,5,6,1:2:0:0:
337,215,72453,1,0,0:0:0:0:
50,357,72595,2,0,B|134:320|134:320|191:350,1,142.5,10|0,0:0|0:0,0:0:0:0:
202,362,72881,2,0,P|199:306|178:252,1,95,0|0,3:0|0:0,0:0:0:0:
25,177,73167,1,8,0:0:0:0:
190,0,73310,6,0,P|181:72|170:162,1,142.5,2|0,0:0|0:0,0:0:0:0:
237,205,73595,1,0,0:0:0:0:
61,90,73738,1,8,0:0:0:0:
330,32,73881,1,0,0:0:0:0:
182,268,74024,2,0,P|135:260|88:253,1,95,0|0,3:0|3:0,0:0:0:0:
336,138,74310,1,8,0:0:0:0:
397,384,74453,1,0,0:3:0:0:
190,37,74595,5,2,1:2:0:0:
8,264,74738,1,0,3:0:0:0:
335,228,74881,1,8,0:0:0:0:
17,53,75024,1,0,3:0:0:0:
226,360,75167,5,6,1:2:0:0:
355,39,75310,1,2,0:0:0:0:
362,66,75381,1,0,0:0:0:0:
369,93,75453,1,8,0:0:0:0:
17,164,75595,6,0,L|150:139,1,95,6|0,1:2|0:0,0:0:0:0:
431,317,75881,1,0,1:0:0:0:
431,317,75953,1,0,0:0:0:0:
431,317,76024,2,0,P|364:343|290:302,1,142.5,8|0,0:0|0:0,0:0:0:0:
240,253,76310,6,0,L|250:215,1,23.75,2|0,1:0|0:0,0:0:0:0:
359,153,76453,6,0,L|367:191,1,23.75,2|0,1:0|0:0,0:0:0:0:
123,297,76595,6,0,L|128:256,1,23.75,2|0,1:0|0:0,0:0:0:0:
444,65,76738,6,0,L|441:108,1,23.75,2|0,1:0|0:0,0:0:0:0:
59,32,76881,5,6,1:2:0:0:
216,107,77024,1,0,0:0:0:0:
216,107,77453,2,0,P|210:144|201:192,1,76,0|0,1:2|0:0,0:0:0:0:
358,348,77738,1,8,0:0:0:0:
315,172,77881,1,0,1:2:0:0:
209,317,78024,6,0,P|143:363|52:331,1,152,0|0,0:0|1:0,0:0:0:0:
8,274,78595,1,8,0:0:0:0:
82,181,78738,1,0,1:0:0:0:
77,158,78809,1,0,0:0:0:0:
71,135,78881,1,8,0:0:0:0:
71,134,79167,6,0,B|171:144|121:192|220:207,2,152,0|0|8,1:0|1:0|0:0,0:0:0:0:
284,345,80024,1,8,0:0:0:0:
368,271,80167,2,0,L|342:117,1,152,2|0,1:2|0:0,0:0:0:0:
448,52,80595,2,0,P|441:83|434:139,1,76,2|0,1:2|0:0,0:0:0:0:
263,256,80881,2,0,P|258:219|249:182,1,76,2|0,1:2|0:0,0:0:0:0:
502,317,81167,2,0,P|462:273|397:277,1,114,8|0,0:0|0:0,0:0:0:0:
346,340,81453,5,2,1:2:0:0:
150,269,81595,1,0,3:0:0:0:
419,180,81738,5,8,0:0:0:0:
61,245,81881,1,0,3:0:0:0:
334,43,82024,5,2,1:2:0:0:
37,339,82167,1,0,3:0:0:0:
174,15,82310,5,8,0:0:0:0:
126,363,82453,1,0,3:0:0:0:
415,97,82595,5,2,1:2:0:0:
31,55,82738,1,0,3:0:0:0:
257,356,82881,5,12,0:0:0:0:
398,23,83024,1,0,3:0:0:0:
406,60,83095,1,2,0:3:0:0:
415,97,83167,2,0,L|405:159,1,42.7499986953736,6|0,1:2|0:3,0:0:0:0:
155,376,83310,1,2,1:3:0:0:
130,317,83381,1,2,0:3:0:0:
167,264,83453,2,0,L|265:272,1,85.4999973907472,8|0,0:0|0:0,0:0:0:0:
500,83,83738,5,2,1:2:0:0:
166,147,83881,1,8,0:0:0:0:
363,345,84167,5,2,1:2:0:0:
29,281,84310,1,8,0:0:0:0:
327,13,84595,5,2,1:2:0:0:
237,378,84738,1,8,0:0:0:0:
83,78,86024,5,4,0:0:0:0:
256,192,86095,12,0,89453,0:0:0:0:
289,231,89738,5,2,0:0:0:0:
289,231,90024,6,0,L|373:223,1,71.2500027179719,2|0,1:0|0:0,0:0:0:0:
496,119,90167,2,0,L|412:111,1,71.2500027179719,2|0,1:0|0:0,0:0:0:0:
234,335,90310,2,0,L|318:327,1,71.2500027179719,2|0,1:0|0:0,0:0:0:0:
94,126,90453,2,0,L|10:134,1,71.2500027179719,2|0,1:0|0:0,0:0:0:0:
