osu file format v14

[General]
AudioFilename: audio.mp3
AudioLeadIn: 0
PreviewTime: 58310
Countdown: 0
SampleSet: Soft
StackLeniency: 0.3
Mode: 0
LetterboxInBreaks: 0
WidescreenStoryboard: 1

[Editor]
Bookmarks: 17453,19738,28881,47167,90024,90167,90310,90453
DistanceSpacing: 2
BeatDivisor: 4
GridSize: 4
TimelineZoom: 2

[Metadata]
Title:Uncontrollable (TV Size)
TitleUnicode:Uncontrollable (TV Size)
Artist:Ito Kanako
ArtistUnicode:いとうかなこ
Creator:Hakura
Version:Mun's Hard
Source:CHAOS;CHILD
Tags:itou head op opening mun mir kalibe sotarks lowcombofc
BeatmapID:1639280
BeatmapSetID:768065

[Difficulty]
HPDrainRate:4
CircleSize:3.8
OverallDifficulty:6
ApproachRate:8.2
SliderMultiplier:1.5
SliderTickRate:1

[Events]
//Background and Video events
0,0,"chaoschild-2.jpg",0,0
Video,492,"chaos.mp4"
//Break Periods
//Storyboard Layer 0 (Background)
//Storyboard Layer 1 (Fail)
//Storyboard Layer 2 (Pass)
//Storyboard Layer 3 (Foreground)
//Storyboard Sound Samples

[TimingPoints]
1453,285.714285714286,4,2,1,45,1,0
1453,-142.857142857143,4,2,1,45,0,0
6024,-111.111111111111,4,2,1,45,0,0
8310,-66.6666666666667,4,2,1,45,0,0
9453,-58.8235294117647,4,2,1,45,0,0
10310,-142.857142857143,4,2,1,45,0,0
10524,-142.857142857143,4,2,1,5,0,0
10595,-100,4,2,1,55,0,0
19310,-100,4,2,1,40,0,0
19738,-166.666666666667,4,2,1,40,0,0
27453,-66.6666666666667,4,2,1,40,0,0
27738,-100,4,2,1,40,0,0
28881,-100,4,2,1,45,0,0
38024,-100,4,2,1,40,0,0
39738,-166.666666666667,4,2,1,40,0,0
40310,-100,4,2,1,40,0,0
42024,-200,4,2,1,40,0,0
42595,-100,4,2,1,40,0,0
46738,-50,4,2,1,40,0,0
47167,-100,4,2,1,50,0,0
58595,-83.3333333333333,4,2,1,60,0,1
65453,-58.8235294117647,4,2,1,60,0,1
66595,-100,4,2,1,60,0,1
67738,-83.3333333333333,4,2,1,60,0,1
74595,-71.4285714285714,4,2,1,60,0,1
76881,-142.857142857143,4,2,1,45,0,0
81453,-100,4,2,1,60,0,1
83738,-100,4,2,1,60,0,0
86024,-100,4,2,1,45,0,0
89738,-100,4,2,1,5,0,0
89810,-100,4,2,1,45,0,0

[Colours]
Combo1 : 187,113,165
Combo2 : 227,138,138
Combo3 : 141,124,186
Combo4 : 221,192,132

[HitObjects]
76,290,1453,6,0,B|35:201|84:138|84:138|158:167|168:264,1,314.999990386963,0|0,3:0|0:0,0:0:0:0:
76,290,2595,2,0,B|126:269|176:294|176:294|226:325|294:297,1,209.999993591309,0|0,3:0|0:0,0:0:0:0:
324,231,3310,2,0,L|316:201,2,26.2499991989136,0|0|0,0:0|0:0|0:0,0:0:0:0:
364,306,3596,1,0,0:0:0:0:
364,306,3738,2,0,B|333:385|333:385|263:338|263:338|321:192,1,314.999990386963,0|0,3:0|0:0,0:0:0:0:
422,153,4881,6,0,B|362:99|362:99|284:97,1,157.499995193482,0|0,3:0|0:0,0:0:0:0:
421,162,5453,2,0,B|459:197,1,52.4999983978272,0|0,3:0|0:0,0:0:0:0:
277,104,5738,2,0,B|294:104|231:102,1,52.4999983978272,0|0,0:0|0:0,0:0:0:0:
297,256,6024,6,0,B|272:319,1,67.4999979400635,0|0,3:0|0:0,0:0:0:0:
324,179,6310,1,0,3:0:0:0:
258,129,6453,2,0,P|241:157|241:191,1,67.4999979400635,0|0,0:0|3:0,0:0:0:0:
334,98,6738,2,0,P|316:69|316:35,1,67.4999979400635,0|0,0:0|3:0,0:0:0:0:
414,113,7024,1,0,0:0:0:0:
492,131,7167,6,0,L|486:220,1,67.4999979400635,0|0,3:0|0:0,0:0:0:0:
435,261,7453,2,0,L|462:322,1,67.4999979400635,0|0,3:0|0:0,0:0:0:0:
402,186,7738,1,0,3:0:0:0:
325,158,7881,2,0,B|288:150|260:165|260:165|227:180|173:160,1,134.999995880127,0|0,0:0|0:0,0:0:0:0:
91,86,8310,6,0,P|87:173|121:111,1,225.000008583069,8|0,0:0|0:0,0:0:0:0:
182,54,8738,2,0,P|259:19|216:92,1,225.000008583069,8|0,0:0|0:0,0:0:0:0:
203,181,9167,2,0,B|181:236|124:255|124:255|154:337,1,168.750006437302,8|0,0:0|0:0,0:0:0:0:
151,326,9453,6,0,B|229:314|264:238|264:238|295:305|237:354,1,255.000004863739,8|8,0:0|0:0,0:0:0:0:
128,324,9881,1,8,0:0:0:0:
128,324,10310,6,0,P|85:315|45:287,1,78.7499975967408,0|0,0:0|0:0,0:0:0:0:
35,274,10595,2,0,L|35:349,1,75,4|0,3:2|0:0,0:0:0:0:
81,214,10881,2,0,L|81:139,1,75,8|0,0:0|0:0,0:0:0:0:
81,63,11167,1,0,3:0:0:0:
146,25,11310,1,0,0:0:0:0:
211,62,11453,2,0,P|254:71|293:62,1,75,8|0,0:0|0:0,0:0:0:0:
370,85,11738,6,0,P|362:49|367:12,1,75,0|0,3:0|0:0,0:0:0:0:
421,142,12024,2,0,P|426:178|417:215,1,75,8|0,0:0|0:0,0:0:0:0:
354,257,12310,1,0,3:0:0:0:
354,257,12453,1,0,0:0:0:0:
291,206,12595,2,0,L|210:195,1,75,8|0,0:0|0:0,0:0:0:0:
152,235,12881,6,0,B|146:273|146:273|156:307,1,75,0|0,3:0|0:0,0:0:0:0:
106,174,13167,2,0,B|116:139|116:139|110:101,1,75,8|0,0:0|0:0,0:0:0:0:
54,50,13453,1,0,3:0:0:0:
125,29,13595,1,0,0:0:0:0:
181,78,13738,2,0,P|241:89|263:82,1,75,8|0,0:0|0:0,0:0:0:0:
312,136,14024,6,0,L|387:132,1,75,0|0,3:0|0:0,0:0:0:0:
254,184,14310,2,0,L|179:180,1,75,8|0,0:0|0:0,0:0:0:0:
104,175,14595,1,0,3:0:0:0:
145,111,14738,5,0,0:0:0:0:
29,172,14881,1,8,0:0:0:0:
140,242,15024,1,0,0:0:0:0:
146,101,15167,6,0,L|147:26,1,75,4|0,3:2|0:0,0:0:0:0:
209,142,15453,2,0,L|211:221,1,75,8|0,0:0|0:0,0:0:0:0:
140,242,15738,1,0,3:0:0:0:
126,315,15881,1,0,0:0:0:0:
182,363,16024,2,0,P|242:359|270:334,1,75,8|0,0:0|0:0,0:0:0:0:
290,286,16310,6,0,B|302:251|302:251|297:213,1,75,0|0,3:0|0:0,0:0:0:0:
360,311,16595,2,0,B|355:348|355:348|367:383,1,75,8|0,0:0|0:0,0:0:0:0:
431,282,16881,1,0,3:0:0:0:
431,282,17024,1,0,0:0:0:0:
437,207,17167,2,0,L|433:115,1,75,8|0,0:0|0:0,0:0:0:0:
290,286,17453,1,0,3:0:0:0:
355,231,17595,5,8,0:0:0:0:
210,258,17738,1,8,0:0:0:0:
374,228,18024,5,8,0:0:0:0:
235,179,18167,1,8,0:0:0:0:
393,225,18453,5,8,0:0:0:0:
296,123,18595,1,8,0:0:0:0:
412,222,18881,5,8,0:0:0:0:
376,105,19024,1,8,0:0:0:0:
222,313,19738,5,4,3:2:0:0:
218,337,19881,1,0,3:0:0:0:
266,222,20595,1,0,3:0:0:0:
274,244,20738,1,0,3:0:0:0:
276,136,22024,5,0,3:0:0:0:
258,121,22167,1,0,3:0:0:0:
223,41,22881,1,0,3:0:0:0:
200,37,23024,1,0,3:0:0:0:
161,218,24310,5,0,3:0:0:0:
184,214,24453,1,0,3:0:0:0:
274,244,25167,1,0,3:0:0:0:
297,240,25310,1,0,3:0:0:0:
254,151,26595,5,0,3:0:0:0:
227,303,26738,1,0,0:0:0:0:
227,303,27310,2,0,L|188:305,1,22.4999993133545,0|0,0:0|0:0,0:0:0:0:
181,314,27453,6,0,P|169:278|138:343,1,168.750006437302,0|0,3:0|0:0,0:0:0:0:
105,340,27738,6,0,L|12:340,1,75,8|0,0:0|3:0,0:0:0:0:
6,260,28024,1,0,3:0:0:0:
167,260,28167,2,0,L|74:260,1,75,8|0,0:0|0:0,0:0:0:0:
68,180,28453,1,0,3:0:0:0:
220,192,28595,2,0,B|256:174|256:174|216:157|216:157|154:180,1,150,8|4,0:0|3:2,0:0:0:0:
310,231,29167,6,0,P|331:199|333:162,1,75,8|0,0:0|0:0,0:0:0:0:
231,258,29453,2,0,P|285:303|266:377,1,150,0|8,3:0|0:0,0:0:0:0:
184,268,29881,2,0,P|252:255|301:311,1,150,0|0,0:0|0:0,0:0:0:0:
158,348,30310,1,8,0:0:0:0:
184,268,30453,1,0,0:0:0:0:
124,211,30595,2,0,L|124:136,1,75,0|0,0:0|0:0,0:0:0:0:
68,273,30881,2,0,P|31:279|-7:263,1,75,8|0,0:0|0:0,0:0:0:0:
42,196,31167,5,0,3:0:0:0:
79,131,31310,1,0,0:0:0:0:
44,64,31453,1,8,0:0:0:0:
91,6,31595,2,0,L|174:7,1,75,0|0,0:0|3:0,0:0:0:0:
222,56,31881,2,0,L|396:59,1,150,0|0,0:0|0:0,0:0:0:0:
371,58,32453,5,0,0:0:0:0:
329,123,32595,2,0,P|318:159|326:195,1,75,8|0,0:0|0:0,0:0:0:0:
291,58,32881,2,0,P|241:68|215:58,1,75,0|0,3:0|0:0,0:0:0:0:
156,18,33167,2,0,L|186:138,1,112.5,8|0,0:0|0:0,0:0:0:0:
188,144,33453,6,0,P|151:143|119:161,2,75,0|0|8,3:0|0:0|0:0,0:0:0:0:
91,231,33881,2,0,L|100:321,1,75,0|0,0:0|3:0,0:0:0:0:
173,317,34167,2,0,L|165:242,1,75,0|8,0:0|0:0,0:0:0:0:
239,253,34453,6,0,B|251:361|251:361|294:318,2,150,0|0|0,0:0|0:0|0:0,0:0:0:0:
217,181,35167,2,0,L|209:106,1,75,0|0,3:0|0:0,0:0:0:0:
292,199,35453,2,0,P|342:198|372:176,1,75,8|0,0:0|0:0,0:0:0:0:
391,116,35738,6,0,L|407:279,1,150,0|8,3:0|0:0,0:0:0:0:
290,332,36167,2,0,B|328:338|328:338|363:327,2,75,0|0|0,0:0|0:0|0:0,0:0:0:0:
225,294,36595,2,0,P|211:313|207:333,3,37.5,8|0|0|0,0:0|0:0|0:0|0:0,0:0:0:0:
201,343,36881,5,8,0:0:0:0:
104,326,37024,1,8,0:0:0:0:
8,308,37167,1,8,0:0:0:0:
210,358,37453,5,8,0:0:0:0:
109,341,37596,1,8,0:0:0:0:
10,322,37739,1,8,0:0:0:0:
135,158,38024,5,4,3:2:0:0:
135,182,38167,1,0,3:0:0:0:
337,279,38881,5,0,3:0:0:0:
325,258,39024,2,0,B|278:227|231:248|231:248|217:267|217:267|162:291|90:249,1,225,0|0,3:0|3:0,0:0:0:0:
117,262,39738,2,0,P|166:255|216:269,1,89.9999972534181,8|0,0:0|0:0,0:0:0:0:
280,314,40310,6,0,B|281:243|281:243|292:234|292:234|294:138,1,150,0|0,3:0|3:0,0:0:0:0:
144,67,41167,1,0,3:0:0:0:
135,84,41310,2,0,B|200:133|276:108|276:108|265:61|223:47,1,225,0|0,3:0|3:0,0:0:0:0:
355,60,42024,5,8,0:0:0:0:
364,75,42167,2,0,P|371:119|357:162,1,75,0|0,0:0|0:0,0:0:0:0:
298,211,42595,5,0,3:0:0:0:
320,215,42738,1,0,3:0:0:0:
226,278,43453,5,0,3:0:0:0:
248,282,43595,2,0,P|248:319|162:256,1,225,0|0,3:0|3:0,0:0:0:0:
148,270,44310,1,8,0:0:0:0:
206,49,44881,6,0,B|230:122|230:122|210:192,1,150,0|0,3:0|3:0,0:0:0:0:
210,192,45738,1,0,3:0:0:0:
279,220,45881,2,0,L|457:233,1,150,0|0,3:0|0:0,0:0:0:0:
463,297,46310,6,0,P|468:361|451:386,2,75,0|0|8,3:0|3:0|0:0,0:0:0:0:
428,230,46738,2,0,P|431:170|462:257,1,300,8|0,0:0|0:0,0:0:0:0:
357,266,47167,6,0,P|339:212|342:173,1,75,4|0,3:2|0:0,0:0:0:0:
364,122,47453,2,0,P|326:119|292:104,1,75,8|0,0:0|0:0,0:0:0:0:
242,48,47738,1,0,3:0:0:0:
242,48,47881,1,0,3:0:0:0:
174,80,48024,2,0,B|163:118|175:167,1,75,8|0,0:0|0:0,0:0:0:0:
122,26,48310,6,0,B|84:15|84:15|35:27,1,75,0|0,3:0|0:0,0:0:0:0:
8,86,48595,2,0,B|19:124|19:124|7:173,1,75,8|0,0:0|0:0,0:0:0:0:
51,222,48881,2,0,B|112:225|112:225|135:243|135:243|212:246,1,150,0|8,3:0|0:0,0:0:0:0:
270,246,49310,1,0,0:0:0:0:
323,299,49453,6,0,P|331:355|315:384,1,75,0|0,3:0|0:0,0:0:0:0:
253,347,49738,2,0,B|197:335|197:335|103:367,1,150,8|0,0:0|3:0,0:0:0:0:
109,364,50167,1,0,3:0:0:0:
49,319,50310,2,0,P|38:273|50:240,1,75,8|0,0:0|0:0,0:0:0:0:
104,200,50595,6,0,L|178:206,1,75,0|0,3:0|0:0,0:0:0:0:
74,130,50881,2,0,L|0:136,1,75,8|0,0:0|0:0,0:0:0:0:
107,62,51167,1,0,3:0:0:0:
107,62,51310,2,0,B|149:56|176:86|176:86|201:56|260:58,1,150,0|0,3:0|0:0,0:0:0:0:
301,103,51738,6,0,L|301:189,1,75,0|0,3:0|0:0,0:0:0:0:
358,302,52024,2,0,L|358:227,1,75,8|0,0:0|0:0,0:0:0:0:
305,99,52310,2,0,L|305:185,1,75,8|0,0:0|3:0,0:0:0:0:
362,298,52596,2,0,L|362:223,1,75,8|0,0:0|0:0,0:0:0:0:
308,358,52881,6,0,P|261:368|226:357,1,75,0|0,3:0|0:0,0:0:0:0:
178,235,53167,2,0,P|171:272|182:308,1,75,8|0,0:0|0:0,0:0:0:0:
308,362,53453,2,0,P|261:372|226:361,1,75,8|0,0:0|3:0,0:0:0:0:
174,235,53739,2,0,P|167:271|177:307,1,75,8|0,0:0|0:0,0:0:0:0:
215,160,54024,6,0,B|177:151|177:151|126:160,1,75,8|0,0:0|0:0,0:0:0:0:
0,186,54310,2,0,B|37:195|37:195|73:189,1,75,8|0,0:0|0:0,0:0:0:0:
86,115,54595,1,8,0:0:0:0:
85,102,54738,1,0,3:0:0:0:
33,47,54881,1,8,0:0:0:0:
32,34,55024,1,0,3:0:0:0:
117,23,55167,6,0,P|171:22|203:43,1,75,8|0,0:0|3:0,0:0:0:0:
262,13,55453,2,0,P|289:59|287:97,1,75,8|0,0:0|3:0,0:0:0:0:
343,133,55738,2,0,P|316:180|282:197,1,75,8|0,0:0|3:0,0:0:0:0:
279,263,56024,2,0,P|224:263|192:242,1,75,8|0,0:0|3:0,0:0:0:0:
146,210,56310,5,8,0:0:0:0:
140,290,56453,1,0,3:0:0:0:
76,190,56595,1,8,0:0:0:0:
140,290,56738,1,8,0:0:0:0:
287,264,57024,1,8,0:0:0:0:
435,238,57310,6,0,P|447:197|436:159,1,75,8|0,0:0|0:0,0:0:0:0:
378,123,57595,1,8,0:0:0:0:
418,59,57738,1,8,0:0:0:0:
239,263,58595,6,0,P|217:177|257:99,1,179.999994506836,4|8,3:2|0:0,0:0:0:0:
180,194,59024,2,0,P|94:172|15:211,1,179.999994506836,0|0,0:0|0:0,0:0:0:0:
113,132,59453,1,8,0:0:0:0:
180,194,59595,6,0,B|213:241|213:241|181:366,1,179.999994506836,0|0,0:0|0:0,0:0:0:0:
39,308,60024,2,0,P|77:285|120:292,1,89.9999972534181,8|0,0:0|0:0,0:0:0:0:
182,359,60310,2,0,P|223:373|265:357,1,89.9999972534181,0|0,3:0|0:0,0:0:0:0:
312,281,60595,2,0,B|442:275|442:275|402:305,1,179.999994506836,8|0,0:0|3:0,0:0:0:0:
355,201,61024,6,0,P|338:155|446:115,1,179.999994506836,0|0,0:0|0:0,0:0:0:0:
471,22,61453,1,0,3:0:0:0:
471,22,61595,2,0,L|360:20,1,89.9999972534181,0|8,0:0|0:0,0:0:0:0:
300,62,61881,2,0,L|189:64,1,89.9999972534181,0|0,0:0|3:0,0:0:0:0:
126,27,62167,6,0,P|52:22|33:135,1,179.999994506836,0|0,0:0|0:0,0:0:0:0:
83,169,62595,1,0,3:0:0:0:
83,169,62738,2,0,B|93:214|93:214|79:258,2,89.9999972534181,0|8|0,0:0|0:0|0:0,0:0:0:0:
170,191,63167,6,0,L|317:229,1,134.999995880127,0|0,3:0|0:0,0:0:0:0:
319,231,63453,2,0,P|341:184|327:133,1,89.9999972534181,8|0,0:0|0:0,0:0:0:0:
275,80,63738,1,0,3:0:0:0:
275,80,64024,1,8,0:0:0:0:
357,44,64167,6,0,B|399:23|444:48|444:48|491:73|534:43,1,179.999994506836,0|0,0:0|0:0,0:0:0:0:
454,97,64595,2,0,P|426:144|443:199,1,89.9999972534181,8|0,0:0|0:0,0:0:0:0:
487,247,64881,2,0,B|422:245|422:245|383:265|383:265|273:261,1,179.999994506836,0|8,3:0|0:0,0:0:0:0:
221,258,65310,1,0,0:0:0:0:
166,187,65453,6,0,P|231:152|273:219,2,127.50000243187,8|0|0,0:0|3:0|3:0,0:0:0:0:
100,247,65881,2,0,P|35:282|-7:215,2,127.50000243187,8|0|0,0:0|3:0|3:0,0:0:0:0:
43,176,66310,2,0,B|-5:142|-2:82|40:47|40:47|45:118,1,191.250003647804,8|0,0:0|0:0,0:0:0:0:
43,99,66595,5,0,3:0:0:0:
126,68,66738,1,0,3:0:0:0:
187,133,66881,2,0,L|293:141,1,75,8|0,0:0|3:0,0:0:0:0:
316,191,67167,2,0,P|332:231|318:287,1,75,8|0,0:0|3:0,0:0:0:0:
261,139,67453,2,0,P|259:101|274:67,1,75,8|0,0:0|3:0,0:0:0:0:
345,122,67738,6,0,B|356:244|356:244|387:195,1,179.999994506836,4|8,3:2|0:0,0:0:0:0:
273,67,68167,2,0,B|151:78|151:78|200:109,1,179.999994506836,0|0,0:0|0:0,0:0:0:0:
292,65,68596,1,8,0:0:0:0:
359,123,68738,6,0,B|392:170|392:170|361:288,1,179.999994506836,0|0,0:0|0:0,0:0:0:0:
275,316,69167,2,0,P|272:271|291:231,1,89.9999972534181,8|0,0:0|0:0,0:0:0:0:
446,262,69453,2,0,P|449:306|430:347,1,89.9999972534181,0|0,3:0|0:0,0:0:0:0:
275,316,69738,2,0,P|205:287|124:370,1,179.999994506836,8|0,0:0|3:0,0:0:0:0:
80,268,70167,2,0,P|98:221|85:171,2,89.9999972534181,0|8|0,0:0|0:0|0:0,0:0:0:0:
176,182,70596,1,0,3:0:0:0:
176,182,70738,2,0,L|287:180,1,89.9999972534181,0|8,0:0|0:0,0:0:0:0:
345,135,71024,6,0,P|394:126|434:133,1,89.9999972534181,0|0,0:0|3:0,0:0:0:0:
433,223,71310,2,0,P|416:269|389:301,1,89.9999972534181,0|8,0:0|0:0,0:0:0:0:
311,254,71595,2,0,P|282:221|265:179,1,89.9999972534181,0|0,0:0|3:0,0:0:0:0:
223,279,71881,2,0,P|194:312|177:354,2,89.9999972534181,0|8|0,0:0|0:0|0:0,0:0:0:0:
103,367,72310,6,0,L|3:365,1,89.9999972534181,0|0,3:0|0:0,0:0:0:0:
58,287,72595,2,0,P|84:239|72:197,1,89.9999972534181,8|0,0:0|0:0,0:0:0:0:
6,149,72881,2,0,B|58:114|58:114|198:138,1,179.999994506836,0|8,3:0|0:0,0:0:0:0:
224,58,73310,2,0,L|135:42,2,89.9999972534181,0|0|0,0:0|3:0|0:0,0:0:0:0:
263,138,73738,6,0,P|272:197|243:248,1,89.9999972534181,8|0,0:0|0:0,0:0:0:0:
178,258,74024,1,0,3:0:0:0:
178,258,74310,2,0,P|218:229|274:242,1,89.9999972534181,8|0,0:0|0:0,0:0:0:0:
263,318,74595,1,0,3:0:0:0:
263,318,74738,6,0,L|378:324,2,104.999996795654,8|8|0,0:0|0:0|3:0,0:0:0:0:
274,212,75167,2,0,B|281:157|281:157|255:108,1,104.999996795654,8|0,0:0|3:0,0:0:0:0:
202,23,75453,1,8,0:0:0:0:
357,135,75595,2,0,P|427:143|377:56,1,209.999993591309,8|0,0:0|3:0,0:0:0:0:
349,124,76024,1,8,0:0:0:0:
349,124,76310,2,0,L|285:120,1,52.4999983978272,8|0,0:0|0:0,0:0:0:0:
195,90,76453,1,0,3:0:0:0:
195,90,76595,2,0,B|148:117|148:117|141:176,1,104.999996795654,8|0,0:0|3:0,0:0:0:0:
137,271,76881,6,0,B|185:240|236:276|236:276|292:311|350:269,1,209.999993591309,4|8,3:2|0:0,0:0:0:0:
334,278,77738,2,0,L|346:207,1,52.4999983978272,0|0,3:0|3:0,0:0:0:0:
262,138,78024,2,0,L|274:209,1,52.4999983978272,0|0,3:0|0:0,0:0:0:0:
342,226,78310,1,0,3:0:0:0:
342,226,78595,2,0,L|362:106,1,104.999996795654,8|0,0:0|3:0,0:0:0:0:
440,55,79167,6,0,P|396:23|337:23,2,104.999996795654,0|0|8,3:0|3:0|0:0,0:0:0:0:
507,135,80024,1,0,3:0:0:0:
507,135,80167,2,0,B|521:171|521:171|501:252,1,104.999996795654,0|0,3:0|0:0,0:0:0:0:
473,309,80595,6,0,P|433:297|376:323,2,104.999996795654,0|8|0,3:0|0:0|3:0,0:0:0:0:
332,363,81453,2,0,L|354:269,1,75,8|0,0:0|0:0,0:0:0:0:
258,348,81738,2,0,L|280:254,1,75,8|0,0:0|0:0,0:0:0:0:
184,333,82024,2,0,L|206:239,1,75,8|0,0:0|3:0,0:0:0:0:
110,318,82310,2,0,L|132:224,1,75,8|0,0:0|3:0,0:0:0:0:
150,169,82595,6,0,P|113:167|81:184,1,75,8|0,0:0|3:0,0:0:0:0:
225,150,82881,2,0,P|208:116|177:96,1,75,8|0,0:0|3:0,0:0:0:0:
279,204,83167,2,0,P|299:173|301:136,1,75,8|0,0:0|3:0,0:0:0:0:
259,277,83453,2,0,P|295:279|328:262,1,75,8|0,0:0|3:0,0:0:0:0:
205,223,83738,5,8,0:0:0:0:
185,296,83881,1,8,0:0:0:0:
107,171,84167,5,8,0:0:0:0:
127,244,84310,1,8,0:0:0:0:
225,150,84595,5,8,0:0:0:0:
205,223,84738,1,8,0:0:0:0:
205,223,86024,5,4,3:2:0:0:
256,192,86095,12,0,89453,0:0:0:0:
146,262,90024,6,0,L|151:217,1,37.5,8|0,0:0|0:0,0:0:0:0:
235,196,90167,2,0,L|240:241,1,37.5,8|0,0:0|0:0,0:0:0:0:
150,224,90310,6,0,L|155:179,1,37.5,8|0,0:0|0:0,0:0:0:0:
230,158,90453,2,0,L|235:203,1,37.5,8|0,0:0|0:0,0:0:0:0:
