osu file format v14

[General]
AudioFilename: audio.mp3
AudioLeadIn: 0
PreviewTime: 58310
Countdown: 0
SampleSet: Soft
StackLeniency: 0.7
Mode: 0
LetterboxInBreaks: 0
WidescreenStoryboard: 1

[Editor]
Bookmarks: 1453,10595,19738,28881,38024,47167,58595,67738,76881,86024,90595
DistanceSpacing: 0.1
BeatDivisor: 8
GridSize: 32
TimelineZoom: 2

[Metadata]
Title:Uncontrollable (TV Size)
TitleUnicode:Uncontrollable (TV Size)
Artist:Ito Kanako
ArtistUnicode:いとうかなこ
Creator:Hakura
Version:LCFC's Insane
Source:CHAOS;CHILD
Tags:itou head op opening mun mir kalibe sotarks lowcombofc
BeatmapID:1639281
BeatmapSetID:768065

[Difficulty]
HPDrainRate:6
CircleSize:4
OverallDifficulty:8
ApproachRate:9
SliderMultiplier:1.8
SliderTickRate:1

[Events]
//Background and Video events
0,0,"chaoschild-2.jpg",0,0
Video,492,"chaos.mp4"
//Break Periods
//Storyboard Layer 0 (Background)
//Storyboard Layer 1 (Fail)
//Storyboard Layer 2 (Pass)
//Storyboard Layer 3 (Foreground)
//Storyboard Sound Samples

[TimingPoints]
1453,285.714285714286,4,2,1,45,1,0
1453,-200,4,2,1,45,0,0
6024,-133.333333333333,4,2,1,45,0,0
10310,-200,4,2,1,45,0,0
10524,-200,4,2,1,5,0,0
10595,-100,4,2,1,55,0,0
14738,-80,4,2,1,55,0,0
15167,-100,4,2,1,55,0,0
17738,-66.6666666666667,4,2,1,55,0,0
18167,-80,4,2,1,55,0,0
18595,-100,4,2,1,55,0,0
19024,-133.333333333333,4,2,1,55,0,0
19310,-80,4,2,1,40,0,0
19738,-133.333333333333,4,2,1,40,0,0
27738,-100,4,2,1,40,0,0
28881,-100,4,2,1,45,0,0
37595,-200,4,2,1,45,0,0
38024,-133.333333333333,4,2,1,40,0,0
46738,-200,4,2,1,40,0,0
47167,-100,4,2,1,50,0,0
57738,-200,4,2,1,50,0,0
58595,-100,4,2,1,60,0,1
76881,-133.333333333333,4,2,1,45,0,0
81453,-100,4,2,1,60,0,1
83738,-100,4,2,1,60,0,0
86024,-100,4,2,1,45,0,0
89738,-100,4,2,1,5,0,0
89810,-100,4,2,1,45,0,0
90024,-80,4,2,1,45,0,0

[Colours]
Combo1 : 187,113,165
Combo2 : 227,138,138
Combo3 : 141,124,186
Combo4 : 221,192,132

[HitObjects]
120,205,1453,6,0,P|127:92|223:151,1,270,0|0,3:0|0:0,0:0:0:0:
335,303,2595,2,0,P|234:352|237:240,1,270,0|0,3:0|0:0,0:0:0:0:
312,67,3738,2,0,P|406:130|307:183,1,270,0|0,3:0|0:0,0:0:0:0:
120,204,4881,6,0,P|151:174|194:175,1,90,0|0,3:0|0:0,0:0:0:0:
241,309,5453,2,0,P|209:339|166:338,1,90,0|0,3:0|0:0,0:0:0:0:
38,233,6024,5,0,3:0:0:0:
37,233,6310,2,0,P|46:200|47:166,1,67.5000025749208,0|0,3:0|0:0,0:0:0:0:
100,36,6595,2,0,P|101:70|110:103,1,67.5000025749208,0|0,3:0|0:0,0:0:0:0:
177,162,6881,1,0,3:0:0:0:
237,94,7024,1,0,0:0:0:0:
177,162,7167,6,0,L|166:235,1,67.5000025749208,0|0,3:0|0:0,0:0:0:0:
216,309,7453,1,0,3:0:0:0:
279,186,7596,1,0,0:0:0:0:
216,309,7739,2,0,L|205:236,1,67.5000025749208,0|0,3:0|0:0,0:0:0:0:
366,221,8024,2,0,L|376:287,1,67.5000025749208,0|0,3:0|0:0,0:0:0:0:
276,376,8310,5,8,0:0:0:0:
191,150,8738,5,8,0:0:0:0:
429,189,9167,5,8,0:0:0:0:
429,189,9453,5,8,0:0:0:0:
317,93,9595,1,8,0:0:0:0:
421,85,9738,1,8,0:0:0:0:
325,197,9881,1,8,0:0:0:0:
325,197,10167,5,0,0:0:0:0:
364,329,10310,2,0,L|380:263,1,67.5,0|0,0:0|0:0,0:0:0:0:
397,256,10595,5,4,3:2:0:0:
457,353,10738,1,0,0:0:0:0:
397,256,10881,2,0,P|443:236|491:242,1,90,8|0,0:0|0:0,0:0:0:0:
496,145,11167,2,0,P|460:120|439:81,1,90,0|0,3:0|0:0,0:0:0:0:
352,114,11453,2,0,P|348:158|324:196,1,90,8|0,0:0|0:0,0:0:0:0:
203,205,11738,5,0,3:0:0:0:
120,171,11881,1,0,0:0:0:0:
203,205,12024,2,0,P|247:206|287:187,1,90,8|0,0:0|0:0,0:0:0:0:
132,259,12310,2,0,P|108:296|104:341,1,90,0|0,3:0|0:0,0:0:0:0:
120,171,12595,2,0,P|99:131|62:106,1,90,8|0,0:0|0:0,0:0:0:0:
27,323,12881,5,0,3:0:0:0:
104,341,13024,1,0,0:0:0:0:
27,323,13167,2,0,P|3:285|0:240,1,90,8|0,0:0|0:0,0:0:0:0:
132,259,13453,2,0,P|107:296|104:341,1,90,0|0,3:0|0:0,0:0:0:0:
181,357,13738,2,0,P|213:326|257:315,1,90,8|0,0:0|0:0,0:0:0:0:
447,342,14024,5,0,3:0:0:0:
365,368,14167,1,0,0:0:0:0:
447,342,14310,2,0,P|477:309|488:265,1,90,8|0,0:0|0:0,0:0:0:0:
448,187,14595,1,0,3:0:0:0:
329,277,14738,6,0,B|371:290|371:290|380:281,1,56.25,0|0,0:0|0:0,0:0:0:0:
277,204,14881,2,0,B|244:233|244:233|247:245,1,56.25,8|0,0:0|0:0,0:0:0:0:
366,195,15024,2,0,B|356:152|356:152|344:148,1,56.25,0|0,0:0|0:0,0:0:0:0:
174,87,15167,5,4,3:2:0:0:
201,171,15310,1,0,0:0:0:0:
174,87,15453,2,0,P|185:43|214:10,1,90,8|0,0:0|0:0,0:0:0:0:
112,151,15738,2,0,P|69:163|25:153,1,90,0|0,3:0|0:0,0:0:0:0:
201,171,16024,2,0,P|232:202|246:244,1,90,8|0,0:0|0:0,0:0:0:0:
98,342,16310,5,0,3:0:0:0:
43,280,16453,1,0,0:0:0:0:
98,342,16595,2,0,P|141:351|184:339,1,90,8|0,0:0|0:0,0:0:0:0:
246,244,16881,2,0,P|232:201|200:170,1,90,0|0,3:0|0:0,0:0:0:0:
88,165,17167,2,0,P|58:197|47:241,2,90,8|0|0,0:0|0:0|3:0,0:0:0:0:
232,318,17595,1,8,0:0:0:0:
86,309,17738,6,0,L|221:330,1,135.000005149842,8|0,0:0|3:0,0:0:0:0:
258,232,18024,1,8,0:0:0:0:
134,226,18167,6,0,L|245:243,1,112.5,8|0,0:0|3:0,0:0:0:0:
285,148,18453,1,8,0:0:0:0:
183,145,18596,6,0,L|271:158,1,90,8|0,0:0|3:0,0:0:0:0:
316,61,18881,1,8,0:0:0:0:
236,61,19024,6,0,L|302:71,1,67.5000025749208,8|0,0:0|3:0,0:0:0:0:
399,178,19310,6,0,B|386:136|386:136|394:126,1,56.25,0|0,0:0|0:0,0:0:0:0:
405,115,19453,2,0,L|412:82,6,28.125,0|0|0|0|0|0|0,0:0|0:0|0:0|0:0|0:0|0:0|0:0,0:0:0:0:
500,38,19738,5,4,3:2:0:0:
500,38,19881,2,0,P|466:49|421:54,1,67.5000025749208,0|0,3:0|3:0,0:0:0:0:
306,166,20595,5,0,3:0:0:0:
306,166,20738,2,0,P|271:158|229:140,1,67.5000025749208,0|0,3:0|0:0,0:0:0:0:
241,146,21167,6,0,P|263:225|269:288,2,135.000005149842,0|0|0,0:0|0:3|0:3,0:0:0:0:
109,203,22024,5,0,3:0:0:0:
109,203,22167,2,0,P|143:214|188:219,1,67.5000025749208,0|0,3:0|3:0,0:0:0:0:
337,340,22881,5,0,3:0:0:0:
337,340,23024,2,0,P|371:332|413:314,1,67.5000025749208,0|0,3:0|0:0,0:0:0:0:
401,320,23453,6,0,P|423:241|429:178,2,135.000005149842
315,95,24310,5,0,3:0:0:0:
315,95,24453,2,0,P|320:128|330:160,1,67.5000025749208,0|0,3:0|3:0,0:0:0:0:
211,366,25167,5,0,3:0:0:0:
211,366,25310,2,0,P|221:333|226:300,1,67.5000025749208,0|0,3:0|0:0,0:0:0:0:
225,300,25738,6,0,P|158:307|93:327,2,135.000005149842
73,119,26595,5,0,3:0:0:0:
73,119,26738,2,0,P|106:113|138:103,1,67.5000025749208,0|0,0:0|3:0,0:0:0:0:
347,186,27310,5,0,0:0:0:0:
275,221,27453,2,0,P|241:215|176:178,1,101.250003862381,0|0,3:0|0:0,0:0:0:0:
185,161,27738,6,0,P|222:152|270:112,1,90,8|0,0:0|3:0,0:0:0:0:
242,39,28024,1,0,3:0:0:0:
354,155,28167,6,0,P|391:164|439:204,1,90,8|0,0:0|0:0,0:0:0:0:
411,277,28453,1,0,3:0:0:0:
272,348,28595,6,0,B|240:295|240:295|250:222,1,135,8|0,0:0|0:0,0:0:0:0:
265,205,28881,6,0,P|212:204|172:169,1,90,4|0,3:2|0:0,0:0:0:0:
117,37,29167,1,8,0:0:0:0:
188,97,29310,1,0,0:0:0:0:
182,183,29453,2,0,P|135:208|83:198,1,90,0|0,3:0|0:0,0:0:0:0:
179,296,29738,1,8,0:0:0:0:
113,345,29881,6,0,P|60:344|20:309,1,90,0|0,0:0|0:0,0:0:0:0:
260,284,30167,1,0,0:0:0:0:
194,333,30310,1,8,0:0:0:0:
283,299,30453,1,0,0:0:0:0:
356,357,30595,2,0,P|423:344|481:248,1,180,0|8,0:0|0:0,0:0:0:0:
261,78,31167,5,0,3:0:0:0:
303,153,31310,1,0,0:0:0:0:
379,112,31453,1,8,0:0:0:0:
247,69,31595,2,0,L|151:89,1,90,0|0,0:0|3:0,0:0:0:0:
88,228,31881,2,0,L|-8:208,1,90,0|8,0:0|0:0,0:0:0:0:
48,87,32167,6,0,L|136:68,1,90,0|0,0:0|3:0,0:0:0:0:
228,207,32453,1,0,0:0:0:0:
158,87,32595,2,0,L|139:175,1,90,8|0,0:0|0:0,0:0:0:0:
291,278,32881,2,0,P|375:253|415:175,1,180,0|8,3:0|0:0,0:0:0:0:
198,298,33453,5,0,3:0:0:0:
259,371,33595,1,0,0:0:0:0:
291,278,33738,1,8,0:0:0:0:
123,235,33881,2,0,P|101:275|101:319,1,90,0|0,0:0|3:0,0:0:0:0:
155,155,34167,2,0,P|115:178|93:216,1,90,0|8,0:0|0:0,0:0:0:0:
276,257,34453,6,0,L|261:168,1,90,0|0,0:0|3:0,0:0:0:0:
190,52,34738,2,0,L|175:140,1,90,0|8,0:0|0:0,0:0:0:0:
346,188,35024,1,0,0:0:0:0:
343,33,35167,2,0,P|303:11|259:11,1,90,0|0,3:0|0:0,0:0:0:0:
423,65,35453,2,0,P|399:25|361:3,1,90,8|0,0:0|0:0,0:0:0:0:
190,52,35738,6,0,P|128:114|40:108,1,180,0|8,3:0|0:0,0:0:0:0:
94,254,36167,2,0,P|155:192|243:198,1,180,0|0,0:0|0:0,0:0:0:0:
256,280,36595,1,8,0:0:0:0:
153,323,36738,5,0,0:0:0:0:
309,371,36881,1,8,0:0:0:0:
143,339,37024,5,8,0:0:0:0:
321,355,37167,1,8,0:0:0:0:
321,355,37453,5,8,0:0:0:0:
337,176,37595,1,8,0:0:0:0:
386,242,37738,2,0,P|408:255|456:261,1,67.5,8|0,0:0|0:0,0:0:0:0:
463,253,38024,5,4,3:2:0:0:
379,102,38167,1,0,3:0:0:0:
463,253,38595,5,8,0:0:0:0:
379,102,38881,5,0,3:0:0:0:
463,253,39024,2,0,P|434:282|335:301,1,135.000005149842,0|0,3:0|0:0,0:0:0:0:
269,271,39453,1,0,3:0:0:0:
269,271,39738,6,0,P|240:242|221:143,1,135.000005149842,8|0,0:0|0:0,0:0:0:0:
251,77,40167,1,0,0:0:0:0:
379,102,40310,5,0,3:0:0:0:
219,152,40453,1,0,3:0:0:0:
379,102,40881,5,8,0:0:0:0:
219,152,41167,5,0,3:0:0:0:
379,102,41310,2,0,P|408:131|427:230,1,135.000005149842,0|0,3:0|0:0,0:0:0:0:
397,296,41739,1,0,3:0:0:0:
428,220,42024,5,8,0:0:0:0:
397,296,42167,1,0,0:0:0:0:
325,333,42310,2,0,P|288:302|232:297,1,101.250003862381,0|0,0:0|0:0,0:0:0:0:
218,306,42595,5,0,3:0:0:0:
60,355,42738,1,0,3:0:0:0:
218,306,43167,5,8,0:0:0:0:
60,355,43453,5,0,3:0:0:0:
217,306,43595,2,0,P|247:245|249:178,1,135.000005149842,0|0,3:0|0:0,0:0:0:0:
194,112,44024,1,0,3:0:0:0:
194,112,44310,6,0,P|127:116|68:148,1,135.000005149842,8|0,0:0|0:0,0:0:0:0:
36,229,44739,1,0,0:0:0:0:
163,269,44881,5,0,3:0:0:0:
4,363,45024,1,0,3:0:0:0:
163,269,45453,5,8,0:0:0:0:
4,363,45738,5,0,3:0:0:0:
163,269,45881,2,0,L|269:292,1,101.250003862381,0|0,3:0|0:0,0:0:0:0:
277,304,46167,1,0,0:0:0:0:
307,184,46310,2,0,L|236:199,1,67.5000025749208,0|0,3:0|3:0,0:0:0:0:
141,282,46595,5,8,0:0:0:0:
229,183,46738,2,0,B|249:133|249:133|237:75,1,112.5,8|0,0:0|0:0,0:0:0:0:
221,61,47167,5,4,3:2:0:0:
150,127,47310,1,0,0:0:0:0:
17,27,47453,2,0,P|61:27|101:47,1,90,8|0,0:0|0:0,0:0:0:0:
77,195,47738,1,0,3:0:0:0:
77,195,47881,1,0,3:0:0:0:
150,127,48024,2,0,P|189:106|234:106,1,90,8|0,0:0|0:0,0:0:0:0:
343,257,48310,5,0,3:0:0:0:
258,203,48453,1,0,0:0:0:0:
361,247,48595,2,0,P|346:283|343:346,1,90,8|0,0:0|0:0,0:0:0:0:
480,254,48881,2,0,P|495:218|498:155,1,90,0|0,3:0|3:0,0:0:0:0:
344,34,49167,1,8,0:0:0:0:
401,132,49310,1,0,0:0:0:0:
451,43,49453,6,0,L|348:12,1,90,0|0,3:0|0:0,0:0:0:0:
256,66,49738,1,8,0:0:0:0:
256,66,49881,1,0,0:0:0:0:
386,112,50024,2,0,L|283:143,1,90,0|0,3:0|3:0,0:0:0:0:
175,205,50310,2,0,L|278:236,1,90,8|0,0:0|0:0,0:0:0:0:
351,360,50595,5,0,3:0:0:0:
267,324,50738,1,0,0:0:0:0:
377,345,50881,2,0,P|395:314|394:249,1,90,8|0,0:0|0:0,0:0:0:0:
348,144,51167,1,0,3:0:0:0:
348,144,51310,1,0,3:0:0:0:
280,205,51453,2,0,P|262:174|263:109,1,90,8|0,0:0|0:0,0:0:0:0:
444,30,51738,6,0,L|424:122,1,90,0|0,3:0|0:0,0:0:0:0:
427,297,52024,1,8,0:0:0:0:
494,358,52167,1,0,0:0:0:0:
444,284,52310,2,0,L|463:196,1,90,8|0,0:0|3:0,0:0:0:0:
328,56,52595,2,0,L|347:143,1,90,8|0,0:0|0:0,0:0:0:0:
291,293,52881,5,0,3:0:0:0:
291,293,53167,2,0,P|259:260|208:255,1,90,8|0,0:0|0:0,0:0:0:0:
63,327,53453,2,0,P|107:315|137:274,1,90,8|0,0:0|3:0,0:0:0:0:
216,66,53738,1,8,0:0:0:0:
216,66,53881,1,0,0:0:0:0:
147,112,54024,6,0,P|134:156|155:202,1,90,8|0,0:0|0:0,0:0:0:0:
390,126,54310,1,8,0:0:0:0:
372,41,54453,1,0,0:0:0:0:
287,21,54595,2,0,P|242:32|212:73,1,90,8|0,0:0|3:0,0:0:0:0:
219,152,54881,2,0,P|251:185|302:190,1,90,8|0,0:0|3:0,0:0:0:0:
457,66,55167,5,8,0:0:0:0:
291,106,55310,1,0,3:0:0:0:
433,50,55453,2,0,L|417:148,1,90,8|0,0:0|3:0,0:0:0:0:
478,299,55738,5,8,0:0:0:0:
396,152,55881,2,0,L|404:203,1,45,0|0,3:0|0:0,0:0:0:0:
328,360,56024,1,8,0:0:0:0:
463,273,56167,1,0,3:0:0:0:
257,307,56310,5,8,0:0:0:0:
421,376,56453,1,0,3:0:0:0:
299,377,56595,5,8,0:0:0:0:
463,273,56738,1,8,0:0:0:0:
241,201,57024,5,8,0:0:0:0:
507,168,57310,5,8,0:0:0:0:
192,34,57595,5,8,0:0:0:0:
285,129,57738,2,0,L|255:313,1,180,8|0,0:0|0:0,0:0:0:0:
66,328,58595,5,4,3:2:0:0:
137,278,58738,2,0,P|102:249|59:241,1,90,0|8,0:0|0:0,0:0:0:0:
71,339,59024,5,0,0:0:0:0:
51,232,59167,2,0,P|84:203|128:195,1,90,0|0,3:0|0:0,0:0:0:0:
76,350,59453,5,8,0:0:0:0:
137,186,59595,2,0,P|102:157|59:149,1,90,0|0,0:0|3:0,0:0:0:0:
81,361,59881,5,0,0:0:0:0:
51,140,60024,2,0,P|85:111|128:103,1,90,8|0,0:0|0:0,0:0:0:0:
309,150,60310,6,0,B|236:159|236:159|217:175|217:175|136:185,2,180,0|8|0,3:0|0:0|3:0,0:0:0:0:
369,253,61024,6,0,L|279:239,1,90,0|8,0:0|0:0,0:0:0:0:
128,103,61310,1,0,0:0:0:0:
264,251,61453,1,0,3:0:0:0:
211,130,61595,2,0,L|224:40,1,90,0|8,0:0|0:0,0:0:0:0:
418,57,61881,6,0,P|410:100|381:134,1,90,0|0,0:0|3:0,0:0:0:0:
211,130,62167,2,0,P|254:137|288:166,1,90,0|8,0:0|0:0,0:0:0:0:
284,337,62453,2,0,P|291:293|320:259,1,90,0|0,0:0|3:0,0:0:0:0:
491,264,62738,2,0,P|447:256|413:227,1,90,0|8,0:0|0:0,0:0:0:0:
381,134,63024,1,0,0:0:0:0:
490,21,63167,5,0,3:0:0:0:
490,21,63453,2,0,L|395:42,1,90,8|0,0:0|0:0,0:0:0:0:
288,166,63738,2,0,L|200:146,1,90,0|0,3:0|0:0,0:0:0:0:
381,134,64024,1,8,0:0:0:0:
187,131,64167,6,0,L|167:218,2,90,0|0|0,0:0|3:0|0:0,0:0:0:0:
163,39,64595,1,8,0:0:0:0:
14,134,64738,1,0,0:0:0:0:
77,192,64881,2,0,B|86:265|86:265|102:284|102:284|112:365,1,180,0|8,3:0|0:0,0:0:0:0:
16,324,65310,1,0,0:0:0:0:
205,356,65453,5,8,0:0:0:0:
272,299,65595,2,0,L|263:249,2,45,0|0|0,3:0|3:0|3:0,0:0:0:0:
323,107,65881,5,8,0:0:0:0:
390,164,66024,2,0,L|381:214,2,45,0|0|0,3:0|3:0|3:0,0:0:0:0:
455,384,66310,6,0,L|469:285,1,90,8|0,0:0|0:0,0:0:0:0:
478,176,66595,5,0,3:0:0:0:
382,208,66738,1,0,3:0:0:0:
311,134,66881,1,8,0:0:0:0:
410,111,67024,1,0,3:0:0:0:
220,242,67167,5,8,0:0:0:0:
124,210,67310,1,0,3:0:0:0:
192,145,67453,1,8,0:0:0:0:
291,168,67596,1,0,3:0:0:0:
228,369,67738,5,4,3:2:0:0:
62,326,67881,2,0,P|96:298|139:289,1,90,0|8,0:0|0:0,0:0:0:0:
215,363,68167,5,0,0:0:0:0:
42,240,68310,2,0,P|86:231|129:246,1,90,0|0,3:0|0:0,0:0:0:0:
202,357,68595,5,8,0:0:0:0:
70,155,68738,2,0,P|111:169|140:203,1,90,0|0,0:0|3:0,0:0:0:0:
189,351,69024,5,0,0:0:0:0:
135,94,69167,2,0,P|163:128|172:171,1,90,8|0,0:0|0:0,0:0:0:0:
35,354,69453,6,0,B|26:281|26:281|10:262|10:262|0:181,2,180,0|8|0,3:0|0:0|3:0,0:0:0:0:
126,367,70167,5,0,0:0:0:0:
163,212,70310,1,8,0:0:0:0:
139,378,70453,1,0,0:0:0:0:
150,201,70595,1,0,3:0:0:0:
297,299,70738,2,0,L|310:209,1,90,0|8,0:0|0:0,0:0:0:0:
166,86,71024,6,0,P|199:115|243:123,1,90,0|0,0:0|3:0,0:0:0:0:
436,72,71310,2,0,P|393:86|364:120,1,90,0|8,0:0|0:0,0:0:0:0:
150,201,71595,2,0,P|192:186|221:152,1,90,0|0,0:0|3:0,0:0:0:0:
344,0,71881,2,0,P|335:43|350:85,1,90,0|8,0:0|0:0,0:0:0:0:
442,156,72167,1,0,0:0:0:0:
283,251,72310,5,0,3:0:0:0:
283,251,72595,2,0,L|373:264,1,90,8|0,0:0|0:0,0:0:0:0:
235,335,72881,2,0,L|145:348,1,90,0|0,3:0|0:0,0:0:0:0:
317,377,73167,1,8,0:0:0:0:
134,333,73310,6,0,L|121:243,2,90,0|0|0,0:0|3:0|0:0,0:0:0:0:
34,308,73738,1,8,0:0:0:0:
188,147,73881,1,0,0:0:0:0:
223,236,74024,2,0,B|150:227|150:227|131:211|131:211|50:201,1,180,0|8,3:0|0:0,0:0:0:0:
11,122,74453,1,0,0:0:0:0:
242,74,74595,5,0,3:0:0:0:
52,42,74738,5,8,0:0:0:0:
79,181,74881,1,8,0:0:0:0:
173,106,75024,5,0,3:0:0:0:
146,245,75167,1,8,0:0:0:0:
238,165,75310,5,0,3:0:0:0:
265,304,75453,1,8,0:0:0:0:
359,229,75595,5,8,0:0:0:0:
359,229,75881,5,0,3:0:0:0:
386,90,76024,1,8,0:0:0:0:
386,90,76310,5,8,0:0:0:0:
247,63,76453,1,0,3:0:0:0:
220,202,76595,1,8,0:0:0:0:
303,146,76738,1,0,3:0:0:0:
164,119,76881,5,4,3:2:0:0:
164,119,77024,2,0,B|115:131|115:131|94:154|94:154|43:170,1,135.000005149842,0|0,3:0|0:0,0:0:0:0:
43,77,77453,1,8,0:0:0:0:
220,202,77738,1,0,3:0:0:0:
158,265,77881,1,0,3:0:0:0:
220,202,78024,6,0,P|260:205|339:262,1,135.000005149842,0|0,3:0|3:0,0:0:0:0:
336,257,78453,1,0,0:0:0:0:
501,289,78595,2,0,P|461:292|382:349,1,135.000005149842,8|0,0:0|3:0,0:0:0:0:
295,340,79024,1,0,0:0:0:0:
416,213,79167,6,0,B|429:146|429:146|391:91,2,135.000005149842,0|0|8,3:0|3:0|0:0,0:0:0:0:
295,340,80024,1,0,3:0:0:0:
234,283,80167,1,0,3:0:0:0:
295,340,80310,6,0,L|264:201,1,135.000005149842,0|0,3:0|3:0,0:0:0:0:
246,124,80738,1,0,0:0:0:0:
370,90,80881,2,0,P|355:124|333:146,1,67.5000025749208,8|0,0:0|0:0,0:0:0:0:
180,200,81167,2,0,P|158:170|150:139,1,67.5000025749208,0|0,3:0|0:0,0:0:0:0:
286,38,81453,5,8,0:0:0:0:
246,124,81595,1,0,0:0:0:0:
150,141,81738,2,0,L|61:122,1,90,8|0,0:0|0:0,0:0:0:0:
2,239,82024,2,0,L|90:220,1,90,8|0,0:0|3:0,0:0:0:0:
177,283,82310,2,0,L|88:264,1,90,8|0,0:0|3:0,0:0:0:0:
29,381,82596,2,0,L|117:362,1,90,8|0,0:0|0:0,0:0:0:0:
257,230,82881,6,0,P|275:277|269:318,1,90,8|0,0:0|3:0,0:0:0:0:
89,220,83167,2,0,P|71:173|77:132,1,90,8|0,0:0|3:0,0:0:0:0:
201,69,83453,1,8,0:0:0:0:
201,69,83595,1,0,3:0:0:0:
76,134,83738,5,8,0:0:0:0:
228,180,83881,1,8,0:0:0:0:
228,180,84167,5,8,0:0:0:0:
57,285,84310,1,8,0:0:0:0:
57,285,84595,5,8,0:0:0:0:
262,357,84738,1,8,0:0:0:0:
250,27,86024,5,4,3:2:0:0:
256,192,86167,12,0,89738,0:0:0:0:
324,87,90024,6,0,B|337:129|337:129|322:146,1,56.25,8|0,0:0|0:0,0:0:0:0:
246,77,90167,2,0,B|259:37|259:37|250:27,1,56.25,8|0,0:0|0:0,0:0:0:0:
256,192,90310,6,0,B|265:202|265:202|253:243,1,56.25,8|0,0:0|0:0,0:0:0:0:
180,173,90453,2,0,B|189:164|189:164|176:122,1,56.25,8|0,0:0|0:0,0:0:0:0:
