osu file format v14

[General]
AudioFilename: audio.mp3
AudioLeadIn: 0
PreviewTime: 58310
Countdown: 0
SampleSet: Soft
StackLeniency: 0.7
Mode: 0
LetterboxInBreaks: 0
WidescreenStoryboard: 0

[Editor]
DistanceSpacing: 1.6
BeatDivisor: 4
GridSize: 16
TimelineZoom: 2

[Metadata]
Title:Uncontrollable (TV Size)
TitleUnicode:Uncontrollable (TV Size)
Artist:Ito Kanako
ArtistUnicode:いとうかなこ
Creator:Hakura
Version:Godly Power Abuse
Source:CHAOS;CHILD
Tags:itou head op opening mun mir kalibe sotarks lowcombofc
BeatmapID:1614477
BeatmapSetID:768065

[Difficulty]
HPDrainRate:6
CircleSize:4
OverallDifficulty:9.3
ApproachRate:9.7
SliderMultiplier:2.2
SliderTickRate:1

[Events]
//Background and Video events
Video,492,"chaos.mp4"
0,0,"chaoschild-2.jpg",0,0
//Break Periods
//Storyboard Layer 0 (Background)
//Storyboard Layer 1 (Fail)
//Storyboard Layer 2 (Pass)
//Storyboard Layer 3 (Foreground)
//Storyboard Sound Samples

[TimingPoints]
1453,285.714285714286,4,2,1,45,1,0
1453,-133.333333333333,4,2,1,45,0,0
7167,-100,4,2,1,45,0,0
8310,-80,4,2,1,45,0,0
10310,-200,4,2,1,45,0,0
10524,-200,4,2,1,5,0,0
10595,-100,4,2,1,55,0,0
17595,-80,4,2,1,55,0,0
19310,-200,4,2,1,40,0,0
19738,-80,4,2,1,40,0,0
20024,-133.333333333333,4,2,1,40,0,0
20595,-80,4,2,1,40,0,0
20881,-133.333333333333,4,2,1,40,0,0
22024,-80,4,2,1,40,0,0
22310,-133.333333333333,4,2,1,40,0,0
22881,-79.9999999999999,4,2,1,40,0,0
23167,-133.333333333333,4,2,1,40,0,0
24310,-79.9999999999999,4,2,1,40,0,0
24595,-133.333333333333,4,2,1,40,0,0
25167,-79.9999999999999,4,2,1,40,0,0
25453,-133.333333333333,4,2,1,40,0,0
26595,-79.9999999999999,4,2,1,40,0,0
26881,-133.333333333333,4,2,1,40,0,0
28595,-200,4,2,1,40,0,0
28881,-100,4,2,1,45,0,0
38024,-133.333333333333,4,2,1,40,0,0
47167,-100,4,2,1,50,0,0
58595,-100,4,2,1,60,0,1
76881,-133.333333333333,4,2,1,45,0,0
80881,-100,4,2,1,45,0,0
81453,-100,4,2,1,60,0,1
83738,-100,4,2,1,60,0,0
86024,-100,4,2,1,45,0,0
89738,-100,4,2,1,5,0,0
89810,-100,4,2,1,45,0,0

[Colours]
Combo1 : 187,113,165
Combo2 : 227,138,138
Combo3 : 141,124,186
Combo4 : 221,192,132

[HitObjects]
143,156,1453,5,0,3:0:0:0:
178,87,1595,2,0,L|267:82,1,82.5000031471254,0|0,0:0|0:0,0:0:0:0:
139,170,1881,1,0,0:0:0:0:
174,101,2024,2,0,L|263:96,1,82.5000031471254,0|0,0:0|0:0,0:0:0:0:
135,184,2310,1,0,0:0:0:0:
170,115,2452,6,0,L|259:110,1,82.5000031471254,0|0,0:0|3:0,0:0:0:0:
441,69,2738,1,0,0:0:0:0:
406,138,2881,2,0,L|317:143,1,82.5000031471254,0|0,0:0|0:0,0:0:0:0:
131,196,3167,2,0,P|181:270|144:352,1,165.000006294251,0|0,0:0|0:0,0:0:0:0:
89,278,3595,1,0,0:0:0:0:
258,244,3738,6,0,L|436:234,1,165.000006294251,0|0,3:0|0:0,0:0:0:0:
499,230,4167,1,0,0:0:0:0:
433,314,4310,2,0,L|344:319,2,82.5000031471254,0|0|0,0:0|0:0|0:0,0:0:0:0:
333,156,4738,6,0,L|251:161,1,82.5000031471254,0|0,0:0|3:0,0:0:0:0:
74,234,5024,2,0,L|156:229,1,82.5000031471254,0|0,0:0|0:0,0:0:0:0:
241,324,5310,2,0,L|236:241,1,82.5000031471254,0|0,0:0|3:0,0:0:0:0:
163,64,5596,2,0,L|167:146,2,82.5000031471254,0|0|0,0:0|0:0|0:0,0:0:0:0:
340,173,6024,6,0,P|414:123|496:160,1,165.000006294251,0|0,3:0|3:0,0:0:0:0:
422,215,6453,1,0,0:0:0:0:
254,78,6595,2,0,L|250:160,1,82.5000031471254,0|0,3:0|0:0,0:0:0:0:
280,315,6881,2,0,L|284:233,1,82.5000031471254,0|0,3:0|0:0,0:0:0:0:
47,223,7167,6,0,P|111:250|161:235,1,110,0|0,3:0|0:0,0:0:0:0:
173,106,7453,2,0,P|109:79|59:94,1,110,0|0,3:0|0:0,0:0:0:0:
51,236,7738,2,0,P|115:263|165:248,1,110,0|0,3:0|0:0,0:0:0:0:
169,93,8024,2,0,P|105:66|55:81,1,110,0|0,3:0|0:0,0:0:0:0:
237,181,8310,6,0,B|284:174|313:125|313:125|249:251|358:332,1,275,8|0,0:0|0:0,0:0:0:0:
478,183,8738,2,0,P|374:189|467:248,1,275,8|0,0:0|0:0,0:0:0:0:
505,96,9167,2,0,P|416:69|357:92,1,137.5,8|0,0:0|0:0,0:0:0:0:
316,292,9453,5,8,0:0:0:0:
302,28,9595,1,8,0:0:0:0:
224,347,9738,5,8,0:0:0:0:
293,51,9881,1,8,0:0:0:0:
45,348,10167,1,0,0:0:0:0:
77,365,10310,6,0,L|83:272,1,82.5,0|0,0:0|0:0,0:0:0:0:
90,207,10595,5,4,3:2:0:0:
162,374,10738,1,0,0:0:0:0:
386,164,10881,5,8,0:0:0:0:
365,344,11024,1,0,0:0:0:0:
223,83,11167,5,0,3:0:0:0:
376,254,11310,1,0,0:0:0:0:
218,55,11453,5,8,0:0:0:0:
126,291,11595,1,0,0:0:0:0:
296,153,11738,5,0,3:0:0:0:
172,173,11881,1,0,0:0:0:0:
344,37,12024,5,8,0:0:0:0:
218,55,12167,1,0,0:0:0:0:
421,136,12310,5,0,3:0:0:0:
379,348,12453,2,0,L|371:307,1,27.5,0|0,0:0|0:0,0:0:0:0:
499,204,12595,2,0,L|507:163,1,27.5,8|0,0:0|0:0,0:0:0:0:
344,37,12738,2,0,L|336:-4,1,27.5,0|0,0:0|0:0,0:0:0:0:
193,269,12881,5,0,3:0:0:0:
211,40,13024,1,0,0:0:0:0:
87,145,13167,5,8,0:0:0:0:
317,163,13310,1,0,0:0:0:0:
96,30,13453,5,0,3:0:0:0:
78,260,13595,1,0,0:0:0:0:
326,48,13738,5,8,0:0:0:0:
308,278,13881,1,0,0:0:0:0:
202,154,14024,5,0,3:0:0:0:
69,375,14167,1,0,0:0:0:0:
87,145,14310,5,8,0:0:0:0:
184,384,14453,1,0,0:0:0:0:
326,48,14595,5,0,3:0:0:0:
78,260,14738,2,0,L|156:283,1,55,0|0,0:0|0:0,0:0:0:0:
211,40,14881,2,0,L|151:96,1,55,8|0,0:0|0:0,0:0:0:0:
308,278,15024,2,0,L|289:198,1,55,0|0,0:0|0:0,0:0:0:0:
202,154,15167,5,4,3:2:0:0:
69,375,15310,1,0,0:0:0:0:
310,154,15453,5,8,0:0:0:0:
443,375,15596,1,0,0:0:0:0:
87,145,15738,5,0,3:0:0:0:
184,384,15881,1,0,0:0:0:0:
425,145,16024,5,8,0:0:0:0:
328,384,16167,1,0,0:0:0:0:
256,32,16310,5,0,3:0:0:0:
384,325,16453,1,0,0:0:0:0:
256,19,16595,5,8,0:0:0:0:
128,325,16738,1,0,0:0:0:0:
256,6,16881,5,0,3:0:0:0:
431,193,17024,2,0,L|439:228,1,27.5,0|0,0:0|0:0,0:0:0:0:
256,193,17167,2,0,L|256:233,1,27.5,8|0,0:0|0:0,0:0:0:0:
81,193,17310,2,0,L|73:228,1,27.5,0|0,0:0|0:0,0:0:0:0:
256,378,17453,5,0,3:0:0:0:
256,193,17595,5,8,0:0:0:0:
430,115,17738,2,0,P|363:98|298:126,1,137.5,8|0,0:0|3:0,0:0:0:0:
256,193,18024,5,8,0:0:0:0:
82,269,18167,2,0,P|149:286|214:258,1,137.5,8|0,0:0|3:0,0:0:0:0:
256,193,18453,5,8,0:0:0:0:
179,18,18595,2,0,P|162:85|190:150,1,137.5,8|0,0:0|3:0,0:0:0:0:
256,193,18881,5,8,0:0:0:0:
333,366,19024,2,0,P|350:299|322:234,1,137.5,8|0,0:0|3:0,0:0:0:0:
62,210,19310,6,0,L|56:250,1,27.5,0|0,0:0|0:0,0:0:0:0:
82,269,19453,2,0,L|94:175,1,82.5,0|0,0:0|0:0,0:0:0:0:
105,58,19738,6,0,B|112:106|112:106|88:139|88:139|93:200,1,137.5,4|0,3:2|3:0,0:0:0:0:
176,165,20024,1,0,3:0:0:0:
154,249,20167,1,0,0:0:0:0:
238,227,20310,2,0,L|327:222,1,82.5000031471254,0|0,0:0|0:0,0:0:0:0:
405,333,20595,6,0,B|397:284|397:284|421:251|421:251|417:191,1,137.5,0|0,3:0|3:0,0:0:0:0:
398,106,20881,1,0,0:0:0:0:
301,125,21024,1,0,0:0:0:0:
417,203,21167,2,0,L|500:199,1,82.5000031471254,0|0,0:0|0:0,0:0:0:0:
320,222,21453,2,0,P|246:272|164:235,1,165.000006294251,0|0,0:3|0:3,0:0:0:0:
0,354,22024,6,0,B|48:347|48:347|81:371|81:371|142:366,1,137.5,0|0,3:0|3:0,0:0:0:0:
96,284,22310,1,0,3:0:0:0:
212,334,22453,2,0,L|301:329,1,82.5000031471254,0|0,0:0|0:0,0:0:0:0:
179,251,22738,1,0,0:0:0:0:
497,238,22881,6,0,B|449:231|449:231|416:255|416:255|355:250,1,137.5,0|0,3:0|3:0,0:0:0:0:
269,242,23167,1,0,0:0:0:0:
326,162,23310,1,0,0:0:0:0:
310,331,23453,1,0,0:0:0:0:
424,171,23595,1,0,0:0:0:0:
228,153,23738,2,0,P|154:103|72:140,1,165.000006294251,0|0,0:0|0:0,0:0:0:0:
86,336,24310,6,0,B|79:288|79:288|103:255|103:255|98:194,1,137.5,0|0,3:0|3:0,0:0:0:0:
87,123,24595,1,0,3:0:0:0:
228,153,24738,2,0,L|233:242,1,82.5000031471254,0|0,0:0|0:0,0:0:0:0:
169,87,25024,1,0,0:0:0:0:
283,86,25167,6,0,B|331:79|331:79|364:103|364:103|425:98,1,137.5,0|0,3:0|3:0,0:0:0:0:
508,92,25453,1,0,0:0:0:0:
416,192,25595,2,0,L|327:197,1,82.5000031471254,0|0,0:0|0:0,0:0:0:0:
512,185,25881,1,0,0:0:0:0:
412,99,26024,1,0,0:0:0:0:
420,285,26167,1,0,0:0:0:0:
333,196,26310,2,0,L|244:201,1,82.5000031471254,0|0,0:0|0:0,0:0:0:0:
94,37,26595,6,0,B|101:85|101:85|77:118|77:118|82:179,1,137.5,0|0,3:0|0:0,0:0:0:0:
89,264,26881,1,0,3:0:0:0:
169,207,27024,2,0,L|164:118,1,82.5000031471254,0|0,0:0|0:0,0:0:0:0:
0,223,27310,1,0,0:0:0:0:
173,289,27453,2,0,L|168:200,1,82.5000031471254,0|0,3:0|3:0,0:0:0:0:
9,321,27738,5,8,0:0:0:0:
289,125,27881,1,0,3:0:0:0:
247,350,28024,1,0,3:0:0:0:
4,305,28167,5,8,0:0:0:0:
300,134,28310,1,0,0:0:0:0:
239,355,28453,1,0,3:0:0:0:
434,13,28595,6,0,L|422:107,1,82.5,8|0,0:0|0:0,0:0:0:0:
414,201,28881,6,0,P|430:127|414:73,1,110,4|0,3:2|0:0,0:0:0:0:
311,147,29167,1,8,0:0:0:0:
503,82,29310,1,0,0:0:0:0:
423,307,29453,2,0,P|407:233|423:179,1,110,0|0,3:0|0:0,0:0:0:0:
502,245,29738,1,8,0:0:0:0:
344,352,29881,6,0,B|284:381|239:352|239:352|195:322|135:352,1,220,0|0,0:0|0:0,0:0:0:0:
290,270,30310,1,8,0:0:0:0:
140,188,30453,2,0,B|199:217|244:188|244:188|288:158|348:188,1,220,0|0,0:0|0:0,0:0:0:0:
193,91,30881,2,0,P|119:75|65:91,1,110,8|0,0:0|0:0,0:0:0:0:
290,270,31167,5,0,3:0:0:0:
408,106,31310,1,0,0:0:0:0:
491,290,31453,1,8,0:0:0:0:
290,270,31595,2,0,P|274:344|290:398,1,110,0|0,0:0|3:0,0:0:0:0:
408,106,31881,2,0,P|424:32|408:-22,1,110,0|8,0:0|0:0,0:0:0:0:
348,187,32167,6,0,P|422:203|476:187,1,110,0|0,0:0|3:0,0:0:0:0:
307,94,32453,1,0,0:0:0:0:
182,234,32595,2,0,P|166:308|182:362,1,110,8|0,0:0|0:0,0:0:0:0:
234,151,32881,2,0,B|175:122|130:151|130:151|86:181|26:151,1,220,0|8,3:0|0:0,0:0:0:0:
80,69,33310,1,0,0:0:0:0:
71,249,33453,5,0,3:0:0:0:
260,78,33595,1,0,0:0:0:0:
251,258,33738,1,8,0:0:0:0:
200,9,33881,2,0,P|274:-7|328:9,1,110,0|0,0:0|3:0,0:0:0:0:
318,146,34167,2,0,P|244:162|190:146,1,110,0|8,0:0|0:0,0:0:0:0:
407,90,34453,6,0,P|423:164|407:218,1,110,0|0,0:0|3:0,0:0:0:0:
130,215,34738,2,0,P|114:141|130:87,1,110,0|8,0:0|0:0,0:0:0:0:
251,258,35024,1,0,0:0:0:0:
154,342,35167,2,0,P|80:358|26:342,1,110,0|0,3:0|0:0,0:0:0:0:
348,174,35453,2,0,P|422:158|476:174,1,110,8|0,0:0|0:0,0:0:0:0:
347,383,35738,6,0,B|376:324|347:279|347:279|317:235|347:175,1,220,0|8,3:0|0:0,0:0:0:0:
165,383,36167,2,0,B|136:324|165:279|165:279|195:235|165:175,1,220,0|0,0:0|0:0,0:0:0:0:
256,16,36595,2,0,L|256:128,1,110,8|0,0:0|0:0,0:0:0:0:
417,227,36881,5,8,0:0:0:0:
170,70,37024,1,8,0:0:0:0:
256,331,37167,1,8,0:0:0:0:
440,232,37453,5,8,0:0:0:0:
157,52,37596,1,8,0:0:0:0:
256,351,37739,1,8,0:0:0:0:
369,44,38024,6,0,B|376:86|376:86|362:150,1,82.5000031471254,4|0,3:2|3:0,0:0:0:0:
386,135,38310,2,0,B|394:96|394:96|387:54,1,82.5000031471254,0|0,0:0|0:0,0:0:0:0:
300,82,38595,1,8,0:0:0:0:
212,302,38881,5,0,3:0:0:0:
146,384,39024,2,0,B|128:306|128:306|142:222,1,165.000006294251,0|0,3:0|0:0,0:0:0:0:
59,262,39453,2,0,B|50:300|50:300|57:342,1,82.5000031471254,0|0,3:0|0:0,0:0:0:0:
212,302,39738,1,8,0:0:0:0:
108,79,40310,6,0,B|150:72|150:72|214:86,1,82.5000031471254,0|0,3:0|3:0,0:0:0:0:
199,62,40596,2,0,B|160:53|160:53|118:60,1,82.5000031471254,0|0,3:0|0:0,0:0:0:0:
146,148,40881,1,8,0:0:0:0:
376,219,41167,5,0,3:0:0:0:
458,285,41310,2,0,B|380:302|380:302|296:288,1,165.000006294251,0|0,3:0|0:0,0:0:0:0:
336,372,41739,2,0,B|374:380|374:380|416:373,1,82.5000031471254,0|0,3:0|0:0,0:0:0:0:
376,219,42024,1,8,0:0:0:0:
143,44,42595,6,0,B|136:86|136:86|150:150,1,82.5000031471254,0|0,3:0|3:0,0:0:0:0:
126,135,42881,2,0,B|117:96|117:96|124:54,1,82.5000031471254,0|0,0:0|0:0,0:0:0:0:
212,82,43166,1,8,0:0:0:0:
300,302,43452,5,0,3:0:0:0:
366,384,43595,2,0,B|383:306|383:306|369:222,1,165.000006294251,0|0,3:0|0:0,0:0:0:0:
453,262,44024,2,0,B|461:300|461:300|454:342,1,82.5000031471254,0|0,3:0|0:0,0:0:0:0:
300,302,44309,1,8,0:0:0:0:
404,79,44881,6,0,B|362:72|362:72|298:86,1,82.5000031471254,0|0,3:0|3:0,0:0:0:0:
313,62,45167,2,0,B|351:53|351:53|393:60,1,82.5000031471254,0|0,3:0|0:0,0:0:0:0:
366,148,45452,1,8,0:0:0:0:
136,219,45738,5,0,3:0:0:0:
54,285,45881,2,0,B|131:302|131:302|215:288,1,165.000006294251,0|0,3:0|0:0,0:0:0:0:
176,372,46310,2,0,B|137:380|137:380|95:373,1,82.5000031471254,0|0,3:0|3:0,0:0:0:0:
136,219,46595,1,8,0:0:0:0:
425,384,46738,6,0,B|436:350|415:326|415:326|431:292|431:292|391:232|436:173,1,206.250007867813,8|0,0:0|0:0,0:0:0:0:
466,130,47167,5,4,3:2:0:0:
342,293,47310,1,0,0:0:0:0:
262,104,47453,2,0,P|335:88|389:104,1,110,8|0,0:0|0:0,0:0:0:0:
136,219,47738,1,0,3:0:0:0:
100,53,47881,1,0,3:0:0:0:
239,256,48024,1,8,0:0:0:0:
33,182,48167,1,0,0:0:0:0:
200,40,48310,5,0,3:0:0:0:
156,327,48453,1,0,0:0:0:0:
33,182,48595,2,0,P|17:108|33:54,1,110,8|0,0:0|0:0,0:0:0:0:
239,256,48881,2,0,P|255:329|239:383,1,110,0|0,3:0|3:0,0:0:0:0:
136,219,49167,1,8,0:0:0:0:
262,104,49310,1,0,0:0:0:0:
342,293,49453,5,0,3:0:0:0:
466,130,49595,1,0,0:0:0:0:
368,94,49738,1,8,0:0:0:0:
440,329,49881,1,0,0:0:0:0:
262,104,50024,2,0,P|188:88|134:104,1,110,0|0,3:0|3:0,0:0:0:0:
235,283,50310,2,0,P|309:299|363:283,1,110,8|0,0:0|0:0,0:0:0:0:
136,219,50595,6,0,P|120:293|136:347,1,110,0|0,3:0|0:0,0:0:0:0:
358,200,50881,2,0,P|374:126|358:72,1,110,8|0,0:0|0:0,0:0:0:0:
29,209,51167,2,0,P|81:225|136:219,1,110,0|0,3:0|3:0,0:0:0:0:
464,209,51453,2,0,P|411:193|357:199,1,110,8|0,0:0|0:0,0:0:0:0:
205,363,51738,5,0,3:0:0:0:
404,288,51881,1,0,0:0:0:0:
108,96,52024,1,8,0:0:0:0:
307,21,52167,1,0,0:0:0:0:
190,357,52310,5,8,0:0:0:0:
395,300,52453,1,0,3:0:0:0:
116,83,52596,1,8,0:0:0:0:
321,26,52739,1,0,0:0:0:0:
15,256,52881,5,0,3:0:0:0:
291,182,53024,1,0,0:0:0:0:
190,357,53167,5,8,0:0:0:0:
116,83,53310,1,0,0:0:0:0:
12,243,53453,5,8,0:0:0:0:
293,194,53596,1,0,3:0:0:0:
178,360,53739,5,8,0:0:0:0:
128,80,53882,1,0,0:0:0:0:
256,304,54024,5,8,0:0:0:0:
256,80,54167,1,0,0:0:0:0:
176,271,54310,5,8,0:0:0:0:
335,112,54453,1,0,0:0:0:0:
144,192,54595,5,8,0:0:0:0:
368,191,54738,1,0,3:0:0:0:
176,112,54881,5,8,0:0:0:0:
335,271,55024,1,0,3:0:0:0:
256,0,55167,5,8,0:0:0:0:
256,383,55310,1,0,3:0:0:0:
120,56,55453,5,8,0:0:0:0:
391,327,55596,1,0,3:0:0:0:
64,191,55738,5,8,0:0:0:0:
447,192,55881,1,0,3:0:0:0:
120,327,56024,5,8,0:0:0:0:
391,56,56167,1,0,3:0:0:0:
121,56,56310,5,8,0:0:0:0:
210,173,56453,1,0,3:0:0:0:
256,0,56595,1,8,0:0:0:0:
302,173,56738,2,0,P|318:247|302:301,1,110,8|0,0:0|0:0,0:0:0:0:
265,106,57024,2,0,P|249:32|265:-22,1,110,8|0,0:0|0:0,0:0:0:0:
210,173,57310,6,0,P|136:189|82:173,1,110,8|0,0:0|0:0,0:0:0:0:
391,56,57595,1,8,0:0:0:0:
391,327,57738,1,8,0:0:0:0:
56,119,58310,1,0,0:0:0:0:
375,266,58595,5,4,3:2:0:0:
162,124,58738,2,0,P|95:110|26:135,1,110,0|8,0:0|0:0,0:0:0:0:
384,282,59024,1,0,0:0:0:0:
171,140,59167,2,0,P|104:126|35:151,1,110,0|0,3:0|0:0,0:0:0:0:
393,298,59453,1,8,0:0:0:0:
180,156,59596,2,0,P|113:142|44:167,1,110,0|0,0:0|3:0,0:0:0:0:
402,314,59881,5,0,0:0:0:0:
432,106,60024,2,0,P|446:39|421:-30,1,110,8|0,0:0|0:0,0:0:0:0:
260,105,60310,2,0,B|289:165|260:210|260:210|230:254|260:314,1,220,0|8,3:0|0:0,0:0:0:0:
180,156,60738,1,0,0:0:0:0:
339,261,60881,5,0,3:0:0:0:
99,215,61024,2,0,P|85:148|110:79,1,110,0|8,0:0|0:0,0:0:0:0:
180,45,61310,1,0,0:0:0:0:
180,267,61453,1,0,3:0:0:0:
373,156,61595,2,0,P|440:142|509:167,1,110,0|8,0:0|0:0,0:0:0:0:
180,267,61881,6,0,P|113:281|44:256,1,110,0|0,0:0|3:0,0:0:0:0:
331,268,62167,2,0,P|345:335|320:404,1,110,0|8,0:0|0:0,0:0:0:0:
332,117,62453,2,0,P|399:103|468:128,1,110,0|0,0:0|3:0,0:0:0:0:
181,116,62739,2,0,P|167:49|192:-20,2,110,0|8|0,0:0|0:0|0:0,0:0:0:0:
331,268,63167,6,0,L|459:260,1,110,0|0,3:0|0:0,0:0:0:0:
180,267,63453,2,0,L|122:381,1,110,8|0,0:0|0:0,0:0:0:0:
256,136,63738,2,0,L|185:28,1,110,0|0,3:0|0:0,0:0:0:0:
257,222,64024,1,8,0:0:0:0:
174,173,64167,6,0,P|107:159|38:184,1,110,0|0,0:0|3:0,0:0:0:0:
341,174,64453,2,0,P|386:122|399:50,1,110,0|8,0:0|0:0,0:0:0:0:
256,318,64738,1,0,0:0:0:0:
174,173,64881,2,0,P|160:106|185:37,1,110,0|0,3:0|0:0,0:0:0:0:
341,174,65167,2,0,P|355:107|330:38,1,110,8|0,0:0|0:0,0:0:0:0:
139,346,65453,5,8,0:0:0:0:
373,346,65595,1,0,3:0:0:0:
256,144,65738,1,0,3:0:0:0:
115,359,65881,5,8,0:0:0:0:
396,359,66023,1,0,3:0:0:0:
256,117,66166,1,0,3:0:0:0:
255,359,66310,1,8,0:0:0:0:
256,90,66595,5,0,3:0:0:0:
115,359,66738,1,0,3:0:0:0:
256,63,66881,5,8,0:0:0:0:
396,359,67024,1,0,3:0:0:0:
256,36,67167,5,8,0:0:0:0:
115,359,67310,1,0,3:0:0:0:
256,9,67453,5,8,0:0:0:0:
396,359,67595,1,0,3:0:0:0:
112,65,67738,5,4,3:2:0:0:
254,278,67881,2,0,P|268:345|243:414,1,110,0|8,0:0|0:0,0:0:0:0:
96,56,68167,1,0,0:0:0:0:
238,269,68310,2,0,P|252:336|227:405,1,110,0|0,3:0|0:0,0:0:0:0:
80,47,68596,1,8,0:0:0:0:
222,260,68739,2,0,P|236:327|211:396,1,110,0|0,0:0|3:0,0:0:0:0:
64,38,69024,5,0,0:0:0:0:
24,262,69167,2,0,P|10:329|35:398,1,110,8|0,0:0|0:0,0:0:0:0:
164,187,69453,2,0,B|224:158|269:187|269:187|313:217|373:187,1,220,0|8,3:0|0:0,0:0:0:0:
222,260,69881,1,0,0:0:0:0:
321,112,70024,5,0,3:0:0:0:
286,361,70167,1,0,0:0:0:0:
373,186,70310,1,8,0:0:0:0:
166,365,70453,1,0,0:0:0:0:
412,104,70595,1,0,3:0:0:0:
106,265,70738,2,0,P|39:279|-30:254,1,110,0|8,0:0|0:0,0:0:0:0:
266,191,71024,6,0,P|333:177|402:202,1,110,0|0,0:0|3:0,0:0:0:0:
121,89,71310,2,0,P|75:37|62:-34,1,110,0|8,0:0|0:0,0:0:0:0:
106,265,71595,2,0,P|84:330|28:377,1,110,0|0,0:0|3:0,0:0:0:0:
224,306,71881,2,0,L|352:314,2,110,0|8|0,0:0|0:0|0:0,0:0:0:0:
121,89,72310,6,0,L|-7:81,1,110,0|0,3:0|0:0,0:0:0:0:
266,191,72595,2,0,L|336:84,1,110,8|0,0:0|0:0,0:0:0:0:
106,265,72881,2,0,L|163:379,1,110,0|0,3:0|0:0,0:0:0:0:
163,180,73167,1,8,0:0:0:0:
341,254,73310,6,0,P|408:268|477:243,1,110,0|0,0:0|3:0,0:0:0:0:
220,105,73595,2,0,P|153:91|84:116,1,110,0|8,0:0|0:0,0:0:0:0:
317,153,73881,1,0,0:0:0:0:
106,265,74024,2,0,P|92:332|117:401,1,110,0|0,3:0|0:0,0:0:0:0:
406,265,74310,2,0,P|420:332|395:401,1,110,8|0,0:0|0:0,0:0:0:0:
256,192,74595,5,0,3:0:0:0:
255,367,74738,1,8,0:0:0:0:
431,193,74881,1,8,0:0:0:0:
81,191,75024,1,0,3:0:0:0:
257,17,75167,5,8,0:0:0:0:
343,280,75310,1,0,3:0:0:0:
81,191,75453,1,8,0:0:0:0:
344,105,75595,1,8,0:0:0:0:
62,201,75881,5,0,3:0:0:0:
113,293,76024,2,0,L|222:286,1,110,8|0,0:0|3:0,0:0:0:0:
476,106,76310,5,8,0:0:0:0:
143,214,76453,1,0,3:0:0:0:
490,13,76595,5,8,0:0:0:0:
26,284,76738,1,0,3:0:0:0:
323,374,76881,6,0,P|338:325|333:283,1,82.5000031471254,4|0,3:2|3:0,0:0:0:0:
348,214,77167,2,0,P|333:263|338:305,1,82.5000031471254,0|0,0:0|0:0,0:0:0:0:
413,295,77453,1,8,0:0:0:0:
211,132,77738,1,0,3:0:0:0:
49,135,77880,1,0,3:0:0:0:
121,53,78024,6,0,P|136:102|131:144,1,82.5000031471254,0|0,3:0|0:0,0:0:0:0:
146,213,78310,2,0,P|131:164|136:122,1,82.5000031471254,0|0,3:0|0:0,0:0:0:0:
211,132,78595,1,8,0:0:0:0:
386,318,78881,1,0,3:0:0:0:
389,156,79023,1,0,0:0:0:0:
307,228,79167,6,0,P|356:243|398:238,1,82.5000031471254,0|0,3:0|0:0,0:0:0:0:
467,253,79453,2,0,P|418:238|376:243,1,82.5000031471254,0|0,3:0|0:0,0:0:0:0:
386,318,79738,1,8,0:0:0:0:
158,369,80024,1,0,3:0:0:0:
154,206,80166,1,0,3:0:0:0:
237,279,80310,6,0,P|188:294|146:289,1,82.5000031471254,0|0,3:0|0:0,0:0:0:0:
77,304,80596,2,0,P|126:289|168:294,1,82.5000031471254,0|0,3:0|0:0,0:0:0:0:
308,224,80881,6,0,P|322:291|297:360,1,110,8|0,0:0|0:0,0:0:0:0:
9,363,81167,2,0,P|-5:296|20:227,1,110,0|0,3:0|0:0,0:0:0:0:
146,62,81453,5,8,0:0:0:0:
126,302,81595,1,0,0:0:0:0:
386,82,81738,5,8,0:0:0:0:
366,322,81881,1,0,0:0:0:0:
129,42,82024,5,8,0:0:0:0:
106,318,82166,1,0,3:0:0:0:
405,65,82309,5,8,0:0:0:0:
382,341,82452,1,0,3:0:0:0:
110,20,82595,5,8,0:0:0:0:
84,337,82737,1,0,3:0:0:0:
427,46,82880,5,8,0:0:0:0:
401,363,83023,1,0,3:0:0:0:
98,179,83167,5,8,0:0:0:0:
415,205,83310,1,0,3:0:0:0:
243,350,83453,5,8,0:0:0:0:
269,33,83596,1,0,3:0:0:0:
507,314,83738,5,8,0:0:0:0:
7,143,83881,1,8,0:0:0:0:
9,295,84167,5,8,0:0:0:0:
509,124,84310,1,8,0:0:0:0:
507,314,84595,5,8,0:0:0:0:
7,143,84738,1,8,0:0:0:0:
256,192,86024,5,4,3:2:0:0:
256,192,86095,12,0,89738,0:0:0:0:
191,113,90024,5,8,0:0:0:0:
328,328,90167,1,8,0:0:0:0:
349,68,90310,5,8,0:0:0:0:
155,372,90453,1,8,0:0:0:0:
