osu file format v14

[General]
AudioFilename: audio.mp3
AudioLeadIn: 0
PreviewTime: 57693
Countdown: 0
SampleSet: None
StackLeniency: 0.7
Mode: 0
LetterboxInBreaks: 0
WidescreenStoryboard: 1

[Editor]
Bookmarks: 19407,89407
DistanceSpacing: 1
BeatDivisor: 4
GridSize: 4
TimelineZoom: 2

[Metadata]
Title:Uncontrollable (TV Size)
TitleUnicode:Uncontrollable (TV Size)
Artist:Ito Kanako
ArtistUnicode:いとうかなこ
Creator:Emonal
Version:Normal
Source:CHAOS;CHILD
Tags:Inversal Tomoka Rin Nifty rui opening op tv size 5pb. 科学アドベンチャーシリーズ science adventure series 妄想科学adv mousou kagaku adv
BeatmapID:1242200
BeatmapSetID:572908

[Difficulty]
HPDrainRate:4
CircleSize:3
OverallDifficulty:4
ApproachRate:5
SliderMultiplier:0.999999999999999
SliderTickRate:1

[Events]
//Background and Video events
0,0,"BG.jpg",0,0
//Break Periods
2,9892,17921
//Storyboard Layer 0 (Background)
//Storyboard Layer 1 (Fail)
//Storyboard Layer 2 (Pass)
//Storyboard Layer 3 (Foreground)
//Storyboard Sound Samples

[TimingPoints]
-307,285.714285714286,4,3,0,60,1,0
57693,-100,4,3,0,70,0,1
57978,-100,4,3,0,80,0,1
66835,-100,4,3,0,80,0,0
67121,-100,4,3,0,80,0,1
75693,-100,4,3,0,80,0,0

[Colours]
Combo1 : 118,183,231
Combo2 : 255,53,104
Combo3 : 177,150,207

[HitObjects]
255,188,264,6,0,P|286:153|283:90,1,99.9999999999999
190,124,835,2,0,B|146:169|146:169|162:262,2,150,4|0|0,3:2|0:0|0:0,0:0:0:0:
288,105,1978,6,0,L|396:95,1,99.9999999999999,4|0,3:2|0:0,0:0:0:0:
458,167,2550,2,0,P|466:214|453:271,1,99.9999999999999
380,331,3121,2,0,B|269:338,2,99.9999999999999,4|0|0,3:2|0:0|0:0,0:0:0:0:
351,235,3978,1,0,0:0:0:0:
250,231,4264,6,0,L|240:121,1,99.9999999999999,4|0,3:2|0:0,0:0:0:0:
143,108,4835,2,0,L|144:7,1,99.9999999999999,4|0,3:2|0:0,0:0:0:0:
240,36,5407,1,4,3:2:0:0:
338,56,5693,2,0,P|393:61|449:30,1,99.9999999999999
470,136,6264,1,0,0:0:0:0:
502,230,6550,6,0,P|511:272|480:331,1,99.9999999999999,4|0,3:2|0:0,0:0:0:0:
398,366,7121,2,0,P|375:318|393:260,1,99.9999999999999
397,174,7693,1,4,3:2:0:0:
282,270,8121,1,4,3:2:0:0:
163,179,8550,1,4,3:2:0:0:
77,229,8835,6,0,L|79:284,2,50,6|0|0,3:2|3:2|3:2,0:0:0:0:
49,186,9264,2,0,P|61:119|143:69,1,150,2|0,3:2|0:0,0:0:0:0:
257,199,19121,6,0,L|257:114,1,50,4|4,2:3|3:3,0:0:0:0:
257,98,19407,2,0,P|222:64|158:66,1,99.9999999999999,0|0,0:0|0:0,0:0:0:0:
73,74,19978,2,0,P|49:88|38:120,1,50,4|4,3:3|3:3,0:0:0:0:
41,157,20264,2,0,L|53:259,1,99.9999999999999,0|0,0:0|0:0,0:0:0:0:
115,334,20835,2,0,P|160:359|223:353,1,99.9999999999999
307,349,21407,6,0,L|373:338,1,50,4|4,3:3|3:3,0:0:0:0:
397,311,21693,2,0,L|393:180,1,99.9999999999999
382,111,22264,2,0,P|372:82|356:57,1,50,4|4,3:3|3:3,0:0:0:0:
313,53,22550,2,0,L|200:58,1,99.9999999999999
116,81,23121,2,0,P|76:105|56:160,1,99.9999999999999
56,253,23693,6,0,L|71:318,1,50,4|4,2:3|2:3,0:0:0:0:
99,339,23978,2,0,P|153:356|216:331,1,99.9999999999999
291,323,24550,2,0,P|304:292|307:259,1,50,4|4,2:3|2:3,0:0:0:0:
289,229,24835,2,0,P|257:193|267:124,1,99.9999999999999
312,60,25407,2,0,P|355:45|409:64,1,99.9999999999999
439,154,25978,6,0,B|464:217|464:217|429:311,2,150,4|0|2,0:0|0:0|0:0,0:0:0:0:
339,161,27121,2,0,B|272:194|272:194|193:152,2,150,4|4|4,0:0|0:0|0:0,0:0:0:0:
405,83,28264,5,0,0:0:0:0:
319,31,28550,1,8,3:2:0:0:
219,39,28835,2,0,P|168:35|121:77,1,99.9999999999999,0|8,0:0|3:2,0:0:0:0:
78,148,29407,2,0,P|51:192|62:255,1,99.9999999999999,0|8,0:0|3:2,0:0:0:0:
95,329,29978,1,0,0:0:0:0:
189,362,30264,1,8,3:2:0:0:
289,363,30550,6,0,L|429:354,1,99.9999999999999,0|8,0:0|3:2,0:0:0:0:
400,257,31121,2,0,L|277:263,1,99.9999999999999,0|8,0:0|3:2,0:0:0:0:
199,269,31693,1,0,0:0:0:0:
200,368,31978,2,0,P|149:360|117:301,1,99.9999999999999,8|0,3:2|0:0,0:0:0:0:
98,225,32550,1,8,3:2:0:0:
114,126,32835,6,0,L|105:15,1,99.9999999999999,0|8,0:0|3:2,0:0:0:0:
206,21,33407,2,0,L|201:126,1,99.9999999999999,0|8,0:0|3:2,0:0:0:0:
266,196,33978,1,0,0:0:0:0:
350,249,34264,2,0,P|337:305|359:356,1,99.9999999999999,8|0,3:2|0:0,0:0:0:0:
437,295,34835,1,8,3:2:0:0:
474,202,35121,6,0,L|463:87,1,99.9999999999999,4|8,0:0|3:2,0:0:0:0:
377,51,35693,2,0,L|389:160,1,99.9999999999999,0|8,0:0|3:2,0:0:0:0:
309,212,36264,1,4,0:0:0:0:
220,258,36550,2,0,P|216:304|177:354,1,99.9999999999999,0|4,0:0|3:2,0:0:0:0:
92,310,37121,1,2,0:0:0:0:
54,217,37407,6,0,B|50:168|50:168|85:139|144:131|190:175,1,200,4|0,0:0|0:0,0:0:0:0:
166,270,38264,1,8,0:0:0:0:
243,333,38550,2,0,P|289:352|344:330,1,99.9999999999999
409,270,39121,2,0,L|421:165,1,99.9999999999999,2|0,3:2|0:0,0:0:0:0:
399,72,39693,6,0,B|354:86|354:86|273:66,1,99.9999999999999,4|0,0:0|0:0,0:0:0:0:
209,108,40264,2,0,L|216:211,1,99.9999999999999,2|8,3:2|0:0,0:0:0:0:
225,307,40835,1,0,0:0:0:0:
131,344,41121,1,0,0:0:0:0:
49,285,41407,2,0,L|34:173,1,99.9999999999999,2|0,3:2|0:0,0:0:0:0:
84,98,41978,6,0,B|111:54|111:54|290:83,1,200,4|2,0:0|3:2,0:0:0:0:
355,97,42835,1,8,0:0:0:0:
436,154,43121,2,0,P|447:197|440:266,1,99.9999999999999
398,342,43693,2,0,L|290:347,1,99.9999999999999,2|0,3:2|0:0,0:0:0:0:
199,328,44264,6,0,B|175:282|175:282|196:212,1,99.9999999999999,4|0,0:0|0:0,0:0:0:0:
246,154,44835,2,0,L|258:41,1,99.9999999999999,2|8,3:2|0:0,0:0:0:0:
160,23,45407,1,2,3:2:0:0:
74,75,45693,1,2,3:2:0:0:
56,173,45978,2,0,P|58:225|92:270,1,99.9999999999999,8|0,3:3|0:0,0:0:0:0:
164,323,46550,6,0,L|293:327,1,99.9999999999999,4|2,3:2|3:2,0:0:0:0:
358,294,47121,2,0,L|426:298,2,50,2|0|0,3:2|0:0|0:0,0:0:0:0:
296,214,47693,2,0,P|311:159|300:112,1,99.9999999999999,4|0,3:2|0:0,0:0:0:0:
230,47,48264,2,0,L|265:5,2,50
139,90,48835,6,0,P|88:83|43:105,1,99.9999999999999,4|2,3:2|3:2,0:0:0:0:
42,203,49407,2,0,L|29:258,2,50,2|0|0,3:2|0:0|0:0,0:0:0:0:
142,203,49978,2,0,L|242:213,1,99.9999999999999,4|0,3:2|0:0,0:0:0:0:
339,232,50550,2,0,L|352:289,2,50,2|0|0,3:2|0:0|0:0,0:0:0:0:
384,142,51121,6,0,P|403:92|381:31,1,99.9999999999999,4|2,3:2|3:2,0:0:0:0:
292,47,51693,2,0,P|277:93|312:153,1,99.9999999999999,2|2,3:2|3:2,0:0:0:0:
245,225,52264,2,0,P|257:270|227:334,1,99.9999999999999,6|2,3:2|3:2,0:0:0:0:
140,310,52835,2,0,P|127:256|147:213,1,99.9999999999999,2|2,3:2|3:2,0:0:0:0:
256,192,53407,12,0,56835,0:0:0:0:
256,192,57693,5,2,0:0:0:0:
326,121,57978,2,0,L|437:107,1,99.9999999999999,2|8,3:2|3:2,0:0:0:0:
441,207,58550,2,0,L|336:221,1,99.9999999999999,2|8,3:2|3:2,0:0:0:0:
242,232,59121,1,0,0:0:0:0:
172,304,59407,1,8,3:2:0:0:
76,274,59693,2,0,P|50:235|55:174,1,99.9999999999999,0|8,0:0|3:2,0:0:0:0:
94,93,60264,5,2,3:2:0:0:
182,46,60550,1,8,3:2:0:0:
278,69,60835,2,0,P|333:76|373:113,1,99.9999999999999,0|8,0:0|3:2,0:0:0:0:
390,200,61407,2,0,L|383:307,1,99.9999999999999,2|8,3:2|3:2,0:0:0:0:
338,322,61835,1,0,0:0:0:0:
291,339,61978,2,0,L|288:236,1,99.9999999999999,0|8,0:0|3:2,0:0:0:0:
209,175,62550,5,6,3:2:0:0:
128,234,62835,1,8,3:2:0:0:
46,176,63121,2,0,P|32:123|50:69,1,99.9999999999999,0|8,0:0|3:2,0:0:0:0:
93,76,63550,1,0,0:0:0:0:
134,48,63693,2,0,P|172:35|241:48,1,99.9999999999999,2|8,3:2|3:2,0:0:0:0:
299,115,64264,2,0,P|355:128|413:107,1,99.9999999999999,0|8,0:0|3:2,0:0:0:0:
486,76,64835,6,0,L|491:21,2,50,6|0|0,3:2|0:0|0:0,0:0:0:0:
478,125,65264,1,2,3:2:0:0:
469,174,65407,2,0,L|472:281,1,99.9999999999999,0|2,0:0|3:2,0:0:0:0:
399,343,65978,2,0,L|432:391,2,50,6|0|2,3:2|0:0|3:2,0:0:0:0:
349,353,66407,2,0,P|292:372|204:335,1,150,0|2,0:0|3:2,0:0:0:0:
134,276,67121,6,0,L|14:285,1,99.9999999999999,6|8,3:2|3:2,0:0:0:0:
36,183,67693,2,0,L|153:175,1,99.9999999999999,2|8,3:2|3:2,0:0:0:0:
235,170,68264,1,0,0:0:0:0:
314,231,68550,1,8,3:2:0:0:
413,220,68835,2,0,P|447:193|465:122,1,99.9999999999999,0|8,0:0|3:2,0:0:0:0:
416,53,69407,5,2,3:2:0:0:
354,131,69693,1,8,3:2:0:0:
257,154,69978,2,0,L|154:148,1,99.9999999999999,0|8,0:0|3:2,0:0:0:0:
107,156,70407,1,0,0:0:0:0:
66,185,70550,2,0,B|41:224|41:224|50:297,1,99.9999999999999,2|8,3:2|3:2,0:0:0:0:
121,344,71121,2,0,B|146:305|146:305|137:232,1,99.9999999999999,0|8,0:0|3:2,0:0:0:0:
229,207,71693,5,6,3:2:0:0:
322,241,71978,1,8,3:2:0:0:
416,207,72264,2,0,P|424:259|400:307,1,99.9999999999999,0|8,0:0|3:2,0:0:0:0:
363,329,72693,1,0,0:0:0:0:
316,345,72835,2,0,L|197:347,1,99.9999999999999,2|8,3:2|3:2,0:0:0:0:
116,331,73407,2,0,B|88:297|88:297|82:221,1,99.9999999999999,0|8,0:0|3:2,0:0:0:0:
71,141,73978,6,0,L|56:82,2,50,6|0|8,3:2|0:0|3:2,0:0:0:0:
118,159,74407,1,2,3:2:0:0:
166,171,74550,2,0,P|203:158|271:188,1,99.9999999999999,2|8,3:2|3:2,0:0:0:0:
288,216,74978,2,0,P|321:252|427:250,1,150,0|8,0:0|3:2,0:0:0:0:
467,169,75693,2,0,L|483:100,1,50,2|2,3:2|0:0,0:0:0:0:
434,95,75978,2,0,P|433:33|433:32,1,50,2|2,3:2|0:0,0:0:0:0:
384,30,76264,6,0,L|266:36,1,99.9999999999999,4|2,3:2|3:2,0:0:0:0:
202,92,76835,2,0,L|94:98,1,99.9999999999999,2|2,3:2|3:2,0:0:0:0:
25,162,77407,1,4,0:0:0:0:
36,261,77693,1,2,3:2:0:0:
122,311,77978,2,0,P|173:321|225:306,1,99.9999999999999,0|2,0:0|3:2,0:0:0:0:
312,273,78550,6,0,L|321:165,1,99.9999999999999,4|0,0:0|0:0,0:0:0:0:
414,138,79121,2,0,L|418:252,1,99.9999999999999,0|2,0:0|3:2,0:0:0:0:
424,338,79693,1,4,0:0:0:0:
328,366,79978,1,2,3:2:0:0:
234,330,80264,2,0,P|190:318|122:337,1,99.9999999999999,2|2,3:2|3:2,0:0:0:0:
51,277,80835,6,0,L|36:174,1,99.9999999999999,4|2,3:2|3:2,0:0:0:0:
135,160,81407,2,0,L|145:53,1,99.9999999999999,2|2,3:2|3:2,0:0:0:0:
237,96,81978,2,0,L|304:12,1,99.9999999999999,4|2,3:2|3:2,0:0:0:0:
362,96,82550,2,0,L|462:88,1,99.9999999999999,2|2,3:2|3:2,0:0:0:0:
466,188,83121,6,0,L|415:224,1,50,4|4,3:2|0:0,0:0:0:0:
343,274,83550,2,0,L|289:303,1,50,4|4,3:2|0:0,0:0:0:0:
211,346,83978,2,0,B|146:377,1,50,4|4,3:2|0:0,0:0:0:0:
256,192,85407,12,2,89693,3:2:0:0:
