osu file format v14

[General]
AudioFilename: audio.mp3
AudioLeadIn: 0
PreviewTime: 57693
Countdown: 0
SampleSet: None
StackLeniency: 0.7
Mode: 0
LetterboxInBreaks: 0
WidescreenStoryboard: 1

[Editor]
Bookmarks: 19407,28265,89407
DistanceSpacing: 1.5
BeatDivisor: 4
GridSize: 4
TimelineZoom: 3.099999

[Metadata]
Title:Uncontrollable (TV Size)
TitleUnicode:Uncontrollable (TV Size)
Artist:Ito Kanako
ArtistUnicode:いとうかなこ
Creator:Emonal
Version:Insane
Source:CHAOS;CHILD
Tags:Inversal Tomoka Rin Nifty rui opening op tv size 5pb. 科学アドベンチャーシリーズ science adventure series 妄想科学adv mousou kagaku adv
BeatmapID:1226333
BeatmapSetID:572908

[Difficulty]
HPDrainRate:5
CircleSize:4
OverallDifficulty:8
ApproachRate:9
SliderMultiplier:1.4
SliderTickRate:1

[Events]
//Background and Video events
0,0,"BG.jpg",0,0
//Break Periods
//Storyboard Layer 0 (Background)
//Storyboard Layer 1 (Fail)
//Storyboard Layer 2 (Pass)
//Storyboard Layer 3 (Foreground)
//Storyboard Sound Samples

[TimingPoints]
-307,285.714285714286,4,3,0,60,1,0
264,-133.333333333333,4,3,0,60,0,0
764,-133.333333333333,4,3,0,5,0,0
835,-133.333333333333,4,3,0,60,0,0
5693,-100,4,3,0,60,0,0
19121,-100,4,2,0,60,0,0
25978,-100,4,3,0,60,0,0
27978,-133.333333333333,4,3,0,60,0,0
27979,-133.333333333333,4,3,0,60,0,0
28264,-100,4,3,0,70,0,0
36550,-133.333333333333,4,3,0,70,0,0
36835,-133.333333333333,4,3,0,70,0,0
36979,-133.333333333333,4,3,0,70,0,0
37407,-100,4,3,0,70,0,0
46121,-133.333333333333,4,3,0,70,0,0
46550,-100,4,3,0,70,0,0
57693,-133.333333333333,4,3,0,70,0,1
57978,-100,4,3,0,80,0,1
66835,-133.333333333333,4,3,0,80,0,0
67121,-100,4,3,0,80,0,1
75693,-100,4,3,0,80,0,0

[Colours]
Combo1 : 118,183,231
Combo2 : 255,53,104
Combo3 : 177,150,207

[HitObjects]
182,189,264,6,0,P|264:227|340:179,1,183.750007009506,0|0,0:0|0:0,0:0:0:0:
352,145,835,5,4,3:2:0:0:
356,52,978,1,0,0:0:0:0:
468,184,1264,1,0,0:0:0:0:
456,272,1407,1,0,0:0:0:0:
324,356,1693,2,0,P|300:360|264:356,1,52.5000020027161,0|0,0:0|0:0,0:0:0:0:
199,326,1978,5,4,3:2:0:0:
205,247,2121,1,0,0:0:0:0:
205,247,2264,2,0,L|206:181,1,52.5000020027161,0|0,0:0|0:0,0:0:0:0:
278,226,2550,2,0,P|273:286|234:323,1,105.000004005432,0|0,0:0|0:0,0:0:0:0:
252,155,3121,5,4,3:2:0:0:
275,82,3264,2,0,P|284:50|313:21,1,52.5000020027161,0|0,0:0|0:0,0:0:0:0:
366,68,3550,1,0,0:0:0:0:
396,140,3693,1,0,0:0:0:0:
396,140,3835,2,0,P|394:171|377:208,1,52.5000020027161,0|0,0:0|0:0,0:0:0:0:
355,263,4121,1,0,0:0:0:0:
304,202,4264,5,4,3:2:0:0:
225,200,4407,2,0,L|215:262,1,52.5000020027161,0|0,0:0|0:0,0:0:0:0:
145,329,4693,2,0,L|139:271,1,52.5000020027161,0|4,0:0|3:2,0:0:0:0:
125,154,4978,2,0,P|151:98|202:80,1,105.000004005432,0|0,0:0|0:0,0:0:0:0:
266,94,5407,5,4,3:2:0:0:
445,270,5693,2,0,L|515:283,1,70,0|0,0:0|0:0,0:0:0:0:
348,311,5978,2,0,L|421:343,1,70,0|0,0:0|0:0,0:0:0:0:
253,304,6264,2,0,L|292:362,1,70,0|0,0:0|0:0,0:0:0:0:
181,281,6550,6,0,L|175:351,1,70,4|0,3:2|0:0,0:0:0:0:
96,202,6835,2,0,L|100:272,1,70,0|0,0:0|0:0,0:0:0:0:
188,128,7121,2,0,L|186:206,1,70,0|0,0:0|0:0,0:0:0:0:
90,57,7407,2,0,L|93:131,1,70,0|0,0:0|0:0,0:0:0:0:
194,33,7693,5,4,3:2:0:0:
502,95,8121,1,4,3:2:0:0:
194,164,8550,1,4,3:2:0:0:
284,296,8835,5,6,3:2:0:0:
356,212,8978,1,0,3:2:0:0:
252,172,9121,1,0,3:2:0:0:
312,332,9264,2,0,P|404:340|464:244,1,210,2|0,3:2|0:0,0:0:0:0:
404,48,9978,6,0,L|404:144,1,70,2|0,3:2|0:0,0:0:0:0:
324,184,10264,2,0,L|328:100,1,70,8|0,3:2|0:0,0:0:0:0:
264,28,10550,1,0,0:0:0:0:
264,28,10693,1,0,0:0:0:0:
324,184,10835,1,8,3:2:0:0:
324,184,10978,1,0,0:0:0:0:
240,120,11121,6,0,L|164:108,1,70,2|0,3:2|0:0,0:0:0:0:
104,192,11407,2,0,L|192:188,1,70,8|0,3:2|0:0,0:0:0:0:
256,252,11693,1,0,0:0:0:0:
256,252,11835,1,0,0:0:0:0:
104,192,11978,1,8,3:2:0:0:
104,192,12121,1,0,0:0:0:0:
48,280,12264,6,0,L|56:363,1,70,2|0,3:2|0:0,0:0:0:0:
156,376,12550,2,0,L|164:288,1,70,8|0,3:2|0:0,0:0:0:0:
172,200,12835,1,0,0:0:0:0:
172,200,12978,1,0,0:0:0:0:
156,376,13121,1,8,3:2:0:0:
156,376,13264,1,0,0:0:0:0:
260,364,13407,6,0,P|299:372|352:354,1,70,2|0,3:2|0:0,0:0:0:0:
365,267,13693,2,0,P|328:260|285:270,1,70,8|0,3:2|0:0,0:0:0:0:
192,279,13978,1,0,0:0:0:0:
192,279,14121,1,0,0:0:0:0:
369,271,14264,1,8,3:2:0:0:
369,271,14407,1,0,0:0:0:0:
426,182,14550,6,0,P|434:134|426:94,1,70,2|0,3:2|0:0,0:0:0:0:
346,54,14835,2,0,P|338:94|354:138,1,70,8|0,3:2|0:0,0:0:0:0:
426,182,15121,1,0,0:0:0:0:
426,182,15264,1,0,0:0:0:0:
258,82,15407,1,8,3:2:0:0:
258,82,15550,1,0,0:0:0:0:
250,186,15693,6,0,P|242:222|258:270,1,70,2|0,3:2|0:0,0:0:0:0:
162,198,15978,2,0,P|166:158|154:126,1,70,8|0,3:2|0:0,0:0:0:0:
62,178,16264,1,0,0:0:0:0:
62,178,16407,1,0,0:0:0:0:
250,186,16550,1,8,3:2:0:0:
250,186,16693,1,0,0:0:0:0:
248,280,16835,5,2,3:2:0:0:
344,104,16978,2,0,L|264:96,1,70,2|0,3:2|0:0,0:0:0:0:
168,88,17264,1,0,0:0:0:0:
400,188,17407,2,0,L|320:180,1,70,2|0,3:2|0:0,0:0:0:0:
224,172,17693,1,0,0:0:0:0:
456,272,17835,6,0,L|368:260,1,70,2|0,3:2|0:0,0:0:0:0:
280,248,18121,1,0,0:0:0:0:
500,352,18264,2,0,L|408:340,1,70,2|0,3:2|0:0,0:0:0:0:
256,224,18693,2,0,P|204:176|296:144,1,175,0|0,0:0|0:0,0:0:0:0:
312,132,19121,5,4,2:3:0:0:
360,224,19264,1,4,3:3:0:0:
292,304,19407,2,0,P|256:316|212:304,1,70,0|0,0:0|0:0,0:0:0:0:
360,224,19693,2,0,P|400:284|368:360,1,140,0|4,0:0|3:3,0:0:0:0:
292,304,20121,1,4,3:3:0:0:
285,258,20264,5,0,0:0:0:0:
233,210,20550,1,0,0:0:0:0:
165,198,20835,1,0,0:0:0:0:
97,218,21121,1,0,0:0:0:0:
49,270,21407,6,0,L|45:346,1,70,4|4,3:3|3:3,0:0:0:0:
133,282,21693,1,0,0:0:0:0:
68,148,21835,2,0,P|35:186|60:280,1,140,0|0,0:0|0:0,0:0:0:0:
112,353,22264,2,0,L|204:363,1,70,4|4,3:3|3:3,0:0:0:0:
287,369,22550,5,0,0:0:0:0:
356,342,22835,1,0,0:0:0:0:
402,285,23121,1,0,0:0:0:0:
415,213,23407,1,0,0:0:0:0:
390,144,23693,6,0,L|309:154,2,70,4|4|0,2:3|2:3|0:0,0:0:0:0:
276,216,24121,2,0,P|244:151|284:85,1,140,0|0,0:0|0:0,0:0:0:0:
276,216,24550,1,4,2:3:0:0:
276,216,24693,6,0,P|220:248|136:208,1,140,4|0,2:3|0:0,0:0:0:0:
72,160,25121,1,0,0:0:0:0:
93,294,25264,1,0,0:0:0:0:
207,168,25407,2,0,P|213:130|201:86,1,70,0|0,0:0|0:0,0:0:0:0:
276,216,25693,2,0,P|272:250|286:307,1,70,0|0,0:0|0:0,0:0:0:0:
424,140,25978,6,0,P|400:84|320:52,1,140,4|2,0:0|0:0,0:0:0:0:
296,260,26407,2,0,P|340:204|332:128,1,140,0|0,0:0|0:0,0:0:0:0:
248,84,26835,1,2,0:0:0:0:
158,287,27121,6,0,L|298:259,1,140,4|0,0:0|0:0,0:0:0:0:
64,204,27550,2,0,L|204:200,1,140,4|0,0:0|0:0,0:0:0:0:
304,168,27978,6,0,P|312:124|304:92,1,78.7500030040742,4|0,0:0|0:0,0:0:0:0:
283,53,28264,6,0,L|198:59,1,70,0|0,0:0|0:0,0:0:0:0:
107,66,28550,1,8,3:2:0:0:
185,136,28693,1,0,0:0:0:0:
100,200,28835,2,0,L|16:192,1,70,0|0,0:0|0:0,0:0:0:0:
95,276,29121,2,0,L|170:267,1,70,8|0,3:2|0:0,0:0:0:0:
268,247,29407,5,0,0:0:0:0:
231,330,29550,1,0,0:0:0:0:
197,182,29693,1,8,3:2:0:0:
351,226,29835,2,0,P|350:265|334:296,1,70,0|0,0:0|0:0,0:0:0:0:
356,144,30121,1,0,0:0:0:0:
484,156,30264,2,0,P|488:116|476:68,1,70,8|0,3:2|0:0,0:0:0:0:
388,20,30550,5,0,0:0:0:0:
356,144,30693,1,0,0:0:0:0:
482,86,30835,1,8,3:2:0:0:
295,101,30978,2,0,L|216:109,1,70,0|0,0:0|0:0,0:0:0:0:
226,213,31264,2,0,L|308:217,1,70,0|8,0:0|3:2,0:0:0:0:
252,312,31550,1,0,0:0:0:0:
221,140,31693,6,0,P|226:102|217:65,1,70,0|0,0:0|0:0,0:0:0:0:
124,192,31978,2,0,P|116:226|124:268,1,70,8|0,3:2|0:0,0:0:0:0:
192,336,32264,1,0,0:0:0:0:
208,232,32407,1,0,0:0:0:0:
120,88,32550,1,8,3:2:0:0:
124,192,32693,1,0,0:0:0:0:
260,160,32835,6,0,L|348:152,1,70,0|0,0:0|0:0,0:0:0:0:
289,55,33121,1,8,3:2:0:0:
196,104,33264,2,0,P|180:134|184:189,1,70,0|0,0:0|0:0,0:0:0:0:
244,251,33550,2,0,P|278:228|297:185,1,70,0|8,0:0|3:2,0:0:0:0:
196,104,33835,1,0,0:0:0:0:
299,120,33978,5,0,0:0:0:0:
138,163,34121,2,0,P|113:127|120:82,1,70,0|8,0:0|3:2,0:0:0:0:
183,23,34407,1,0,0:0:0:0:
286,43,34550,2,0,L|367:41,1,70,0|0,0:0|0:0,0:0:0:0:
477,115,34835,2,0,L|399:110,1,70,8|0,3:2|0:0,0:0:0:0:
376,248,35121,6,0,L|372:336,1,70,4|0,3:2|0:0,0:0:0:0:
278,269,35407,2,0,L|270:185,1,70,8|0,3:2|0:0,0:0:0:0:
448,276,35693,6,0,L|444:360,1,70,0|0,0:0|0:0,0:0:0:0:
203,247,35978,2,0,L|195:167,1,70,8|0,3:2|0:0,0:0:0:0:
157,78,36264,5,4,0:0:0:0:
368,96,36407,1,0,0:0:0:0:
244,104,36550,6,0,P|240:60|264:16,1,78.7500030040742,0|0,0:0|0:0,0:0:0:0:
288,12,36835,1,4,3:2:0:0:
292,188,36978,1,0,0:0:0:0:
136,176,37121,2,0,P|176:192|216:180,1,78.7500030040742,2|0,0:0|0:0,0:0:0:0:
220,148,37407,6,0,P|264:112|276:272,1,350,4|0,0:0|0:0,0:0:0:0:
149,212,38264,1,8,0:0:0:0:
136,97,38407,1,8,0:0:0:0:
28,215,38550,6,0,L|106:212,1,70,0|0,0:0|0:0,0:0:0:0:
193,309,38835,2,0,L|121:312,1,70,0|0,0:0|0:0,0:0:0:0:
196,128,39121,2,0,P|256:148|292:236,1,140,2|0,3:2|0:0,0:0:0:0:
108,168,39550,1,0,0:0:0:0:
108,168,39693,6,0,P|96:112|152:40,1,140,4|0,0:0|0:0,0:0:0:0:
283,114,40121,1,0,0:0:0:0:
283,114,40193,1,0,0:0:0:0:
283,114,40264,2,0,L|376:125,1,70,2|0,3:2|0:0,0:0:0:0:
497,153,40550,1,8,0:0:0:0:
380,212,40693,1,8,0:0:0:0:
304,356,40835,6,0,P|294:321|312:266,1,70,0|0,0:0|0:0,0:0:0:0:
380,212,41121,2,0,P|384:264|360:296,1,70,0|0,0:0|0:0,0:0:0:0:
304,356,41407,1,2,3:2:0:0:
408,352,41550,1,0,0:0:0:0:
268,280,41693,2,0,L|188:284,1,70,0|0,0:0|0:0,0:0:0:0:
336,216,41978,5,4,0:0:0:0:
336,216,42121,2,0,B|364:280|364:280|324:360,1,140,8|0,0:0|0:0,0:0:0:0:
256,216,42550,2,0,P|260:180|288:148,1,70,2|0,3:2|0:0,0:0:0:0:
252,356,42835,1,8,0:0:0:0:
386,348,42978,1,8,0:0:0:0:
230,287,43121,6,0,L|146:298,1,70,0|0,0:0|0:0,0:0:0:0:
36,276,43407,2,0,P|24:236|36:192,1,70,0|0,0:0|0:0,0:0:0:0:
112,144,43693,2,0,P|120:188|112:224,1,70,2|0,3:2|0:0,0:0:0:0:
36,276,43978,1,0,0:0:0:0:
48,100,44121,1,0,0:0:0:0:
48,100,44193,1,0,0:0:0:0:
48,100,44264,6,0,L|196:92,1,140,4|0,0:0|0:0,0:0:0:0:
290,116,44693,1,0,0:0:0:0:
290,116,44764,1,0,0:0:0:0:
290,116,44835,1,2,3:2:0:0:
303,220,44978,1,0,0:0:0:0:
162,161,45121,1,8,0:0:0:0:
241,48,45264,1,8,0:0:0:0:
356,167,45407,6,0,P|378:196|376:251,1,70,2|0,3:2|0:0,0:0:0:0:
329,335,45693,1,2,3:2:0:0:
213,354,45835,1,0,0:0:0:0:
121,283,45978,1,8,3:3:0:0:
96,168,46121,6,0,P|84:132|44:184,1,131.25000500679,8|0,0:0|0:0,0:0:0:0:
42,221,46550,6,0,P|77:241|122:238,1,70,4|0,3:2|0:0,0:0:0:0:
204,205,46835,1,2,3:2:0:0:
230,182,46906,1,0,0:0:0:0:
245,151,46977,1,0,0:0:0:0:
247,116,47049,1,0,0:0:0:0:
245,77,47121,2,0,P|231:41|204:18,1,70,2|0,3:2|0:0,0:0:0:0:
338,146,47407,2,0,P|351:113|348:68,1,70,0|0,0:0|0:0,0:0:0:0:
318,4,47693,5,4,3:2:0:0:
245,77,47835,1,0,0:0:0:0:
338,146,47978,2,0,L|428:138,1,70,0|0,0:0|0:0,0:0:0:0:
263,202,48264,2,0,P|244:171|251:118,1,70,0|0,0:0|0:0,0:0:0:0:
338,228,48550,2,0,P|343:263|329:311,1,70,0|0,0:0|0:0,0:0:0:0:
253,362,48835,5,4,3:2:0:0:
241,257,48978,1,0,0:0:0:0:
161,315,49121,1,2,3:2:0:0:
131,297,49192,1,0,0:0:0:0:
111,268,49263,1,0,0:0:0:0:
104,234,49335,1,0,0:0:0:0:
107,199,49407,2,0,L|116:117,1,70,2|0,3:2|0:0,0:0:0:0:
194,59,49693,2,0,L|197:137,1,70,0|0,0:0|0:0,0:0:0:0:
201,233,49978,5,4,3:2:0:0:
107,199,50121,1,0,0:0:0:0:
271,167,50264,1,0,0:0:0:0:
220,332,50407,1,0,0:0:0:0:
220,332,50478,1,0,0:0:0:0:
220,332,50550,1,2,3:2:0:0:
319,366,50693,1,0,0:0:0:0:
338,247,50835,2,0,P|306:239|257:252,1,70,0|0,0:0|0:0,0:0:0:0:
136,336,51121,6,0,L|58:339,1,70,4|0,3:2|0:0,0:0:0:0:
220,332,51407,2,0,L|299:330,1,70,2|0,3:2|0:0,0:0:0:0:
117,251,51693,6,0,L|39:254,1,70,2|0,3:2|0:0,0:0:0:0:
229,245,51979,2,0,L|308:243,1,70,2|0,3:2|0:0,0:0:0:0:
90,167,52264,6,0,L|12:170,1,70,6|0,3:2|0:0,0:0:0:0:
243,162,52550,2,0,L|322:160,1,70,2|0,3:2|0:0,0:0:0:0:
417,156,52835,1,2,3:2:0:0:
374,252,52978,1,0,0:0:0:0:
312,160,53121,1,2,3:2:0:0:
472,232,53264,1,0,0:0:0:0:
324,330,53407,5,6,3:2:0:0:
428,320,53550,1,0,0:0:0:0:
259,282,53693,5,4,3:2:0:0:
353,192,53835,1,0,0:0:0:0:
185,284,53978,5,4,3:2:0:0:
198,124,54121,1,0,0:0:0:0:
123,327,54264,5,4,3:2:0:0:
61,161,54407,1,0,0:0:0:0:
33,339,54550,6,0,L|124:326,1,70,4|0,3:2|0:0,0:0:0:0:
150,222,54835,2,0,L|70:231,1,70,4|0,3:2|0:0,0:0:0:0:
26,138,55121,1,2,3:2:0:0:
178,106,55264,1,0,0:0:0:0:
192,137,55335,1,0,0:0:0:0:
206,169,55406,1,2,3:2:0:0:
302,212,55550,1,0,0:0:0:0:
341,114,55693,6,0,L|356:27,1,70,6|0,3:2|0:0,0:0:0:0:
178,106,55978,2,0,L|165:25,1,70,4|4,3:2|3:2,0:0:0:0:
250,200,56407,5,4,3:2:0:0:
168,6,56693,1,4,3:2:0:0:
376,29,56978,5,4,3:2:0:0:
250,200,57121,1,4,3:2:0:0:
284,330,57693,6,0,B|242:340|242:340|189:329,1,78.7500030040742,2|0,0:0|0:0,0:0:0:0:
168,326,57978,5,2,3:2:0:0:
98,288,58121,2,0,L|36:238,1,70,2|8,3:2|3:2,0:0:0:0:
243,264,58407,5,2,3:2:0:0:
315,222,58550,2,0,L|371:176,1,70,2|0,3:2|3:2,0:0:0:0:
472,158,58835,1,8,3:2:0:0:
340,294,58978,6,0,P|287:296|232:207,1,140,0|0,0:0|0:0,0:0:0:0:
332,190,59407,1,8,3:2:0:0:
409,261,59550,1,0,0:0:0:0:
235,232,59693,2,0,L|236:157,1,70,0|0,0:0|0:0,0:0:0:0:
340,294,59978,2,0,L|328:368,1,70,8|0,3:2|0:0,0:0:0:0:
229,325,60264,5,2,3:2:0:0:
453,303,60407,2,0,P|448:264|419:224,1,70,2|8,0:0|3:2,0:0:0:0:
328,216,60693,1,0,0:0:0:0:
300,116,60835,1,0,0:0:0:0:
488,136,60978,1,0,0:0:0:0:
432,237,61121,1,8,3:2:0:0:
372,128,61264,2,0,L|376:53,1,70,2|2,3:2|3:2,0:0:0:0:
299,236,61550,6,0,P|301:148|301:147,1,70,2|8,3:2|3:2,0:0:0:0:
230,88,61835,2,0,P|191:84|146:92,1,70,2|0,3:2|0:0,0:0:0:0:
299,236,62121,2,0,P|336:244|372:236,1,70,2|8,3:2|3:2,0:0:0:0:
463,196,62407,1,0,0:0:0:0:
241,176,62550,6,0,P|218:237|263:311,1,140,6|8,3:2|3:2,0:0:0:0:
343,347,62978,1,0,0:0:0:0:
299,236,63121,2,0,P|319:201|320:157,1,70,0|0,0:0|0:0,0:0:0:0:
240,32,63407,2,0,P|233:72|246:106,1,70,8|0,3:2|0:0,0:0:0:0:
334,102,63693,5,2,3:2:0:0:
241,176,63835,1,0,0:0:0:0:
240,32,63978,1,8,3:2:0:0:
395,47,64121,1,0,0:0:0:0:
241,176,64264,2,0,L|158:177,1,70,0|0,0:0|0:0,0:0:0:0:
101,97,64550,2,0,L|184:96,1,70,8|0,3:2|0:0,0:0:0:0:
276,93,64835,5,6,3:2:0:0:
373,132,64978,1,0,0:0:0:0:
452,63,65121,1,0,0:0:0:0:
276,93,65264,5,2,3:2:0:0:
272,198,65407,1,0,0:0:0:0:
352,265,65550,1,0,0:0:0:0:
276,93,65693,2,0,P|243:106|205:97,1,70,2|0,3:2|0:0,0:0:0:0:
119,46,65978,5,6,3:2:0:0:
236,23,66121,1,0,0:0:0:0:
221,177,66264,1,2,3:2:0:0:
118,155,66407,1,0,0:0:0:0:
236,23,66550,1,2,3:2:0:0:
338,44,66693,1,0,0:0:0:0:
233,187,66835,6,0,P|244:232|228:281,1,78.7500030040742,2|0,3:2|0:0,0:0:0:0:
214,290,67121,5,6,3:2:0:0:
167,229,67264,2,0,L|97:203,1,70,2|8,3:2|3:2,0:0:0:0:
68,379,67550,5,2,3:2:0:0:
148,377,67693,2,0,L|240:375,1,70,2|0,3:2|0:0,0:0:0:0:
264,281,67978,1,8,3:2:0:0:
68,379,68121,6,0,P|34:325|55:245,1,140,0|0,0:0|0:0,0:0:0:0:
142,302,68550,1,8,3:2:0:0:
207,219,68693,1,0,0:0:0:0:
48,253,68835,2,0,L|42:167,1,70,0|0,0:0|0:0,0:0:0:0:
142,302,69121,2,0,L|140:377,1,70,8|0,3:2|0:0,0:0:0:0:
42,332,69407,5,2,3:2:0:0:
228,297,69550,2,0,P|222:256|193:227,1,70,2|8,3:2|3:2,0:0:0:0:
103,206,69835,1,0,0:0:0:0:
142,302,69978,1,0,0:0:0:0:
194,147,70121,1,0,0:0:0:0:
46,215,70264,1,8,3:2:0:0:
204,234,70407,6,0,L|280:225,1,70,0|2,3:2|3:2,0:0:0:0:
323,132,70693,2,0,L|241:119,1,70,2|8,3:2|3:2,0:0:0:0:
227,303,70978,6,0,L|316:293,1,70,2|0,3:2|0:0,0:0:0:0:
339,62,71264,2,0,L|266:50,1,70,2|8,3:2|3:2,0:0:0:0:
165,33,71550,1,0,0:0:0:0:
322,147,71693,6,0,P|391:138|429:77,1,140,6|8,3:2|3:2,0:0:0:0:
354,8,72121,1,0,0:0:0:0:
240,122,72264,2,0,P|233:160|255:205,1,70,0|0,0:0|0:0,0:0:0:0:
319,262,72550,1,8,3:2:0:0:
374,173,72693,1,0,0:0:0:0:
275,40,72835,6,0,L|181:32,1,70,2|0,3:2|0:0,0:0:0:0:
99,40,73121,1,8,3:2:0:0:
156,128,73264,1,0,0:0:0:0:
205,35,73407,1,0,0:0:0:0:
51,43,73550,1,0,0:0:0:0:
120,201,73693,2,0,L|200:197,1,70,8|0,3:2|0:0,0:0:0:0:
277,255,73978,5,6,3:2:0:0:
368,307,74121,1,0,0:0:0:0:
439,230,74264,1,8,3:2:0:0:
500,145,74407,1,2,3:2:0:0:
355,99,74550,5,2,3:2:0:0:
362,203,74693,1,2,3:2:0:0:
368,307,74835,1,8,3:2:0:0:
241,137,74978,6,0,P|229:64|275:5,1,140,0|0,0:0|0:0,0:0:0:0:
241,137,75407,2,0,L|94:148,1,140,8|2,3:2|3:2,0:0:0:0:
63,245,75835,1,2,3:2:0:0:
72,349,75978,1,2,3:2:0:0:
168,383,76121,1,2,3:2:0:0:
273,379,76264,6,0,P|314:344|316:251,1,140,4|2,3:2|3:2,0:0:0:0:
219,291,76693,1,0,0:0:0:0:
390,227,76835,2,0,P|394:148|394:147,1,70,2|0,3:2|0:0,0:0:0:0:
298,110,77121,2,0,L|288:28,1,70,2|0,3:2|0:0,0:0:0:0:
214,114,77407,5,4,0:0:0:0:
214,114,77693,2,0,P|222:157|255:185,1,70,2|2,3:2|3:2,0:0:0:0:
342,192,77978,2,0,P|381:185|404:156,1,70,0|0,0:0|0:0,0:0:0:0:
444,67,78264,1,2,3:2:0:0:
494,159,78407,1,0,0:0:0:0:
444,67,78550,6,0,L|354:68,1,70,4|0,0:0|0:0,0:0:0:0:
275,104,78835,2,0,L|189:107,1,70,0|0,0:0|0:0,0:0:0:0:
100,121,79121,1,0,0:0:0:0:
100,121,79407,1,2,3:2:0:0:
100,121,79478,1,0,0:0:0:0:
100,121,79550,1,0,0:0:0:0:
130,221,79693,6,0,P|130:270|144:297,1,70,4|0,0:0|0:0,0:0:0:0:
227,344,79978,2,0,P|234:296|222:263,1,70,2|0,3:2|0:0,0:0:0:0:
224,170,80264,1,2,3:2:0:0:
328,143,80407,1,0,0:0:0:0:
174,67,80550,1,2,3:2:0:0:
130,221,80693,1,0,0:0:0:0:
290,292,80835,6,0,L|313:202,1,70,4|0,3:2|0:0,0:0:0:0:
141,365,81121,2,0,L|134:277,1,70,2|0,3:2|0:0,0:0:0:0:
121,190,81407,1,2,3:2:0:0:
225,175,81550,1,0,0:0:0:0:
392,273,81693,1,2,3:2:0:0:
290,292,81835,1,0,0:0:0:0:
427,176,81978,5,4,3:2:0:0:
442,72,82121,1,0,0:0:0:0:
353,211,82264,1,2,3:2:0:0:
380,312,82407,1,0,0:0:0:0:
295,150,82550,5,2,3:2:0:0:
310,46,82693,1,0,0:0:0:0:
250,246,82835,1,2,3:2:0:0:
277,347,82978,1,0,0:0:0:0:
139,315,83121,5,4,3:2:0:0:
139,315,83264,1,4,0:0:0:0:
255,80,83550,1,4,3:2:0:0:
255,80,83693,1,4,0:0:0:0:
390,309,83978,1,4,3:2:0:0:
390,309,84121,1,4,0:0:0:0:
256,192,85407,12,0,88835,0:0:0:0:
256,192,89407,5,2,3:2:0:0:
256,192,89550,1,2,3:2:0:0:
256,192,89693,1,2,3:2:0:0:
