osu file format v14

[General]
AudioFilename: audio.mp3
AudioLeadIn: 0
PreviewTime: 57693
Countdown: 0
SampleSet: None
StackLeniency: 0.7
Mode: 0
LetterboxInBreaks: 0
WidescreenStoryboard: 1

[Editor]
Bookmarks: 19407,89407
DistanceSpacing: 1
BeatDivisor: 4
GridSize: 4
TimelineZoom: 2

[Metadata]
Title:Uncontrollable (TV Size)
TitleUnicode:Uncontrollable (TV Size)
Artist:Ito Kanako
ArtistUnicode:いとうかなこ
Creator:Emonal
Version:Easy
Source:CHAOS;CHILD
Tags:Inversal Tomoka Rin Nifty rui opening op tv size 5pb. 科学アドベンチャーシリーズ science adventure series 妄想科学adv mousou kagaku adv
BeatmapID:1235156
BeatmapSetID:572908

[Difficulty]
HPDrainRate:2
CircleSize:2.8
OverallDifficulty:2
ApproachRate:3.2
SliderMultiplier:0.799999999999999
SliderTickRate:1

[Events]
//Background and Video events
0,0,"BG.jpg",0,0
//Break Periods
2,10178,17681
//Storyboard Layer 0 (Background)
//Storyboard Layer 1 (Fail)
//Storyboard Layer 2 (Pass)
//Storyboard Layer 3 (Foreground)
//Storyboard Sound Samples

[TimingPoints]
-307,285.714285714286,4,3,0,60,1,0
57693,-100,4,3,0,80,0,1
66835,-100,4,3,0,80,0,0
67121,-100,4,3,0,80,0,1
75693,-100,4,3,0,80,0,0

[Colours]
Combo1 : 118,183,231
Combo2 : 255,53,104
Combo3 : 177,150,207

[HitObjects]
256,188,264,5,0,0:0:0:0:
220,344,835,2,0,P|140:352|112:280,1,160,4|0,0:0|0:0,0:0:0:0:
160,136,1978,2,0,L|336:128,1,160,4|0,0:0|0:0,0:0:0:0:
428,244,3121,2,0,B|360:272|360:272|272:252,1,160,4|0,0:0|0:0,0:0:0:0:
180,124,4264,2,0,B|248:92|248:92|348:112,1,160,4|0,0:0|0:0,0:0:0:0:
256,192,5407,12,0,9978,0:0:0:0:
256,96,19121,6,0,P|220:88|160:100,1,79.9999999999999,4|0,0:0|0:0,0:0:0:0:
73,214,19978,2,0,P|77:278|165:314,1,160,2|0,0:0|0:0,0:0:0:0:
316,328,21121,1,0,0:0:0:0:
372,272,21407,6,0,L|396:192,1,79.9999999999999,4|0,0:0|0:0,0:0:0:0:
264,104,22264,2,0,P|228:60|120:72,2,160,2|0|0,0:0|0:0|0:0,0:0:0:0:
355,250,23693,6,0,L|361:345,1,79.9999999999999,4|0,0:0|0:0,0:0:0:0:
200,320,24550,2,0,P|189:235|248:165,1,160,2|0,0:0|0:0,0:0:0:0:
300,140,25407,2,0,P|341:134|390:153,1,79.9999999999999
402,221,25978,6,0,B|362:328|362:328|232:296,1,240,4|0,0:0|0:0,0:0:0:0:
168,262,27121,2,4,L|48:274,2,120
247,258,28264,5,0,0:0:0:0:
326,249,28550,2,0,P|397:236|411:149,1,160,8|0,0:0|0:0,0:0:0:0:
392,82,29407,2,0,P|319:54|241:90,1,160
130,193,30550,5,0,0:0:0:0:
191,244,30835,2,0,P|269:270|336:227,1,160,8|0,0:0|0:0,0:0:0:0:
389,177,31693,2,0,L|389:17,1,160
231,42,32835,5,0,0:0:0:0:
263,118,33121,2,0,P|213:123|150:33,1,160,8|0,0:0|0:0,0:0:0:0:
69,53,33978,2,0,L|86:224,1,160
234,268,35121,6,0,B|282:272|282:272|318:308|318:308|382:312,2,160,4|0|0,0:0|0:0|0:0,0:0:0:0:
73,359,36835,2,0,L|166:363,1,79.9999999999999
233,366,37407,6,0,B|258:315|337:305|337:305|315:244|366:196,1,240,4|0,0:0|0:0,0:0:0:0:
266,71,38835,2,0,L|171:75,1,79.9999999999999,2|0,0:0|0:0,0:0:0:0:
85,199,39693,6,0,B|50:270|50:270|210:339,1,240,4|0,0:0|0:0,0:0:0:0:
355,357,41121,2,0,L|383:274,1,79.9999999999999,2|0,0:0|0:0,0:0:0:0:
317,134,41978,6,0,P|264:91|216:214,1,240,4|0,0:0|0:0,0:0:0:0:
265,353,43407,2,0,L|179:355,1,79.9999999999999,2|0,0:0|0:0,0:0:0:0:
63,250,44264,6,0,B|59:210|19:187|19:187|54:24,1,240,4|0,0:0|0:0,0:0:0:0:
288,71,45978,2,0,L|369:63,1,79.9999999999999,2|0,0:0|0:0,0:0:0:0:
425,118,46550,6,0,P|454:184|429:271,1,160,4|0,0:0|0:0,0:0:0:0:
299,355,47693,1,0,0:0:0:0:
222,330,47978,2,0,P|175:274|199:181,1,160
266,211,48835,6,0,P|253:139|170:116,1,160,4|0,0:0|0:0,0:0:0:0:
39,195,49978,2,0,L|51:372,1,160,4|0,0:0|0:0,0:0:0:0:
209,352,51121,6,0,P|309:250|210:142,1,320,4|0,0:0|0:0,0:0:0:0:
128,137,52550,2,0,L|125:49,2,79.9999999999999
256,192,53407,12,0,56121,0:0:0:0:
240,196,57693,5,0,0:0:0:0:
313,163,57978,6,0,P|338:116|327:41,2,120,4|0|0,0:0|0:0|0:0,0:0:0:0:
275,233,59121,2,0,P|213:264|118:229,1,160
79,177,59978,1,0,0:0:0:0:
115,105,60264,6,0,P|132:68|175:39,1,79.9999999999999,4|0,0:0|0:0,0:0:0:0:
240,62,60835,2,0,P|273:74|331:57,1,79.9999999999999
344,141,61407,2,0,L|326:230,2,79.9999999999999
419,114,62264,1,0,0:0:0:0:
369,51,62550,6,0,L|287:69,1,79.9999999999999,4|0,0:0|0:0,0:0:0:0:
230,121,63121,2,0,P|153:126|108:53,2,160
275,187,64550,1,0,0:0:0:0:
312,257,64835,6,0,L|437:270,2,120,4|4|4,0:0|0:0|0:0,0:0:0:0:
239,292,65978,2,0,P|186:315|89:270,1,160
57,208,66835,1,0,0:0:0:0:
64,128,67121,6,0,P|93:85|166:54,2,120,4|0|0,0:0|0:0|0:0,0:0:0:0:
57,208,68264,2,0,P|59:264|142:341,1,160
207,343,69121,1,0,0:0:0:0:
270,294,69407,6,0,P|277:250|263:213,1,79.9999999999999,4|0,0:0|0:0,0:0:0:0:
190,190,69978,2,0,P|150:150|164:50,2,160
221,264,71407,1,0,0:0:0:0:
279,318,71693,6,0,L|370:307,1,79.9999999999999,4|0,0:0|0:0,0:0:0:0:
437,294,72264,2,0,L|442:125,2,160
358,274,73693,1,0,0:0:0:0:
278,262,73978,2,0,B|173:223|173:223|66:293,1,240,4|0,0:0|0:0,0:0:0:0:
28,222,75121,6,0,P|9:173|38:61,1,160
190,84,76264,6,0,L|276:76,1,79.9999999999999,4|0,0:0|0:0,0:0:0:0:
300,150,76835,2,0,P|348:95|326:18,2,160
151,209,78550,6,0,P|123:269|171:353,1,160,4|0,0:0|0:0,0:0:0:0:
235,314,79407,1,0,0:0:0:0:
307,348,79693,2,0,P|338:287|307:198,1,160
203,86,80835,6,0,L|109:81,2,79.9999999999999,4|4|0,0:0|0:0|0:0,0:0:0:0:
242,156,81693,1,0,0:0:0:0:
185,211,81978,2,0,P|142:207|74:302,1,160
231,308,83121,6,0,P|311:339|391:302,1,160,4|0,0:0|0:0,0:0:0:0:
432,257,83978,1,0,0:0:0:0:
451,179,84264,2,0,L|442:15,1,160
314,116,85407,5,4,0:0:0:0:
256,192,85550,12,0,89693,0:0:0:0:
