osu file format v14

[General]
AudioFilename: audio.mp3
AudioLeadIn: 0
PreviewTime: 58310
Countdown: 0
SampleSet: Soft
StackLeniency: 0.4
Mode: 0
LetterboxInBreaks: 0
WidescreenStoryboard: 1

[Editor]
DistanceSpacing: 0.9
BeatDivisor: 4
GridSize: 16
TimelineZoom: 3.499998

[Metadata]
Title:Uncontrollable (TV Size)
TitleUnicode:Uncontrollable (TV Size)
Artist:Ito Kanako
ArtistUnicode:いとうかなこ
Creator:CCleanerShot
Version:small head
Source:CHAOS;CHILD
Tags:itou head op opening djulus mirash testo silky kanau mamayu fuyuyu- testo nextplay My Angel Kanan komore
BeatmapID:1980756
BeatmapSetID:947034

[Difficulty]
HPDrainRate:4.8
CircleSize:5.2
OverallDifficulty:8.6
ApproachRate:9.3
SliderMultiplier:1.8
SliderTickRate:1

[Events]
//Background and Video events
0,0,"Stick_figure.png",0,0
//Break Periods
//Storyboard Layer 0 (Background)
//Storyboard Layer 1 (Fail)
//Storyboard Layer 2 (Pass)
//Storyboard Layer 3 (Foreground)
//Storyboard Sound Samples

[TimingPoints]
1453,285.714285714286,4,2,1,45,1,0
1453,-133.333333333333,4,2,1,45,0,0
8310,-133.333333333333,4,2,1,55,0,0
8667,-133.333333333333,4,2,1,5,0,0
8738,-133.333333333333,4,2,1,55,0,0
9095,-133.333333333333,4,2,1,5,0,0
9167,-133.333333333333,4,2,1,55,0,0
9381,-133.333333333333,4,2,1,5,0,0
9453,-133.333333333333,4,2,1,55,0,0
10310,-100,4,2,1,55,0,0
10524,-100,4,2,1,15,0,0
10595,-111.111111111111,4,2,1,65,0,0
14774,-100,4,2,1,15,0,0
14881,-100,4,2,1,65,0,0
14917,-100,4,2,1,15,0,0
15024,-100,4,2,1,65,0,0
15060,-100,4,2,1,15,0,0
15167,-100,4,2,1,65,0,0
19310,-100,4,2,1,35,0,0
19381,-100,4,2,1,15,0,0
19453,-100,4,2,1,35,0,0
19667,-100,4,2,1,15,0,0
19738,-133.333333333333,4,2,1,45,0,0
27667,-133.333333333333,4,2,1,15,0,0
27738,-133.333333333333,4,2,1,50,0,0
28595,-111.111111111111,4,2,1,50,0,0
28810,-111.111111111111,4,2,1,15,0,0
28881,-111.111111111111,4,2,1,55,0,0
29381,-111.111111111111,4,2,1,5,0,0
29453,-111.111111111111,4,2,1,55,0,0
35667,-111.111111111111,4,2,1,5,0,0
35738,-111.111111111111,4,2,1,55,0,0
38024,-133.333333333333,4,2,1,50,0,0
40524,-133.333333333333,4,2,1,5,0,0
40595,-133.333333333333,4,2,1,50,0,0
45095,-133.333333333333,4,2,1,5,0,0
45167,-133.333333333333,4,2,1,50,0,0
46095,-133.333333333333,4,2,1,5,0,0
46167,-133.333333333333,4,2,1,50,0,0
47095,-133.333333333333,4,2,1,5,0,0
47167,-111.111111111111,4,2,1,55,0,0
51738,-100,4,2,1,65,0,0
54024,-100,4,2,1,70,0,0
56238,-100,4,2,1,15,0,0
56310,-100,4,2,1,75,0,0
57524,-100,4,2,1,15,0,0
57595,-133.333333333333,4,2,1,75,0,0
58024,-133.333333333333,4,2,1,5,0,0
58095,-133.333333333333,4,2,1,75,0,0
58310,-133.333333333333,4,2,1,40,0,0
58524,-500,4,2,1,5,0,0
58595,-100,4,2,1,75,0,0
60238,-100,4,2,1,5,0,0
60310,-100,4,2,1,75,0,0
76238,-100,4,2,1,15,0,0
76310,-100,4,2,1,75,0,0
76345,-100,4,2,1,15,0,0
76453,-100,4,2,1,75,0,0
76453,-100,4,2,1,75,0,0
76488,-100,4,2,1,100,0,0
76595,-100,4,2,1,75,0,0
76631,-100,4,2,1,15,0,0
76738,-100,4,2,1,75,0,0
76774,-100,4,2,1,15,0,0
76881,-111.111111111111,4,2,1,60,0,0
81453,-111.111111111111,4,2,1,70,0,0

[Colours]
Combo1 : 187,175,228
Combo2 : 255,166,166
Combo3 : 202,234,170
Combo4 : 249,164,234

[HitObjects]
158,172,1453,5,8,0:0:0:0:
158,172,1595,2,0,P|235:180|243:171,1,67.5000025749208,8|0,0:0|0:0,0:0:0:0:
307,126,2024,1,8,0:3:0:0:
307,99,2096,1,8,0:3:0:0:
330,112,2167,1,8,0:3:0:0:
181,76,2310,2,0,P|121:94|100:88,1,67.5000025749208,8|0,0:0|0:0,0:0:0:0:
104,206,2595,5,8,0:0:0:0:
192,157,2738,1,0,0:0:0:0:
285,196,2881,1,0,0:0:0:0:
182,200,3024,5,8,0:0:0:0:
270,151,3167,1,0,0:0:0:0:
363,190,3310,1,0,0:0:0:0:
374,160,3453,5,8,0:0:0:0:
374,160,3596,1,0,0:0:0:0:
479,205,3738,1,8,0:0:0:0:
479,205,3810,1,8,0:0:0:0:
479,205,3881,2,0,P|472:247|491:277,1,67.5000025749208,8|0,0:0|0:0,0:0:0:0:
344,302,4167,6,0,P|319:254|326:223,1,67.5000025749208
230,277,4453,5,0,0:0:0:0:
237,203,4595,1,0,0:0:0:0:
305,175,4738,1,0,0:0:0:0:
64,155,4881,5,8,0:0:0:0:
64,155,5024,2,0,P|124:113|143:104,1,67.5000025749208,8|0,0:0|0:0,0:0:0:0:
196,186,5310,6,0,L|160:240,2,33.7500012874604
282,129,5595,5,8,0:0:0:0:
282,129,5738,2,0,P|316:173|350:189,1,67.5000025749208,8|0,0:0|0:0,0:0:0:0:
222,295,6024,5,8,0:0:0:0:
296,292,6167,1,0,0:0:0:0:
299,217,6310,1,0,0:0:0:0:
173,186,6453,5,8,0:0:0:0:
164,112,6595,1,0,0:0:0:0:
238,106,6738,1,0,0:0:0:0:
149,168,6881,5,8,0:0:0:0:
201,220,7024,1,0,0:0:0:0:
258,266,7167,1,0,0:0:0:0:
301,175,7310,5,8,0:0:0:0:
254,202,7453,1,8,0:0:0:0:
346,145,7595,5,8,0:0:0:0:
210,228,7738,1,8,0:0:0:0:
383,116,7881,5,8,0:0:0:0:
171,268,8024,1,8,0:0:0:0:
171,268,8167,1,8,0:0:0:0:
278,169,8310,5,10,0:3:0:0:
278,219,8381,1,2,0:3:0:0:
234,194,8453,1,2,0:3:0:0:
148,152,8667,5,10,0:3:0:0:
148,101,8738,1,2,0:3:0:0:
191,126,8810,1,2,0:3:0:0:
344,258,9095,5,10,0:3:0:0:
371,215,9167,1,2,0:3:0:0:
394,260,9238,1,2,0:3:0:0:
195,285,9453,5,2,0:0:0:0:
165,224,9595,1,2,0:0:0:0:
185,136,9738,5,2,0:0:0:0:
222,192,9881,1,2,0:0:0:0:
320,221,10024,5,2,0:0:0:0:
278,167,10167,1,2,0:0:0:0:
232,270,10310,6,0,L|249:312,2,45
72,231,10595,5,8,0:0:0:0:
152,239,10738,1,0,0:0:0:0:
213,186,10881,1,0,0:0:0:0:
255,117,11024,1,0,0:0:0:0:
335,129,11167,1,0,0:0:0:0:
350,208,11310,1,0,0:0:0:0:
430,144,11453,5,0,0:0:0:0:
430,144,11595,1,0,0:0:0:0:
435,285,11738,5,8,0:0:0:0:
347,266,11881,1,0,0:0:0:0:
303,187,12024,1,0,0:0:0:0:
392,216,12167,5,0,0:0:0:0:
345,140,12310,1,0,0:0:0:0:
266,98,12453,1,0,0:0:0:0:
164,130,12595,5,0,0:0:0:0:
164,130,12738,1,0,0:0:0:0:
95,225,12881,5,8,0:0:0:0:
183,217,13024,1,0,0:0:0:0:
254,163,13167,1,0,0:0:0:0:
287,80,13310,1,0,0:0:0:0:
351,148,13453,5,0,0:0:0:0:
324,204,13595,1,0,0:0:0:0:
373,83,13738,5,0,0:0:0:0:
295,274,13881,1,0,0:0:0:0:
292,28,14024,5,8,0:0:0:0:
251,32,14167,1,0,0:0:0:0:
270,100,14310,1,0,0:0:0:0:
310,94,14453,1,0,0:0:0:0:
330,166,14595,1,0,0:0:0:0:
291,176,14738,1,0,0:0:0:0:
156,209,14881,5,0,0:0:0:0:
156,209,15024,1,0,0:0:0:0:
189,147,15167,5,8,0:0:0:0:
245,217,15310,1,0,0:0:0:0:
207,138,15453,5,0,0:0:0:0:
226,225,15596,1,0,0:0:0:0:
225,138,15738,5,0,0:0:0:0:
208,225,15881,1,0,0:0:0:0:
240,64,16024,5,0,0:0:0:0:
250,307,16167,1,0,0:0:0:0:
477,278,16310,5,8,0:0:0:0:
436,358,16453,1,0,0:0:0:0:
501,312,16595,5,0,0:0:0:0:
411,323,16738,1,0,0:0:0:0:
482,354,16881,5,0,0:0:0:0:
430,281,17024,1,0,0:0:0:0:
266,132,17167,5,0,0:0:0:0:
353,281,17310,1,0,0:0:0:0:
196,242,17453,5,8,0:3:0:0:
196,242,17524,1,8,0:3:0:0:
196,242,17595,1,8,0:3:0:0:
191,152,17738,5,8,0:0:0:0:
274,186,17881,1,8,0:0:0:0:
396,237,18024,5,8,0:3:0:0:
396,237,18095,1,8,0:3:0:0:
396,237,18167,1,8,0:3:0:0:
426,147,18310,5,8,0:0:0:0:
336,155,18453,1,8,0:0:0:0:
263,207,18595,5,8,0:3:0:0:
263,207,18667,1,8,0:3:0:0:
263,207,18738,1,8,0:3:0:0:
290,106,18881,5,8,0:0:0:0:
290,106,19024,1,8,0:0:0:0:
290,106,19310,2,0,B|286:208|469:155|316:258|410:263,1,180
460,214,19738,5,8,0:0:0:0:
460,214,19881,1,8,0:0:0:0:
479,330,20024,5,0,0:0:0:0:
479,330,20167,2,0,P|424:325|406:290,1,67.5000025749208
412,308,20453,5,0,0:0:0:0:
183,71,20595,5,8,0:0:0:0:
276,248,20738,1,8,0:0:0:0:
271,339,20881,5,0,0:0:0:0:
271,339,21024,2,0,P|326:358|361:347,1,67.5000025749208
367,220,21310,2,0,P|404:263|432:355,1,135.000005149842
272,293,21738,5,0,0:0:0:0:
339,298,21881,1,0,0:0:0:0:
240,56,22024,5,8,0:0:0:0:
181,254,22167,1,8,0:0:0:0:
181,254,22310,2,0,P|149:295|106:307,1,67.5000025749208
73,261,22595,6,0,L|29:248,1,33.7500012874604
79,196,22738,2,0,L|109:167,1,33.7500012874604
123,143,22881,5,8,0:0:0:0:
123,143,23024,1,8,0:0:0:0:
51,109,23167,1,0,0:0:0:0:
51,109,23238,1,0,0:0:0:0:
51,109,23310,2,0,P|95:79|131:74,1,67.5000025749208
176,196,23595,2,0,P|197:135|189:107,1,67.5000025749208
196,116,23810,1,0,0:0:0:0:
196,116,23881,1,0,0:0:0:0:
246,60,24024,5,0,0:0:0:0:
313,60,24167,1,0,0:0:0:0:
117,175,24310,5,8,0:0:0:0:
362,175,24453,1,8,0:0:0:0:
295,173,24595,5,0,0:0:0:0:
437,174,24738,1,0,0:0:0:0:
295,173,24881,5,0,0:0:0:0:
437,174,25024,1,0,0:0:0:0:
485,113,25167,2,0,P|509:166|506:201,1,67.5000025749208
412,240,25453,5,0,0:0:0:0:
421,265,25524,1,0,0:0:0:0:
444,251,25595,1,0,0:0:0:0:
321,200,25738,5,0,0:0:0:0:
321,200,25881,1,0,0:0:0:0:
321,200,26024,2,0,P|360:154|388:149,1,67.5000025749208
432,177,26310,2,0,P|437:134|414:97,1,67.5000025749208
180,65,26595,5,8,0:0:0:0:
294,275,26738,1,8,0:0:0:0:
263,167,26881,5,8,0:3:0:0:
307,143,26952,1,8,0:3:0:0:
305,193,27024,1,8,0:3:0:0:
304,289,27167,5,0,0:0:0:0:
256,321,27310,1,0,0:0:0:0:
225,272,27453,1,0,0:0:0:0:
272,240,27595,1,0,0:0:0:0:
192,176,27738,5,8,0:3:0:0:
192,226,27810,1,8,0:3:0:0:
148,201,27881,1,8,0:3:0:0:
256,192,28024,1,0,0:0:0:0:
320,176,28167,5,8,0:3:0:0:
320,226,28239,1,8,0:3:0:0:
364,201,28310,1,8,0:3:0:0:
256,192,28453,5,0,0:0:0:0:
246,293,28595,5,0,0:1:0:0:
246,256,28667,1,0,0:1:0:0:
277,274,28738,1,0,0:1:0:0:
241,307,28810,1,0,0:1:0:0:
241,246,28881,1,0,0:1:0:0:
293,276,28953,1,0,0:1:0:0:
378,192,29167,5,8,0:0:0:0:
378,192,29310,2,0,P|328:165|282:144,1,80.9999975280763,8|2,0:0|0:0,0:0:0:0:
284,143,29524,1,2,0:0:0:0:
284,143,29595,1,2,0:0:0:0:
221,226,29738,5,8,0:3:0:0:
221,226,29810,1,8,0:3:0:0:
221,226,29881,2,0,P|269:236|314:227,1,80.9999975280763,8|0,0:0|0:0,0:0:0:0:
378,153,30167,5,0,0:0:0:0:
378,153,30310,2,8,P|321:149|287:114,1,80.9999975280763
256,32,30595,5,8,2:0:0:0:
257,137,30738,1,8,2:0:0:0:
256,242,30881,1,8,2:0:0:0:
256,347,31024,1,8,2:0:0:0:
353,303,31167,5,8,0:0:0:0:
353,303,31310,2,0,P|357:258|387:225,1,80.9999975280763,8|0,0:0|0:0,0:0:0:0:
453,259,31595,2,0,P|437:189|414:168,1,80.9999975280763
348,160,31881,2,0,L|298:167,2,40.4999987640381
398,99,32167,5,0,0:0:0:0:
398,99,32238,1,0,0:0:0:0:
398,99,32310,1,0,0:0:0:0:
294,83,32453,5,0,0:0:0:0:
294,83,32595,2,8,P|248:113|226:144,1,80.9999975280763
316,225,32881,2,0,P|239:236|210:223,1,80.9999975280763
184,206,33095,1,0,0:0:0:0:
165,147,33167,2,0,P|141:90|95:82,1,80.9999975280763
114,317,33453,5,8,0:0:0:0:
114,317,33595,2,0,P|187:288|192:268,2,80.9999975280763,8|0|0,0:0|0:0|0:0,0:0:0:0:
98,299,33953,1,0,0:0:0:0:
98,299,34024,1,0,0:0:0:0:
91,173,34167,5,8,0:0:0:0:
178,191,34310,1,0,0:0:0:0:
259,154,34453,1,0,0:0:0:0:
231,234,34595,5,8,0:0:0:0:
309,192,34738,1,0,0:0:0:0:
327,104,34881,1,0,0:0:0:0:
339,250,35024,5,8,0:0:0:0:
384,173,35167,1,0,0:0:0:0:
384,83,35310,1,0,0:0:0:0:
208,141,35453,5,8,0:0:0:0:
208,141,35595,1,8,0:0:0:0:
285,166,35738,5,8,0:0:0:0:
285,166,35881,1,8,0:0:0:0:
224,220,36024,5,8,0:0:0:0:
224,220,36167,1,8,0:0:0:0:
208,141,36310,5,8,0:0:0:0:
285,166,36453,1,8,0:0:0:0:
224,220,36595,1,8,0:0:0:0:
208,141,36738,5,8,0:3:0:0:
285,166,36810,1,8,0:3:0:0:
224,220,36881,1,8,0:3:0:0:
232,173,36953,5,8,0:3:0:0:
245,232,37025,1,8,0:3:0:0:
187,213,37096,1,8,0:3:0:0:
219,210,37167,5,8,0:3:0:0:
225,238,37239,1,8,0:3:0:0:
198,231,37310,1,8,0:3:0:0:
100,160,37453,5,0,0:0:0:0:
100,160,37595,1,0,0:0:0:0:
190,114,38024,6,0,B|251:78|226:184|324:130,2,135.000005149842
343,84,38881,5,8,0:0:0:0:
261,254,39024,1,8,0:0:0:0:
342,140,39738,6,0,B|376:201|271:174|323:273,1,135.000005149842
110,100,40310,5,8,0:0:0:0:
286,208,40453,1,8,0:0:0:0:
304,224,40595,1,0,0:0:0:0:
320,240,40738,1,0,0:0:0:0:
336,256,40881,1,0,0:0:0:0:
352,272,41024,1,0,0:0:0:0:
365,77,41167,5,8,0:0:0:0:
213,248,41310,1,8,0:0:0:0:
149,175,41453,6,0,L|98:181,2,33.7500012874604
210,97,41738,5,0,0:0:0:0:
253,148,41881,1,0,0:0:0:0:
336,137,42024,5,0,0:0:0:0:
289,88,42167,1,0,0:0:0:0:
298,11,42310,5,0,0:0:0:0:
350,53,42453,1,0,0:0:0:0:
163,56,42595,5,8,0:0:0:0:
425,80,42738,1,8,0:0:0:0:
386,135,42881,1,0,0:0:0:0:
452,147,43024,1,0,0:0:0:0:
394,210,43167,6,0,L|427:243,2,33.7500012874604
142,98,43453,5,8,0:0:0:0:
324,278,43595,1,8,0:0:0:0:
192,128,43738,5,0,0:0:0:0:
320,128,43881,1,0,0:0:0:0:
320,256,44024,1,0,0:0:0:0:
192,256,44167,1,0,0:0:0:0:
192,128,44310,5,0,0:0:0:0:
192,256,44453,1,0,0:0:0:0:
320,256,44595,1,0,0:0:0:0:
320,128,44738,1,0,0:0:0:0:
280,37,44881,5,8,0:0:0:0:
266,260,45024,1,8,0:0:0:0:
202,336,45167,6,0,L|238:351,2,33.7500012874604
180,246,45453,5,0,0:0:0:0:
247,246,45595,1,0,0:0:0:0:
126,224,45738,5,8,0:0:0:0:
354,274,45881,1,8,0:0:0:0:
239,72,46024,5,8,0:0:0:0:
354,274,46167,1,8,0:0:0:0:
241,217,46310,5,8,0:3:0:0:
241,166,46381,1,8,0:3:0:0:
285,192,46453,1,8,0:3:0:0:
400,191,46595,1,8,0:0:0:0:
241,217,46738,5,8,0:3:0:0:
241,166,46809,1,8,0:3:0:0:
285,192,46881,1,8,0:3:0:0:
400,191,47024,1,0,0:0:0:0:
196,68,47167,5,0,0:0:0:0:
265,90,47310,1,0,0:0:0:0:
321,44,47453,1,0,0:0:0:0:
382,82,47595,1,0,0:0:0:0:
441,39,47738,1,0,0:0:0:0:
495,87,47881,1,0,0:0:0:0:
437,132,48024,1,0,0:0:0:0:
256,192,48167,5,8,0:3:0:0:
256,192,48238,1,8,0:3:0:0:
256,192,48310,1,8,0:3:0:0:
494,176,48453,5,0,0:0:0:0:
432,215,48595,1,0,0:0:0:0:
256,192,48738,5,8,0:3:0:0:
260,194,48810,1,8,0:3:0:0:
260,194,48881,1,8,0:3:0:0:
490,258,49024,5,0,0:0:0:0:
421,301,49167,1,0,0:0:0:0:
366,360,49310,1,0,0:0:0:0:
320,292,49453,1,0,0:0:0:0:
263,349,49595,1,0,0:0:0:0:
224,277,49738,1,0,0:0:0:0:
173,340,49881,5,0,0:0:0:0:
135,268,50024,1,0,0:0:0:0:
63,305,50167,1,0,0:0:0:0:
67,224,50309,1,0,0:0:0:0:
122,165,50452,1,0,0:0:0:0:
55,118,50596,1,0,0:0:0:0:
108,56,50739,1,0,0:0:0:0:
187,74,50882,1,0,0:0:0:0:
243,131,51024,1,0,0:0:0:0:
270,54,51167,1,0,0:0:0:0:
334,102,51309,1,0,0:0:0:0:
288,192,51738,5,0,0:0:0:0:
224,192,51881,1,0,0:0:0:0:
288,176,52024,5,0,0:0:0:0:
224,176,52167,1,0,0:0:0:0:
288,160,52311,5,0,0:0:0:0:
224,160,52453,1,0,0:0:0:0:
288,144,52595,5,0,0:0:0:0:
224,144,52738,1,0,0:0:0:0:
224,144,52810,1,0,0:0:0:0:
224,144,52881,1,0,0:0:0:0:
288,128,53024,5,0,0:0:0:0:
224,128,53167,1,0,0:0:0:0:
224,128,53310,1,0,0:0:0:0:
224,128,53381,1,0,0:0:0:0:
224,128,53452,1,0,0:0:0:0:
288,112,53595,5,0,0:0:0:0:
224,112,53738,1,0,0:0:0:0:
304,96,53881,5,0,0:0:0:0:
208,96,54024,1,0,0:0:0:0:
320,80,54167,5,0,0:0:0:0:
192,80,54310,1,0,0:0:0:0:
336,64,54452,5,0,0:0:0:0:
176,64,54595,1,0,0:0:0:0:
336,48,54738,5,0,0:0:0:0:
176,48,54881,1,0,0:0:0:0:
336,32,55024,5,0,0:0:0:0:
176,32,55167,1,0,0:0:0:0:
336,16,55310,5,0,0:0:0:0:
176,16,55453,1,0,0:0:0:0:
201,58,55595,5,8,0:3:0:0:
279,39,55667,1,8,0:3:0:0:
254,116,55738,1,8,0:3:0:0:
237,72,55810,5,8,0:3:0:0:
279,116,55882,1,8,0:3:0:0:
219,130,55953,1,8,0:3:0:0:
245,111,56024,5,8,0:3:0:0:
265,132,56096,1,8,0:3:0:0:
237,140,56167,1,8,0:3:0:0:
177,203,56310,5,2,0:0:0:0:
265,188,56453,1,2,0:0:0:0:
328,125,56595,1,2,0:0:0:0:
358,40,56738,1,2,0:0:0:0:
357,180,57024,5,0,0:0:0:0:
357,180,57310,1,0,0:0:0:0:
290,132,57595,5,8,0:0:0:0:
338,271,57738,1,8,0:0:0:0:
0,368,58310,5,8,0:0:0:0:
218,104,58595,5,8,0:0:0:0:
101,300,58738,1,8,0:0:0:0:
186,272,58881,1,8,0:3:0:0:
186,272,58953,1,8,0:3:0:0:
186,272,59024,1,8,0:0:0:0:
346,208,59167,5,8,0:0:0:0:
372,121,59310,1,0,0:0:0:0:
309,56,59453,1,0,0:0:0:0:
367,280,59595,5,0,0:0:0:0:
436,223,59738,1,0,0:0:0:0:
493,293,59881,1,0,0:0:0:0:
423,349,60024,1,0,0:0:0:0:
333,357,60167,1,0,0:0:0:0:
352,144,60310,5,8,0:3:0:0:
352,144,60381,1,8,0:3:0:0:
352,144,60453,1,8,0:3:0:0:
212,137,60595,5,0,0:0:0:0:
212,137,60738,1,0,0:0:0:0:
352,144,60881,5,8,0:3:0:0:
352,144,60952,1,8,0:3:0:0:
352,144,61024,1,8,0:3:0:0:
112,192,61167,5,0,0:0:0:0:
184,192,61310,1,0,0:0:0:0:
256,192,61453,1,0,0:0:0:0:
327,192,61595,1,0,0:0:0:0:
399,192,61738,1,0,0:0:0:0:
256,256,61881,5,8,0:3:0:0:
256,256,61953,1,8,0:3:0:0:
256,256,62024,1,8,0:3:0:0:
256,176,62167,5,0,0:0:0:0:
256,352,62310,1,0,0:0:0:0:
90,273,62453,5,0,0:0:0:0:
122,189,62595,1,0,0:0:0:0:
193,134,62738,1,0,0:0:0:0:
159,219,62881,5,0,0:0:0:0:
258,213,63025,1,8,0:3:0:0:
258,213,63096,1,8,0:3:0:0:
258,213,63167,1,8,0:3:0:0:
357,210,63310,1,0,0:0:0:0:
400,121,63453,1,0,0:0:0:0:
301,122,63595,1,0,0:0:0:0:
202,269,63738,5,0,0:0:0:0:
160,189,63881,1,0,0:0:0:0:
111,265,64024,1,0,0:0:0:0:
62,188,64167,1,0,0:0:0:0:
80,112,64309,5,8,0:0:0:0:
176,112,64452,1,0,0:0:0:0:
272,176,64595,5,8,0:0:0:0:
176,176,64738,1,0,0:0:0:0:
272,240,64880,5,8,0:0:0:0:
362,240,65023,1,0,0:0:0:0:
448,304,65166,5,8,0:0:0:0:
358,304,65308,1,0,0:0:0:0:
322,168,65452,5,8,0:0:0:0:
282,336,65595,1,8,0:3:0:0:
282,336,65666,1,8,0:3:0:0:
282,336,65737,1,8,0:3:0:0:
228,117,65881,5,8,0:0:0:0:
336,285,66024,1,8,0:3:0:0:
336,285,66095,1,8,0:3:0:0:
336,285,66166,1,8,0:3:0:0:
288,192,66310,5,8,0:0:0:0:
224,192,66453,1,8,0:0:0:0:
345,206,66595,5,8,0:0:0:0:
163,191,66738,1,8,0:0:0:0:
397,191,66881,5,8,0:0:0:0:
153,223,67024,1,8,0:0:0:0:
391,237,67167,5,8,0:0:0:0:
173,151,67310,1,8,0:0:0:0:
99,99,67453,5,2,0:0:0:0:
99,99,67595,1,2,0:0:0:0:
33,208,67738,5,0,0:0:0:0:
119,234,67881,1,0,0:0:0:0:
196,187,68024,1,0,0:0:0:0:
322,162,68167,5,0,0:0:0:0:
266,91,68310,1,0,0:0:0:0:
175,87,68453,1,0,0:0:0:0:
208,261,68595,5,0,0:0:0:0:
208,261,68738,1,0,0:0:0:0:
208,261,68881,1,0,0:0:0:0:
208,261,69024,1,0,0:0:0:0:
264,72,69167,5,0,0:0:0:0:
182,33,69310,1,0,0:0:0:0:
218,166,69453,1,0,0:0:0:0:
315,179,69595,1,0,0:0:0:0:
149,176,69738,5,0,0:0:0:0:
234,214,69881,1,8,0:3:0:0:
220,203,69953,1,8,0:3:0:0:
237,196,70024,1,8,0:3:0:0:
86,258,70167,5,0,0:0:0:0:
86,170,70310,1,0,0:0:0:0:
42,94,70453,1,0,0:0:0:0:
154,73,70595,5,0,0:0:0:0:
240,80,70738,1,0,0:0:0:0:
316,38,70881,1,0,0:0:0:0:
469,89,71024,5,0,0:0:0:0:
452,174,71167,1,0,0:0:0:0:
470,258,71310,1,0,0:0:0:0:
358,334,71453,5,0,0:0:0:0:
275,309,71595,1,0,0:0:0:0:
193,340,71738,1,8,0:3:0:0:
176,375,71810,1,8,0:3:0:0:
151,343,71881,1,8,0:3:0:0:
320,339,72024,5,0,0:0:0:0:
401,299,72167,1,0,0:0:0:0:
357,220,72310,1,8,0:3:0:0:
354,175,72381,1,8,0:3:0:0:
395,194,72453,1,8,0:3:0:0:
228,81,72595,5,0,0:0:0:0:
308,120,72738,1,0,0:0:0:0:
176,176,72881,5,0,0:0:0:0:
96,215,73024,1,0,0:0:0:0:
224,272,73167,5,0,0:0:0:0:
304,311,73310,1,0,0:0:0:0:
346,231,73453,1,0,0:0:0:0:
265,191,73595,1,0,0:0:0:0:
346,231,73738,5,0,0:0:0:0:
265,191,73881,1,0,0:0:0:0:
346,231,74024,5,0,0:0:0:0:
265,191,74167,1,0,0:0:0:0:
307,111,74310,1,8,0:3:0:0:
365,105,74381,1,8,0:3:0:0:
340,158,74453,1,8,0:3:0:0:
419,199,74595,1,0,0:0:0:0:
283,35,74738,5,0,0:0:0:0:
222,101,74881,1,0,0:0:0:0:
134,78,75024,1,0,0:0:0:0:
148,166,75167,5,0,0:0:0:0:
82,227,75310,1,0,0:0:0:0:
104,315,75453,1,0,0:0:0:0:
165,249,75595,5,0,0:0:0:0:
104,315,75738,1,0,0:0:0:0:
16,292,75881,1,0,0:0:0:0:
36,204,76024,5,0,0:0:0:0:
120,172,76167,1,0,0:0:0:0:
137,83,76310,1,0,0:0:0:0:
216,125,76453,5,8,0:3:0:0:
294,106,76524,1,8,0:3:0:0:
269,183,76596,1,8,0:3:0:0:
353,212,76738,1,0,0:0:0:0:
322,320,76881,5,8,0:0:0:0:
252,277,77024,1,0,0:0:0:0:
213,205,77167,1,0,0:0:0:0:
212,123,77310,1,0,0:0:0:0:
258,56,77453,1,0,0:0:0:0:
337,43,77595,1,0,0:0:0:0:
404,87,77738,1,0,0:0:0:0:
421,166,77881,1,0,0:0:0:0:
362,222,78024,5,8,0:0:0:0:
283,203,78167,1,0,0:0:0:0:
228,143,78310,1,0,0:0:0:0:
225,61,78453,1,0,0:0:0:0:
304,51,78595,1,0,0:0:0:0:
353,115,78738,1,0,0:0:0:0:
319,188,78881,1,0,0:0:0:0:
257,240,79024,1,0,0:0:0:0:
176,231,79167,5,8,0:0:0:0:
140,158,79310,1,0,0:0:0:0:
178,86,79453,1,0,0:0:0:0:
257,98,79595,1,0,0:0:0:0:
311,158,79738,1,0,0:0:0:0:
277,231,79881,1,0,0:0:0:0:
197,248,80024,1,0,0:0:0:0:
116,239,80167,1,0,0:0:0:0:
192,128,80310,5,8,0:0:0:0:
320,128,80453,1,0,0:0:0:0:
320,256,80595,1,0,0:0:0:0:
192,256,80738,1,0,0:0:0:0:
128,192,80881,5,8,0:0:0:0:
256,336,81024,1,0,0:0:0:0:
128,192,81167,5,8,0:0:0:0:
256,336,81310,1,0,0:0:0:0:
299,137,81453,5,8,0:0:0:0:
299,137,81595,1,8,0:0:0:0:
285,217,81738,5,8,0:0:0:0:
285,217,81881,1,8,0:0:0:0:
223,164,82024,5,8,0:0:0:0:
223,164,82167,1,8,0:0:0:0:
299,137,82310,5,8,0:0:0:0:
285,217,82453,1,8,0:0:0:0:
223,164,82595,1,8,0:0:0:0:
299,137,82738,5,8,0:3:0:0:
285,217,82810,1,8,0:3:0:0:
223,164,82881,1,8,0:3:0:0:
271,165,82953,5,8,0:3:0:0:
214,186,83025,1,8,0:3:0:0:
225,126,83096,1,8,0:3:0:0:
233,157,83167,5,8,0:3:0:0:
206,167,83239,1,8,0:3:0:0:
209,139,83310,1,8,0:3:0:0:
256,160,83453,5,0,0:0:0:0:
256,224,83595,1,0,0:0:0:0:
256,80,83738,5,0,0:0:0:0:
256,304,83881,1,0,0:0:0:0:
337,306,84024,1,0,0:0:0:0:
368,192,84167,5,0,0:0:0:0:
160,192,84310,1,0,0:0:0:0:
256,304,84595,5,0,0:0:0:0:
256,80,84738,1,0,0:0:0:0:
162,190,86024,5,0,0:0:0:0:
162,190,86596,1,0,0:0:0:0:
336,192,87167,1,0,0:0:0:0:
336,192,87738,1,0,0:0:0:0:
160,192,88310,1,0,0:0:0:0:
336,192,88881,1,0,0:0:0:0:
336,192,89453,1,0,0:0:0:0:
160,192,90024,5,0,0:0:0:0:
336,192,90167,1,0,0:0:0:0:
160,192,90310,5,0,0:0:0:0:
336,192,90453,1,0,0:0:0:0:
