osu file format v14

[General]
AudioFilename: audio.mp3
AudioLeadIn: 0
PreviewTime: 58310
Countdown: 0
SampleSet: None
StackLeniency: 1
Mode: 0
LetterboxInBreaks: 0
WidescreenStoryboard: 1

[Editor]
DistanceSpacing: 1.5
BeatDivisor: 4
GridSize: 16
TimelineZoom: 3.499998

[Metadata]
Title:Uncontrollable (TV Size)
TitleUnicode:Uncontrollable (TV Size)
Artist:Ito Kanako
ArtistUnicode:いとうかなこ
Creator:CCleanerShot
Version:2nd big head
Source:CHAOS;CHILD
Tags:itou head op opening djulus mirash testo silky kanau mamayu fuyuyu- testo nextplay My Angel Kanan komore
BeatmapID:2021549
BeatmapSetID:947034

[Difficulty]
HPDrainRate:5
CircleSize:5.9
OverallDifficulty:8.7
ApproachRate:9.6
SliderMultiplier:1.8
SliderTickRate:1

[Events]
//Background and Video events
0,0,"Stick_figure.png",0,0
//Break Periods
//Storyboard Layer 0 (Background)
//Storyboard Layer 1 (Fail)
//Storyboard Layer 2 (Pass)
//Storyboard Layer 3 (Foreground)
//Storyboard Sound Samples

[TimingPoints]
1453,285.714285714286,4,2,1,45,1,0
1453,-250,4,2,1,45,0,0
6310,-133.333333333333,4,2,1,45,0,0

[Colours]
Combo1 : 187,175,228
Combo2 : 255,166,166
Combo3 : 202,234,170
Combo4 : 249,164,234

[HitObjects]
360,93,1453,5,0,0:0:0:0:
394,150,1595,2,8,L|426:153,2,18,8|8|8,3:0|3:0|3:0,3:0:0:0:
102,103,1881,5,0,0:0:0:0:
69,161,2024,2,8,L|43:166,2,18,8|8|8,3:0|3:0|3:0,3:0:0:0:
142,171,2310,1,0,0:0:0:0:
142,171,2381,1,0,0:0:0:0:
142,171,2453,2,0,P|161:151|168:139,1,36
110,104,2738,2,0,L|110:134,1,18
75,127,2881,2,0,L|70:151,1,18
47,145,3024,2,0,L|43:166,1,18
132,271,3167,6,0,P|157:282|177:282,2,36
72,248,3595,2,8,L|46:246,2,18,8|8|8,3:0|3:0|3:0,3:0:0:0:
425,56,3881,5,0,0:0:0:0:
326,79,4024,1,0,0:0:0:0:
326,79,4167,2,0,P|341:110|352:114,2,36
413,108,4595,5,8,3:0:0:0:
413,108,4667,1,8,3:0:0:0:
413,108,4738,2,8,P|437:122|442:132,1,36,8|0,3:0|0:0,3:0:0:0:
288,145,5024,5,0,0:0:0:0:
121,143,5167,1,0,0:0:0:0:
413,108,5310,5,8,3:0:0:0:
413,108,5382,1,8,3:0:0:0:
413,108,5453,2,0,P|437:122|442:132,1,36,8|0,3:0|0:0,0:0:0:0:
340,184,5738,5,0,0:0:0:0:
391,182,5881,1,0,0:0:0:0:
364,137,6024,1,0,0:0:0:0:
366,222,6095,1,0,0:0:0:0:
272,272,6310,6,0,P|246:248|240:203,1,67.5000025749208
224,112,6595,2,0,P|204:162|211:184,1,67.5000025749208
192,272,6881,6,0,P|166:248|160:203,1,67.5000025749208
128,112,7167,2,0,P|108:162|115:184,1,67.5000025749208
96,272,7453,6,0,P|70:248|64:203,1,67.5000025749208
32,112,7738,2,0,P|12:162|19:184,1,67.5000025749208
16,160,8024,5,4,3:0:0:0:
64,224,8095,1,4,3:0:0:0:
112,160,8167,1,4,3:0:0:0:
160,224,8238,1,4,3:0:0:0:
208,160,8310,1,4,3:0:0:0:
322,128,8738,5,0,0:0:0:0:
278,237,8810,1,0,0:0:0:0:
132,285,9167,5,0,0:0:0:0:
107,172,9238,1,0,0:0:0:0:
224,96,9453,5,4,3:0:0:0:
192,96,9524,1,4,3:0:0:0:
192,160,9595,1,4,3:0:0:0:
224,160,9667,1,4,3:0:0:0:
224,224,9738,1,4,3:0:0:0:
192,224,9810,1,4,3:0:0:0:
288,224,9881,5,0,2:0:0:0:
304,224,9953,1,0,2:0:0:0:
320,224,10024,1,0,2:0:0:0:
336,224,10095,1,0,2:0:0:0:
352,224,10167,1,0,2:0:0:0:
368,224,10238,1,0,2:0:0:0:
384,224,10310,1,0,2:0:0:0:
128,144,10595,5,0,0:0:0:0:
208,144,10738,1,0,0:0:0:0:
352,224,10881,1,0,0:0:0:0:
256,224,11024,1,0,0:0:0:0:
256,144,11167,5,0,0:0:0:0:
256,272,11310,1,0,0:0:0:0:
256,144,11453,5,0,0:0:0:0:
256,272,11595,1,0,0:0:0:0:
134,111,11738,5,0,0:0:0:0:
234,120,11881,1,0,0:0:0:0:
327,81,12024,1,0,0:0:0:0:
412,134,12167,5,0,0:0:0:0:
364,223,12310,1,0,0:0:0:0:
397,318,12453,1,0,0:0:0:0:
303,354,12595,5,0,0:0:0:0:
236,277,12738,1,0,0:0:0:0:
140,244,12881,5,0,0:0:0:0:
140,244,13024,1,0,0:0:0:0:
140,244,13167,1,0,0:0:0:0:
140,244,13310,1,0,0:0:0:0:
208,128,13453,5,0,0:0:0:0:
208,208,13524,1,0,0:0:0:0:
176,128,13595,5,0,0:0:0:0:
256,128,13738,1,0,0:0:0:0:
256,208,13881,1,0,0:0:0:0:
320,128,14024,5,0,0:0:0:0:
400,128,14167,1,0,0:0:0:0:
320,208,14310,1,0,0:0:0:0:
400,208,14453,1,0,0:0:0:0:
448,256,14595,5,0,0:0:0:0:
352,256,14738,1,0,0:0:0:0:
400,256,14881,5,0,0:0:0:0:
304,256,15024,1,0,0:0:0:0:
224,224,15167,5,0,0:0:0:0:
224,160,15310,1,0,0:0:0:0:
288,160,15453,1,0,0:0:0:0:
288,224,15595,1,0,0:0:0:0:
192,256,15738,5,0,0:0:0:0:
192,128,15881,1,0,0:0:0:0:
320,128,16024,1,0,0:0:0:0:
320,256,16167,1,0,0:0:0:0:
384,224,16310,5,0,0:0:0:0:
384,224,16453,1,0,0:0:0:0:
384,224,16595,1,0,0:0:0:0:
384,224,16738,1,0,0:0:0:0:
336,144,16881,5,0,0:0:0:0:
336,144,17024,1,0,0:0:0:0:
416,96,17167,5,0,0:0:0:0:
416,96,17310,1,0,0:0:0:0:
